#TITLE:CHECKING YOU OUT;
#SUBTITLE:;
#ARTIST:good-cool feat. JP Miles;
#TITLETRANSLIT:;
#SUBTITLETRANSLIT:;
#ARTISTTRANSLIT:;
#GENRE:HIP HOP;
#CREDIT:Telperion;
#BANNER:[Round 1 Singles] - CHECKING YOU OUT.png;
#BACKGROUND:[Round 1 Singles] - CHECKING YOU OUT-bg.png;
#JACKET:[Round 1 Singles] - CHECKING YOU OUT-jacket.png;
#LYRICSPATH:;
#CDTITLE:cdtitle.png;
#MUSIC:[Round 1 Singles] - CHECKING YOU OUT.ogg;
#OFFSET:-1.419000;
#SAMPLESTART:23.650000;
#SAMPLELENGTH:17.778000;
#SELECTABLE:YES;
#DISPLAYBPM:108;
#BPMS:0.000000=108.000000
,166.000000=162.000000
,166.500000=81.000000
,167.333328=108.000000
,167.666672=162.000000
,168.000000=108.000000
;
#STOPS:
;
#BGCHANGES:;
#KEYSOUNDS:;
#ATTACKS:;

//---------------dance-single - Telperion----------------
#NOTES:
     dance-single:
     Telperion:
     Hard:
     6:
     0.385183,0.363768,0.164880,0.077591,0.189128,253.000000,17.000000,8.000000,0.000000,0.000000,0.000000,0.385183,0.363768,0.164880,0.077591,0.189128,253.000000,17.000000,8.000000,0.000000,0.000000,0.000000:
1000
0000
0001
0000
1000
0010
1000
0000
,
0001
0000
0001
0000
1000
0002
1000
0100
,
1003
0000
0001
0000
0010
0010
0001
0000
,
1000
0000
0001
0000
0010
0001
0100
0000
,
0001
0000
1000
0000
0010
0010
0100
0000
,
0001
0000
1000
0000
0010
0010
1000
1000
,
0001
0000
0010
0000
0100
0100
0010
0000
,
0001
0000
0010
0000
0001
1000
0001
0000
,
1000
1000
0010
0000
0001
0001
0010
1000
,
1001
0000
0000
0000
1000
0100
0001
0000
,
1100
1000
0000
0000
0001
0001
0000
0000
,
0100
0100
0001
0000
0001
1000
0001
0000
,
0101
0001
0000
0000
0010
0010
0000
0000
,
0100
0100
1000
0000
0001
0001
1000
0001
,
1010
1000
0000
0000
0001
0001
0000
0000
,
0100
0001
1000
0000
1000
0001
1000
0001
,
0011
0010
0000
0000
0100
0100
0000
0000
,
1000
0100
0001
0100
1000
0010
0001
0010
,
2000
0000
0000
0000
0000
0000
0000
3001
1000
0000
1000
0000
0010
0000
0000
0000
,
0100
0010
0100
0001
0100
1000
0100
0000
,
0002
0000
0000
0000
0000
0000
0003
1000
0001
0000
0001
0000
0010
0000
0000
0000
,
0100
0000
0000
1000
0000
0001
0000
1000
0000
0000
0000
0000
0100
0000
1000
0000
,
1001
0000
0001
0000
0100
0000
0000
0001
1000
0000
0001
0000
0100
0000
0000
0000
,
0010
0100
0010
0001
0010
1000
0001
0000
,
1000
0000
1000
0000
0100
0000
0000
1000
0001
0000
1000
0000
0100
0000
0000
0000
,
0010
0000
0000
0000
0110
0000
0000
0001
1000
0000
0001
0000
1000
0000
0010
0000
,
0110
0000
0000
0100
0000
0000
0001
0000
0000
1000
0000
0000
0100
0000
1000
0000
,
0010
0000
0000
0000
0010
0000
0000
0000
0100
0001
0000
0001
0000
0000
0100
0000
,
0010
0000
0000
1000
0000
0000
0001
0000
0000
0010
0000
0000
0001
0000
1000
0000
,
0010
0000
0010
0000
1000
0010
0001
0010
,
1000
0000
0000
0100
0000
0000
0010
0000
0000
0001
0000
0000
1000
0000
0001
0000
,
0010
0000
0000
0000
0010
0000
0000
0000
0100
1000
0000
1000
0000
0000
0001
0000
,
0010
0000
0000
0001
0000
0000
1000
0000
0000
0010
0000
0000
1000
0000
0001
0000
,
1001
1001
0000
0110
0000
0100
1001
1001
,
0001
0000
0000
0000
0010
0000
0000
0000
0001
0000
1000
0000
0000
0010
0000
0020
,
0000
0000
0000
0000
1030
0000
0000
0010
0000
0000
0100
0000
0010
0000
0000
0000
,
1000
0001
0000
0000
0001
0000
0000
0000
0100
0000
0001
0000
0000
0010
0000
0020
,
0000
0000
0000
0000
0130
0000
0000
0000
1000
0100
0000
0000
1000
0000
0000
0000
,
1001
0000
0000
0000
0001
0000
0000
0000
0010
0001
0000
0000
1000
0010
0000
0020
,
0000
0000
0000
0000
0100
0000
0000
0000
1030
0000
0000
0000
0001
0010
0000
0020
,
0000
0000
0001
0000
0130
1000
0100
0000
,
0010
0000
0000
0100
0000
0000
1000
0000
0201
0000
0000
0000
0000
0000
0000
0000
,
0310
0000
1000
0000
0010
0000
0000
0000
0100
0001
0000
0001
0000
1000
0000
0000
,
0010
0000
0000
0100
0000
0000
0001
0000
1000
0100
0000
0100
0000
0000
0010
0000
,
0110
0110
0000
0000
0000
0000
0000
0000
;

//---------------dance-single - Telperion----------------
#NOTES:
     dance-single:
     Telperion:
     Medium:
     3:
     0.224459,0.192583,0.077591,0.009699,0.004849,153.000000,8.000000,1.000000,0.000000,0.000000,0.000000,0.224459,0.192583,0.077591,0.009699,0.004849,153.000000,8.000000,1.000000,0.000000,0.000000,0.000000:
1000
1000
0001
0000
,
0010
0001
1000
0001
,
0110
0000
0001
0000
,
1000
0000
0100
1000
,
0001
0000
0010
0000
,
0100
0010
0001
1000
,
1001
0000
1000
0000
,
0010
0000
0100
0000
,
0001
0000
0000
0000
0001
0000
0000
1000
,
1000
0000
0001
0001
,
1000
1000
0000
0000
0100
0100
0000
0000
,
1000
1000
0000
0000
0001
0000
1000
0000
,
0001
0001
0000
0000
0100
0100
0000
0000
,
0010
0010
0000
0000
1000
0000
1000
0000
,
0001
0001
0000
0000
0010
0010
0000
0000
,
0100
0100
0000
0000
1000
0000
0001
0000
,
1000
1000
0000
0000
0001
0000
1000
0000
,
0010
0100
0001
1000
,
1001
0000
0000
0000
0001
0001
0000
0000
,
0010
0100
1000
0001
,
0100
0000
0000
0000
0100
0100
0000
0000
,
0010
0100
0010
0000
,
1001
0000
0000
0000
1000
1000
0000
0000
,
0010
0100
0001
1000
,
0100
0000
0000
0000
0100
0100
0000
0000
,
0010
0010
0010
0100
,
1001
0000
0000
0000
0001
0001
0000
0000
,
1000
1000
0000
0000
0001
0000
1000
0000
,
0010
0000
0000
0000
0010
0010
0000
0000
,
0100
0100
0001
1000
,
0110
0000
0000
0000
1000
1000
0000
0000
,
0001
0001
0000
0000
1000
0000
0100
0000
,
0010
0000
0000
0000
0010
0010
0000
0000
,
0001
0001
0000
1000
0000
0001
1000
1000
,
0001
0100
0001
0100
,
0010
0000
1000
1000
,
0001
0010
0001
0010
,
0100
0000
1000
0001
,
1000
0010
1000
0010
,
0100
0000
0001
0001
,
1000
0010
0100
0001
,
1000
0000
0200
0000
,
0310
0000
0100
0000
,
1000
0000
0000
1000
0000
0000
1000
0000
0001
0000
0000
0000
0100
0000
0000
0000
,
0110
0110
0000
0000
0000
0000
0000
0000
;

//---------------dance-single - Telperion----------------
#NOTES:
     dance-single:
     Telperion:
     Easy:
     2:
     0.130242,0.128389,0.038795,0.009699,0.000000,89.000000,4.000000,1.000000,0.000000,0.000000,0.000000,0.130242,0.128389,0.038795,0.009699,0.000000,89.000000,4.000000,1.000000,0.000000,0.000000,0.000000:
1000
0000
1000
0000
,
0001
0000
0001
0000
,
1001
0000
0000
0000
,
0100
0000
0001
0000
,
0001
0000
0000
0000
,
0100
0000
1000
0001
,
1000
0000
0000
0000
,
0100
0000
0001
0000
,
0001
0000
0000
0000
,
1000
0000
0001
1000
,
1001
0000
1000
0000
,
0100
0000
0100
0000
,
0010
0000
0010
0000
,
0001
0000
1000
0000
,
0001
0000
0001
0000
,
0100
0000
0100
0000
,
0010
0000
0010
0000
,
1000
0000
1000
0001
,
1001
0000
0000
0000
,
0010
0001
0010
0001
,
0010
0000
0000
0000
,
1000
0000
0001
0000
,
1000
0000
0000
0000
,
0010
1000
0010
1000
,
0010
0000
0000
0000
,
0100
0000
0100
0100
,
0100
0000
0000
0000
,
0001
0000
1000
0000
,
0001
0000
0000
0000
,
0010
0000
0100
0000
,
0100
0000
0000
0000
,
1000
0000
0001
0000
,
1000
0000
0000
0000
,
0010
0010
0100
0010
,
1001
0000
0000
0000
,
0001
0000
0001
0001
,
1000
0000
0000
0000
,
1000
0000
1000
1000
,
0010
0000
0000
0000
,
0010
0000
0010
0010
,
0100
0000
0001
1000
,
0001
0000
0200
0000
,
0300
0010
0000
1000
,
0000
0100
0000
1000
,
0001
0001
0000
0000
0000
0000
0000
0000
;

//---------------dance-single - Telperion----------------
#NOTES:
     dance-single:
     Telperion:
     Beginner:
     1:
     0.055422,0.064012,0.000000,0.000000,0.000000,40.000000,0.000000,0.000000,0.000000,0.000000,0.000000,0.055422,0.064012,0.000000,0.000000,0.000000,40.000000,0.000000,0.000000,0.000000,0.000000,0.000000:
// measure 0
0000
0000
0000
0000
,  // measure 1
0000
0000
0000
0000
,  // measure 2
1000
0000
0000
0000
,  // measure 3
1000
0000
0000
0000
,  // measure 4
0001
0000
0000
0000
,  // measure 5
0001
0000
0000
0000
,  // measure 6
1000
0000
0000
0000
,  // measure 7
1000
0000
0000
0000
,  // measure 8
0001
0000
0000
0000
,  // measure 9
0010
0000
0000
0000
,  // measure 10
0001
0000
0000
0000
,  // measure 11
0001
0000
0000
0000
,  // measure 12
0100
0000
0000
0000
,  // measure 13
0100
0000
0000
0000
,  // measure 14
0010
0000
0000
0000
,  // measure 15
0010
0000
0000
0000
,  // measure 16
1000
0000
0000
0000
,  // measure 17
0001
0000
0000
0000
,  // measure 18
1000
0000
0000
0000
,  // measure 19
1000
0000
0000
0000
,  // measure 20
0100
0000
0000
0000
,  // measure 21
0100
0000
0000
0000
,  // measure 22
0010
0000
0000
0000
,  // measure 23
0010
0000
0000
0000
,  // measure 24
0001
0000
0000
0000
,  // measure 25
1000
0000
0000
0000
,  // measure 26
0010
0000
0000
0000
,  // measure 27
0100
0000
0000
0000
,  // measure 28
0010
0000
0000
0000
,  // measure 29
0100
0000
0000
0000
,  // measure 30
0001
0000
0000
0000
,  // measure 31
1000
0000
0000
0000
,  // measure 32
0001
0000
0000
0000
,  // measure 33
1000
0000
0000
0000
,  // measure 34
0100
0000
0000
0000
,  // measure 35
0000
0000
0000
0000
,  // measure 36
0100
0000
0000
0000
,  // measure 37
0000
0000
0000
0000
,  // measure 38
0100
0000
0000
0000
,  // measure 39
0000
0000
0000
0000
,  // measure 40
0100
0000
0000
0000
,  // measure 41
0000
0000
0000
0000
,  // measure 42
0010
0000
0000
0000
,  // measure 43
0001
0000
1000
0000
,  // measure 44
0001
0000
0000
0000
;
