#TITLE:Bambous;
#SUBTITLE:;
#ARTIST:Caravan Palace;
#TITLETRANSLIT:;
#SUBTITLETRANSLIT:;
#ARTISTTRANSLIT:;
#GENRE:;
#CREDIT:;
#BANNER:Bambous_bn.png;
#BACKGROUND:Bambous_bg.png;
#LYRICSPATH:;
#CDTITLE:!gameoson.png;
#MUSIC:Bambous.mp3;
#OFFSET:-0.038;
#SAMPLESTART:7.474;
#SAMPLELENGTH:14.884;
#SELECTABLE:YES;
#BPMS:0.000=129.000
;
#STOPS:
;
#BGCHANGES:;
#KEYSOUNDS:;
#ATTACKS:;

//---------------dance-single - ----------------
#NOTES:
     dance-single:
     :
     Challenge:
     9:
     0.696,0.797,0.156,0.414,0.559,550.000,20.000,53.000,0.000,0.000,0.000,0.696,0.797,0.156,0.414,0.559,550.000,20.000,53.000,0.000,0.000,0.000: // measure 0
0000
0000
0000
0000
,  // measure 1
0000
0000
0000
0000
,  // measure 2
0000
0000
0000
0000
,  // measure 3
0000
0000
0000
0000
,  // measure 4
1000
0000
0000
0000
0001
0000
0000
0000
0100
0000
0000
0000
0001
0000
0000
0000
0020
0000
0000
0000
0000
0030
1000
0000
0020
0000
0000
0000
0000
0030
0100
0000
,  // measure 5
1000
0000
0010
1000
0000
1000
0100
0000
0002
0000
0000
0000
0103
0000
0020
0000
,  // measure 6
0001
0000
0000
0000
0000
0000
0031
0000
0000
0100
0000
0000
1000
0000
0000
0100
0000
0000
0010
0000
1000
0010
0000
0000
,  // measure 7
1000
0000
0000
0000
0100
0000
0000
0000
0001
0000
0000
0000
0100
0000
0000
0000
2000
0000
0000
0000
0000
3000
0010
0000
1000
0000
0000
0000
0000
0000
0000
0000
,  // measure 8
0001
0000
0000
0000
1000
0000
0000
0000
0100
0000
0000
0000
1000
0000
0000
0000
0020
0000
0000
0000
0000
0030
0001
0000
0020
0000
0000
0000
0000
0030
0100
0000
,  // measure 9
0001
0000
0010
0001
0000
0001
0100
0000
2000
0000
0000
0000
3100
0000
0020
0000
,  // measure 10
1000
0000
0000
0000
0000
0000
1030
0000
0000
0100
0000
0000
0001
0000
0000
0100
0000
0000
0010
0000
0100
0010
0000
0000
,  // measure 11
0110
0000
0000
0000
0000
0100
0010
0000
0000
0010
0000
0000
0001
0000
1000
0010
0000
0000
0110
0000
0000
0000
0000
0000
,  // measure 12
2010
0000
3001
0100
0001
0100
0010
0100
,  // measure 13
1000
0000
0100
0000
0001
0000
1000
0000
0100
0000
0000
1000
0100
0000
0012
0000
,  // measure 14
0000
0003
0010
0001
0000
0000
0100
0000
0000
2010
0000
0000
0000
3000
0010
1000
0000
0000
0100
0000
0000
1002
0000
0000
,  // measure 15
0000
0000
0000
0013
0000
0000
0001
0000
0000
0000
0000
0000
0100
0000
0000
0000
0000
0000
0001
0000
0000
0000
0000
0000
1000
0000
0000
0000
0000
0000
0000
0000
0000
0100
0000
0000
0000
0000
0000
0000
0010
0000
0001
0000
0000
0000
0000
0000
,  // measure 16
1000
0010
1000
0000
0100
0000
0010
0000
0100
0000
0010
0000
1000
0000
0010
0000
,  // measure 17
0001
0000
1000
0000
0100
0000
1000
0000
0001
0000
0000
0100
0001
0000
2010
0000
,  // measure 18
0000
3000
0010
1000
0000
0000
0100
0000
0000
0012
0000
0000
0000
0003
0010
0001
0000
0000
0100
0000
0000
1020
0000
0000
,  // measure 19
0000
0000
0000
0130
0000
0000
0000
0000
0000
0000
0000
0000
0001
0000
0000
0000
0000
0000
0001
0000
0000
0000
0000
0000
0100
0000
0010
0000
0100
0000
0010
0000
0100
0000
0010
0000
0200
0000
0000
0000
0000
0000
0000
0000
0000
0000
0000
0000
,  // measure 20
0310
0000
0000
0000
1000
0000
0000
0000
0100
0000
0000
0000
1000
0000
0000
0000
0020
0000
0000
0000
0000
0030
0001
0000
0020
0000
0000
0000
0000
0030
0100
0000
,  // measure 21
0001
0000
1000
0010
0000
0010
0100
0000
2000
0000
0000
0000
3100
0000
0020
0000
,  // measure 22
1000
0000
0000
0000
0000
0000
1030
0000
0000
0100
0000
0000
0001
0000
0000
0100
0000
0000
0010
0000
0001
0010
0000
0000
,  // measure 23
0001
0000
0000
0000
0100
0000
0000
0000
1000
0000
0000
0000
0100
0000
0000
0000
0002
0000
0000
0000
0000
0003
0010
0000
0001
0000
0000
0000
0000
0000
0000
0000
,  // measure 24
0010
0000
0000
0000
0001
0000
0000
0000
0100
0000
0000
0000
0001
0000
0000
0000
0020
0000
0000
0000
0000
0030
1000
0000
0020
0000
0000
0000
0000
0030
0100
0000
,  // measure 25
1000
0000
0001
0010
0000
0010
0100
0000
0002
0000
0000
0000
0103
0000
0020
0000
,  // measure 26
0001
0000
0000
0000
0000
0000
0031
0000
0000
0100
0000
0000
1000
0000
0000
0100
0000
0000
0010
0000
0100
0010
0000
0000
,  // measure 27
0110
0110
2001
0000
,  // measure 28
3001
0000
0000
0000
0000
0000
1000
0000
0000
0000
0000
0000
0001
0000
0000
0000
0000
0000
1000
0000
0001
0100
0000
0000
,  // measure 29
0010
0000
0000
0000
0000
0000
1000
0000
0000
0000
0000
0000
0010
0000
0000
0000
0000
0000
1000
0000
0100
0010
0000
0000
,  // measure 30
0001
0000
0000
0000
0000
0000
0100
0000
0001
1000
0000
0000
0100
0000
0000
0000
0000
0000
0100
0000
1000
0001
0000
0000
,  // measure 31
0010
0000
0000
0000
0000
0000
0001
1000
0001
1000
0001
1000
0002
0000
0000
0000
0000
0000
1003
0000
0000
0000
0000
0000
,  // measure 32
0001
0000
0000
0100
0000
0000
0001
0000
0000
0100
0000
0000
0010
0000
0000
1000
0000
0000
0001
0000
1000
0100
0000
0000
,  // measure 33
0010
0000
0000
0001
0000
0000
0010
0000
0000
0001
0000
0000
0100
0000
0000
0001
0000
0000
1000
0000
0010
0100
0000
0000
,  // measure 34
0010
0000
0000
1000
0000
0000
0100
0000
0010
0100
0000
0000
1000
0000
0000
0010
0000
0000
0100
0000
0000
0001
0000
0000
,  // measure 35
0010
0000
0001
0000
1000
0000
0100
0000
0010
0000
0000
0001
0010
0000
0000
0100
,  // measure 36
0010
0000
0000
0001
0000
0000
0100
0000
0000
0001
0000
0000
1000
0000
0010
1000
0000
0010
1000
0000
0010
1000
0000
0000
,  // measure 37
0001
0000
1000
0100
0000
1000
0100
0000
1000
0001
1000
0001
0100
0000
0000
0100
0000
0000
0001
0000
0100
0010
0000
1000
,  // measure 38
0001
0000
0000
0010
0000
0000
0100
0000
0000
0010
0000
0000
0001
0000
1000
0001
0000
0000
1000
0000
0001
1000
0000
0010
,  // measure 39
0100
0000
0000
0000
0000
0010
0100
0001
,  // measure 40
1001
0000
0000
1000
0000
0000
0010
0000
0000
0010
0000
0000
0100
0000
0001
0100
0000
0000
0001
0000
0010
0100
0000
0010
,  // measure 41
0000
0000
0100
1000
0000
0001
1000
0000
0001
1000
0000
0001
0100
0000
0000
0100
0000
0000
0010
0000
1000
0010
0000
1000
,  // measure 42
0001
0000
0000
0001
0000
0000
0010
0000
0000
0010
0000
0000
0100
0000
1000
0100
0000
0000
1000
0000
0010
0100
0000
0010
,  // measure 43
0000
0000
1000
0001
0000
0010
0001
0000
0010
0001
0000
0010
0100
0000
0000
0100
0000
0000
1000
0000
0001
1000
0000
0001
,  // measure 44
0100
0000
0000
0010
0000
0000
1000
0000
0001
0010
0000
0001
0010
0000
0002
0000
0000
0000
0013
0000
0001
0100
0000
0010
,  // measure 45
0000
0000
0200
0000
0000
0000
0310
0000
1000
0010
0000
1000
0001
0000
1000
0100
0000
0010
0001
0000
0000
0010
0000
0000
,  // measure 46
0001
0000
0000
0100
0000
0010
1000
0000
0000
0001
0000
0010
0001
0000
1000
0001
0000
1000
0010
0000
1000
0001
0000
1000
,  // measure 47
0100
0000
1000
0001
0000
0100
0001
0000
0000
1000
0100
1000
0100
0000
0010
0001
0000
1000
0010
0000
1000
0001
0000
1000
,  // measure 48
0100
0000
0020
0000
0000
0000
0031
0000
0000
0100
0000
0000
0002
0000
0000
0000
0003
0010
0002
0000
0000
0000
0000
1003
,  // measure 49
0000
0000
0020
0000
0000
0000
0130
0000
0010
1000
0000
0001
1000
0000
0000
1000
0000
0100
0010
0000
0002
0000
0000
0000
,  // measure 50
0013
0000
0000
0010
0000
0000
0001
0000
0000
0001
0000
0100
0010
0000
0000
1000
0000
0010
1000
0000
0001
1000
0000
0001
,  // measure 51
1000
0000
0000
0000
0000
0100
0000
0000
,  // measure 52
0012
0000
1003
0100
1000
0100
0001
0100
,  // measure 53
0010
0000
0001
0000
0100
0000
0001
0000
0010
0000
0000
0100
1000
0000
0012
0000
,  // measure 54
0000
0003
0100
0001
0000
0000
0010
0000
0000
2100
0000
0000
0000
3000
0010
1000
0000
0000
0100
0000
0000
1002
0000
0000
,  // measure 55
0000
0000
0000
0013
0000
0000
0001
0000
0000
0000
0000
0000
0100
0000
0000
0000
0000
0000
0001
0000
0000
0000
0000
0000
0010
0000
0000
0000
0000
0000
0000
0000
0000
0100
0000
0000
0000
0000
0000
0000
1000
0000
0010
0000
0000
0000
0000
0000
,  // measure 56
1000
0001
1000
0000
0100
0000
0010
0000
0100
0000
0010
0000
1000
0000
0010
0000
,  // measure 57
0001
0000
0100
0000
0010
0000
1000
0000
0001
0000
0000
0100
0001
0000
2010
0000
,  // measure 58
0000
3000
0100
1000
0000
0000
0010
0000
0000
0102
0000
0000
0000
0003
0010
0001
0000
0000
0100
0000
0000
2001
0000
0000
,  // measure 59
0000
3010
0000
0000
1000
0000
1000
0000
0100
0000
0000
0010
0002
0000
0000
0000
,  // measure 60
0103
0000
0000
0000
1000
0000
0000
0000
0100
0000
0000
0000
0001
0000
0000
0000
0020
0000
0000
0000
0000
0030
1000
0000
0020
0000
0000
0000
0000
0030
0100
0000
,  // measure 61
1000
0000
0001
0100
0000
0100
0010
0000
0002
0000
0000
0000
0013
0000
2000
0000
,  // measure 62
0001
0000
0000
0000
0000
0000
3001
0000
0000
0010
0000
0000
1000
0000
0000
0010
0000
0000
0001
0000
0100
0001
0000
0000
,  // measure 63
0100
0000
0000
0000
1000
0000
0000
0000
0100
0000
0000
0000
0001
0000
0000
0000
2000
0000
0000
0000
0000
3000
0010
0000
1000
0000
0000
0000
0000
0000
0000
0000
,  // measure 64
0100
0000
0000
0000
0001
0000
0000
0000
0100
0000
0000
0000
1000
0000
0000
0000
0020
0000
0000
0000
0000
0030
0001
0000
0020
0000
0000
0000
0000
0030
0100
0000
,  // measure 65
0010
0000
1000
0100
0000
0100
0010
0000
2000
0000
0000
0000
3010
0000
0002
0000
,  // measure 66
1000
0000
0000
0000
0000
0000
1003
0000
0000
0010
0000
0000
0001
0000
0000
0010
0000
0000
1000
0000
0010
1000
0000
0000
,  // measure 67
0001
0000
0000
0000
1000
0000
0000
0000
0100
0000
0000
0000
0010
0000
0000
0000
0002
0000
0000
0000
0000
0003
0100
0000
0010
0000
0000
0000
0000
0000
0000
0000
,  // measure 68
1000
0000
0000
0000
;

//---------------dance-single - ----------------
#NOTES:
     dance-single:
     :
     Hard:
     8:
     0.515,0.478,0.149,0.133,0.192,425.000,19.000,17.000,0.000,0.000,0.000,0.515,0.478,0.149,0.133,0.192,425.000,19.000,17.000,0.000,0.000,0.000:
0000
0000
0000
0000
,
0000
0000
0000
0000
,
0000
0000
0000
0000
,
0000
0000
0000
0000
,
1000
0000
0010
0000
0100
0000
0001
0000
0010
0000
0000
0010
0001
0000
0000
0001
,
0100
0000
0010
1000
0000
0010
1000
0000
0001
0000
0000
0000
0100
0000
0010
0000
,
1000
0000
0100
0001
0100
1000
0010
0010
,
1000
0000
0100
0000
0010
0000
0001
0000
0100
0000
0000
0010
0000
0000
1000
0000
,
0001
0000
0010
0000
0100
0000
1000
0000
0010
0000
0000
0010
1000
0000
0000
1000
,
0100
0000
0010
0001
0000
0010
0001
0000
1000
0000
0000
0000
0100
0000
0010
0000
,
0001
0000
0100
1000
0100
0001
0010
0010
,
0001
0000
0100
0010
0100
0000
0110
0000
,
2001
0000
3001
0100
0001
0100
0010
1000
,
0100
0000
0001
0000
0100
0000
1000
0000
0001
0000
0000
0100
0000
0000
2010
0000
,
0000
3100
0010
0012
0000
0103
0010
0210
,
0000
0310
0000
0000
1000
0000
0100
0000
1000
0000
0000
0001
0000
0000
0100
0000
,
0001
1000
0001
1000
0100
0010
0001
0100
,
1000
0000
0100
0000
0010
0000
1000
0000
0001
0000
0000
0010
0000
0000
0012
0000
,
0000
0103
0010
2010
0000
3100
0010
0210
,
0000
0310
0000
0000
0001
0000
0100
0000
0010
0000
0000
0000
1001
0000
0000
0000
,
0010
0000
0001
0000
0100
0000
0010
0000
1000
0000
0000
1000
0100
0000
0000
0100
,
0010
0000
0001
1000
0000
0001
1000
0000
0010
0000
0000
0000
0100
0000
0010
0000
,
1000
0000
0010
0001
0010
1000
0100
0100
,
1000
0000
0010
0000
0100
0000
0001
0000
0010
0000
0000
0100
0000
0000
1000
0000
,
0010
0000
1000
0000
0100
0000
0010
0000
0001
0000
0000
0001
0100
0000
0000
0100
,
0010
0000
1000
0001
0000
1000
0001
0000
0010
0000
0000
0000
0100
0000
0010
0000
,
0001
0000
0010
1000
0010
0001
0100
0100
,
0010
0010
1002
0000
,
0013
0000
0001
0000
0010
0000
0001
1000
,
0010
0000
1000
0000
0010
0000
1000
0100
,
0010
0000
0001
0100
0010
0000
1000
0100
,
0010
2002
0000
3003
,
1000
0000
0001
0000
0100
0000
1000
0100
,
0001
0000
0010
0000
0100
0000
0010
0100
,
1000
0000
0001
1000
0100
0000
1000
0010
,
0001
0000
0000
0000
0010
0000
0000
0000
1000
0000
0000
0001
0010
0000
0000
0001
,
0010
0000
0001
0000
1000
0000
0010
1000
,
0100
0000
0010
0000
0001
0000
0100
0001
,
0010
0000
1000
0010
0001
0000
0100
0010
,
1000
0000
0000
0000
0000
1000
0100
0010
,
0001
0000
0001
0000
0100
0000
0100
0000
0010
0000
0010
0000
1000
0000
0000
0001
,
0000
0010
0010
0001
0001
0100
0010
1000
,
0100
0000
0100
0000
1000
0000
1000
0000
0010
0000
0010
0000
0100
0000
0000
1000
,
0000
0100
0100
0001
0001
0010
0100
1000
,
0001
0000
0100
0000
0010
0000
1000
0000
0010
1000
0000
0000
0001
0000
0010
0100
,
0000
0010
0000
0000
0001
0000
0100
0000
0010
0000
1000
0000
0100
0000
0010
0000
,
0001
0100
1000
0100
0001
0010
0001
0100
,
0001
0000
0010
0000
0100
0000
1000
0001
1000
0000
0010
0000
0100
0000
0001
0000
,
1000
0010
0000
0000
0010
0000
1000
0000
0100
0000
0000
1000
0001
0000
0000
0100
,
0000
0010
0000
0000
1000
0000
0100
0000
1000
0000
0010
0000
0001
0000
0010
0000
,
1000
1000
0100
0100
0010
0010
0001
1000
,
0001
0000
0000
0000
0000
0100
0000
0000
,
1002
0000
1003
0100
1000
0100
0010
0001
,
0100
0000
1000
0000
0100
0000
0001
0000
1000
0000
0000
0100
0000
0000
0021
0000
,
0000
0031
1000
1020
0000
0130
0001
0201
,
0000
0310
0000
0000
1000
0000
0100
0000
1000
0000
0000
0010
0000
0000
0100
0000
,
0001
1000
0001
1000
0100
0010
0001
1000
,
0010
0000
0001
0000
0010
0000
0100
0000
0001
0000
0000
0100
0000
0000
1020
0000
,
0000
1030
0001
0021
0000
0130
1000
1200
,
0000
0310
0000
0000
0001
0000
0100
0000
0010
0000
0000
0000
1001
0000
0000
0000
,
1000
0000
0010
0000
1000
0000
0100
0000
0010
0000
0000
0010
0001
0000
0000
0001
,
1000
0000
0001
0010
0000
0001
0010
0000
0100
0000
0000
0000
1000
0000
0010
0000
,
0100
0000
0001
0100
1000
0100
0001
0001
,
0010
0000
0001
0000
1000
0000
0010
0000
1000
0000
0000
0100
0000
0000
1000
0000
,
0001
0000
0010
0000
0001
0000
0100
0000
0010
0000
0000
0010
1000
0000
0000
1000
,
0001
0000
1000
0010
0000
1000
0010
0000
0100
0000
0000
0000
0001
0000
0010
0000
,
0100
0000
1000
0100
0001
0100
1000
1000
,
0010
0000
1000
0001
1000
0000
0010
0000
,
0100
0000
0000
0000
;

//---------------dance-single - ----------------
#NOTES:
     dance-single:
     :
     Medium:
     5:
     0.353,0.372,0.055,0.133,0.039,292.000,7.000,17.000,0.000,0.000,0.000,0.353,0.372,0.055,0.133,0.039,292.000,7.000,17.000,0.000,0.000,0.000:
0000
0000
0000
0000
,
0000
0000
0000
0000
,
0000
0000
0000
0000
,
0000
0000
0000
0000
,
0001
0100
0010
1000
,
0100
0000
0000
1000
0000
0000
0100
0000
0010
0000
0000
0000
0001
0000
0000
0000
,
0100
0000
1000
0000
0100
0000
0001
0001
,
0010
0001
0100
0010
,
1000
0100
0010
0001
,
0100
0000
0000
0001
0000
0000
0100
0000
0010
0000
0000
0000
1000
0000
0000
0000
,
0100
0000
0001
0000
0100
0000
1000
1000
,
0010
0000
0000
0110
,
1002
0103
0100
0010
,
1000
0000
0100
0000
0010
0000
0100
2000
,
0000
3001
0100
0002
0000
1003
0100
0020
,
0000
0031
0000
0000
1000
0000
0001
0000
1000
0000
0000
0000
0010
0000
0000
0000
,
1000
0100
0100
0010
,
0001
0000
0100
0000
0010
0000
1000
0200
,
0000
1300
0001
0200
0000
0301
1000
0020
,
0000
0130
0000
0000
0010
0000
0100
0000
0010
0000
0000
0000
1001
0000
0000
0000
,
1000
0010
0100
0001
,
0010
0000
0000
0100
0000
0000
0010
0000
0001
0000
0000
0000
1000
0000
0000
0000
,
0010
0000
0001
0000
0010
0000
1000
1000
,
0100
1000
0010
0100
,
0001
0010
0100
1000
,
0010
0000
0000
0100
0000
0000
0010
0000
1000
0000
0000
0000
0001
0000
0000
0000
,
0010
0000
1000
0000
0010
0000
0001
0001
,
0100
0100
0210
0000
,
0301
0000
0000
0000
0000
0000
0000
1000
,
0010
0000
0000
0000
0000
0000
0000
0001
,
0010
0000
0000
1000
0100
0000
0000
0010
,
0001
0022
0000
0033
,
0001
0000
1000
0000
0001
0000
1000
0010
,
0100
0000
0010
0000
0100
0000
0010
0100
,
0001
0000
0010
0100
1000
0000
0010
0100
,
0001
1000
0001
0010
,
0010
0000
0001
0000
1000
0000
0010
1000
,
0010
0000
0100
0000
0001
0000
0010
0001
,
0010
0000
0100
1000
0100
0000
0010
0001
,
1000
0000
0000
0000
0000
1000
0100
0010
,
0001
0100
1000
0100
,
0001
0000
1000
0000
0100
0010
0100
1000
,
0001
0100
1000
0100
,
0010
0000
1000
0000
0001
1000
0010
1000
,
0100
1000
0010
1000
,
0100
0010
0001
0100
,
0010
1000
0001
0000
0010
0000
0001
0000
,
0100
0010
0100
0000
0010
1000
0001
1000
,
0100
1000
1000
0001
,
0100
0000
0010
1000
0001
0000
0010
0000
,
1000
0000
0010
0000
0001
0000
0100
0010
,
0100
0000
0000
0000
0000
0010
0000
0000
,
2001
3100
0100
0010
,
0001
0000
0100
0000
0001
0000
0010
0002
,
0000
1003
0010
2000
0000
3001
0010
0200
,
0000
0310
0000
0000
0100
0000
1000
0000
0100
0000
0000
0000
1000
0000
0000
0000
,
0001
0100
0100
0010
,
1000
0000
0001
0000
0010
0000
0001
0200
,
0000
0310
1000
0200
0000
0310
0001
2000
,
0000
3001
0000
0000
1000
0000
0001
0000
1000
0000
0000
0000
0110
0000
0000
0000
,
0001
0010
0001
0100
,
0010
0000
0000
1000
0000
0000
0001
0000
1000
0000
0000
0000
0100
0000
0000
0000
,
0001
0000
0100
0000
1000
0000
0010
0010
,
0100
0001
0010
0001
,
1000
0010
1000
0100
,
0010
0000
0000
0001
0000
0000
1000
0000
0001
0000
0000
0000
0100
0000
0000
0000
,
1000
0000
0100
0000
0001
0000
0010
0010
,
0100
1000
0010
0100
,
0001
0000
0000
0000
;

//---------------dance-single - ----------------
#NOTES:
     dance-single:
     :
     Easy:
     3:
     0.213,0.213,0.086,0.016,0.000,178.000,11.000,2.000,0.000,0.000,0.000,0.213,0.213,0.086,0.016,0.000,178.000,11.000,2.000,0.000,0.000,0.000:
0000
0000
0000
0000
,
0000
0000
0000
0000
,
0000
0000
0000
0000
,
0000
0000
0000
0000
,
0001
1000
0010
1000
,
0100
0000
0010
0000
,
0001
0100
0010
1000
,
0000
0100
0010
0001
,
1000
0001
0010
0001
,
0100
0000
0010
0000
,
1000
0100
0010
0001
,
1000
0000
0000
0010
,
1001
0001
1000
1000
,
0010
1000
0100
0000
,
0110
0000
1001
0000
,
0001
1000
0010
0000
,
1000
1000
0100
0100
,
0010
0001
0100
0000
,
1001
0000
0110
0000
,
0001
0000
0000
0000
,
1000
0100
1000
0010
,
0100
0000
0001
0000
,
0010
0001
0100
0010
,
0000
1000
0100
0010
,
0001
0100
0001
0010
,
0100
0000
1000
0000
,
0010
1000
0100
0010
,
0001
0001
2000
0000
,
3001
0000
0000
0000
,
0010
0000
0000
0000
,
0001
0000
0100
0000
,
0010
0200
0000
0300
,
1001
0000
0100
0000
,
0010
0000
1000
0000
,
0100
0000
0010
0000
,
0001
0000
0100
0010
,
0100
0000
0010
0000
,
1000
0000
0001
0000
,
0010
0001
0100
0010
,
1000
0000
0000
0000
,
1000
1000
0001
0001
,
0100
0000
0010
0000
,
1000
1000
0001
0001
,
0010
0000
0100
0000
,
1000
0000
0001
0000
,
0010
0000
0001
0000
,
0100
0000
0010
0000
,
1000
0000
0100
0000
,
1000
0001
0001
0000
,
0100
0010
1000
0000
,
0001
0001
0010
0010
,
0100
0000
0000
0000
,
1001
1000
0001
0001
,
0010
0100
1000
0000
,
1010
0000
0101
0000
,
0100
0010
1000
0000
,
0001
0001
0100
0100
,
0010
1000
0001
0000
,
0011
0000
1100
0000
,
0010
0000
0000
0001
,
1000
0100
0010
0001
,
0100
0000
0010
0000
,
0100
0001
1000
0100
,
0000
0010
0001
1000
,
0001
0100
0010
1000
,
0100
0000
0010
0000
,
0100
1000
0001
0100
,
0000
0010
1000
0001
,
0100
0000
0000
0000
;

//---------------dance-single - ----------------
#NOTES:
     dance-single:
     :
     Beginner:
     1:
     0.101,0.106,0.016,0.000,0.000,88.000,2.000,0.000,0.000,0.000,0.000,0.101,0.106,0.016,0.000,0.000,88.000,2.000,0.000,0.000,0.000,0.000:
0000
0000
0000
0000
,
0000
0000
0000
0000
,
0000
0000
0000
0000
,
0000
0000
0000
0000
,
0001
0000
0010
0000
,
0001
0000
0000
0000
,
0100
0000
0010
0000
,
1000
0000
0000
0000
,
1000
0000
0010
0000
,
1000
0000
0000
0000
,
0100
0000
0010
0000
,
0001
0000
0000
0000
,
1001
0000
0000
0000
,
1000
0000
0000
0000
,
0010
0000
0010
0000
,
0010
0000
0000
0000
,
1000
0000
0000
0000
,
0001
0000
0000
0000
,
0010
0000
0010
0000
,
0010
0000
0000
0000
,
0001
0000
0100
0000
,
0001
0000
0000
0000
,
0010
0000
0100
0000
,
1000
0000
0000
0000
,
1000
0000
0100
0000
,
1000
0000
0000
0000
,
0010
0000
0100
0000
,
0001
0000
0001
0000
,
0001
0000
0000
0000
,
0010
0000
0000
0000
,
0001
0000
1000
0000
,
0001
0000
0000
0000
,
1000
0000
0000
0000
,
0010
0000
0000
0000
,
1000
0000
0001
0000
,
1000
0000
0000
0000
,
0100
0000
0000
0000
,
0010
0000
0000
0000
,
0001
0000
1000
0000
,
0001
0000
0000
0000
,
1000
0000
0000
0000
,
0100
0000
0000
0000
,
0010
0000
0000
0000
,
0001
0000
0000
0000
,
0100
0000
0000
0000
,
0010
0000
0000
0000
,
1000
0000
0000
0000
,
0100
0000
0000
0000
,
1000
0000
0001
0000
,
1000
0000
0001
0000
,
0100
0000
0100
0000
,
0100
0000
0000
0000
,
1001
0000
0000
0000
,
0010
0000
0000
0000
,
1000
0000
1000
0000
,
1000
0000
0000
0000
,
0010
0000
0000
0000
,
0100
0000
0000
0000
,
0001
0000
0001
0000
,
0001
0000
0000
0000
,
0010
0000
0001
0000
,
0010
0000
0000
0000
,
0100
0000
1000
0000
,
0010
0000
0000
0000
,
0010
0000
1000
0000
,
0010
0000
0000
0000
,
0100
0000
0001
0000
,
0010
0000
0000
0000
,
0100
0000
0000
0000
;
