#TITLE:アラベスクの回廊;
#SUBTITLE:;
#ARTIST:劇団レコード;
#TITLETRANSLIT:Arabesque no kairou;
#SUBTITLETRANSLIT:;
#ARTISTTRANSLIT:Gekidan Records;
#GENRE:;
#CREDIT:Silverhawke;
#MENUCOLOR:;
#METERTYPE:DDR;
#BANNER:[Round 1 Singles] - Arabesque no kairou.png;
#BACKGROUND:[Round 1 Singles] - Arabesque no kairou-bg.png;
#LYRICSPATH:;
#CDTITLE:cdtitle.png;
#MUSIC:[Round 1 Singles] - Arabesque no kairou.mp3;
#OFFSET:-0.028;
#SAMPLESTART:64.115;
#SAMPLELENGTH:15.000;
#SELECTABLE:YES;
#LISTSORT:;
#BPMS:0.000=176.000;
#STOPS:;
#BGCHANGES:;
#ATTACKS:;

//---------------dance-single - ----------------
#NOTES:
     dance-single:
     :
     Hard:
     9:
     0.707,0.672,0.183,0.385,0.147: // measure 1
0000
0000
0000
0000
,  // measure 2
0000
0000
0000
0000
,  // measure 3
0000
0000
0000
0000
,  // measure 4
0000
0000
0000
0000
,  // measure 5
0000
0000
0000
0000
,  // measure 6
0000
0000
0000
0000
,  // measure 7
0002
0000
0103
0020
0000
0130
0001
1000
,  // measure 8
0200
0000
0310
0100
1000
0100
0010
0001
,  // measure 9
0200
0000
0310
2000
0000
3010
0100
0001
,  // measure 10
0010
0100
1000
0001
1001
0000
0110
0000
,  // measure 11
0010
0000
1000
0000
0100
0000
0010
0000
0001
0100
0001
0000
0010
0000
0100
0000
,  // measure 12
1000
0001
0100
0010
0100
0001
1000
0100
,  // measure 13
0010
0000
0001
0100
0001
0000
0010
0000
0100
1000
0100
0000
0010
0000
0001
0000
,  // measure 14
0100
0010
1000
0001
0010
0100
0010
0000
,  // measure 15
0002
0000
0000
1000
1003
0000
0100
0010
,  // measure 16
0002
0000
0000
1003
0100
0000
0010
0001
,  // measure 17
0200
0000
0310
1000
1000
0100
0010
0001
,  // measure 18
0100
0000
0000
0000
0000
0000
0001
0000
0010
0000
0100
0000
2000
0000
0000
0000
0000
0000
3001
0000
0000
0001
0000
0000
,  // measure 19
0200
0000
0310
1000
0100
0010
0001
0100
,  // measure 20
0010
0100
0001
0020
0000
0130
1000
1000
,  // measure 21
0002
0000
1003
0100
0010
0000
0110
0000
,  // measure 22
0100
1000
0001
0100
0010
0000
0110
0000
,  // measure 23
1000
2000
0000
0001
3001
0000
0100
0010
,  // measure 24
2000
0000
0000
3001
0100
0000
0010
1000
,  // measure 25
0200
0000
0310
0001
0001
0100
0010
1000
,  // measure 26
0100
0000
0000
0000
0000
0000
1000
0000
0010
0000
0100
0000
0002
0000
0000
0000
0000
0000
1003
0000
0000
1000
0000
0000
,  // measure 27
0200
0000
0310
0001
0100
0010
1000
0100
,  // measure 28
0010
0100
1000
0020
0000
0130
0001
0001
,  // measure 29
2000
0000
3001
0100
0010
0100
0001
0010
,  // measure 30
0100
0100
1000
1000
0001
0100
0110
0000
,  // measure 31
1000
0000
0001
0100
0010
0000
0100
0000
,  // measure 32
0001
0000
0000
1000
0100
1000
0100
0000
0000
0010
0000
0000
,  // measure 33
0001
0000
0000
1000
0000
0000
0001
0100
0001
0100
0000
0000
,  // measure 34
0010
1000
0100
0001
1000
0001
0100
1000
,  // measure 35
0001
0000
1000
0100
0010
0000
0100
0000
,  // measure 36
1000
0000
0000
0001
0100
0001
0100
0000
0000
0010
0000
0000
,  // measure 37
1100
0010
0101
0010
,  // measure 38
1000
1000
0001
0001
1001
0000
0110
0000
,  // measure 39
0001
0100
0001
0100
1000
0100
0001
0000
,  // measure 40
1000
0000
0000
0100
0000
0000
0010
0000
0001
0000
1000
0000
0001
0000
0000
0000
0000
0000
0200
0000
0000
0000
0000
0000
,  // measure 41
0310
0000
0000
1000
0000
0000
0010
0000
0000
1000
0000
0000
0001
0000
0010
0000
0001
0000
1000
0000
0000
0000
0000
0000
,  // measure 42
0001
0100
1000
0010
1000
0100
0001
0010
,  // measure 43
0100
1000
0100
1000
0001
0100
0010
0000
,  // measure 44
0100
0000
0000
0001
0000
0000
1000
0000
0100
0000
1000
0000
0001
0000
0000
0000
0000
0000
0100
0000
0000
0000
0000
0000
,  // measure 45
0110
0001
0110
1000
,  // measure 46
0100
0010
0001
0200
0000
0301
1000
0100
,  // measure 47
0000
0012
0000
0000
2003
0000
3020
0000
,  // measure 48
1030
0000
0100
0010
0100
0000
1000
0000
0002
0000
0000
0000
0203
0000
0000
0000
,  // measure 49
0310
1000
0001
1000
0200
0000
0000
0310
,  // measure 50
0001
1000
0001
0100
0010
0100
1000
0100
,  // measure 51
0001
1000
0100
0010
0011
0000
1100
0000
,  // measure 52
0001
0000
0100
0010
0100
0000
0001
0000
1000
0000
0100
0000
0100
0000
0100
0000
,  // measure 53
0010
0001
0100
0010
1000
0001
0020
0000
,  // measure 54
0130
0001
0100
1000
0010
0001
0010
1000
,  // measure 55
0001
0100
0001
0010
0100
0010
0100
1000
,  // measure 56
0001
0000
0100
0010
0100
0000
0001
0000
2000
0000
0000
0000
3200
0000
0000
0000
,  // measure 57
0310
0001
1000
0001
0100
0010
0000
0010
,  // measure 58
1000
0001
1000
0100
0010
0100
0001
0100
,  // measure 59
1000
0001
0100
0010
1010
0000
0101
0000
,  // measure 60
1000
0000
0100
0010
0100
0000
1000
0000
0001
0000
0100
0000
1000
0000
0100
0000
,  // measure 61
0010
1000
0100
0010
0001
1000
0020
0000
,  // measure 62
0130
1000
0100
0001
0010
1000
0010
0001
,  // measure 63
1000
0100
1000
0010
0110
0000
1001
0000
,  // measure 64
0002
0000
0013
0200
0000
0310
0001
1000
,  // measure 65
0020
0000
0000
0000
0000
0000
0130
0000
0000
0010
0000
0000
1000
0000
0000
0010
0100
0010
0100
0000
0000
0001
0000
0000
,  // measure 66
0020
0000
0130
2000
0000
3100
0010
0001
,  // measure 67
0100
0000
0000
0010
0000
0000
1000
0000
0000
0010
0000
0000
0100
0000
0000
0001
0010
0001
0010
0000
0000
0100
0000
0000
,  // measure 68
2000
0000
3010
0200
0000
0310
1000
0001
,  // measure 69
0020
0000
0000
0000
0000
0000
0130
0000
0000
0010
0000
0000
0001
0000
0000
0010
0100
0010
0100
0000
0000
1000
0000
0000
,  // measure 70
0020
0000
0130
0002
0000
0103
0010
1000
,  // measure 71
0100
0010
0001
1000
1001
0000
0110
0000
,  // measure 72
0100
0000
0001
0000
0010
0000
0100
0000
1000
0010
1000
0000
0100
0000
0010
0000
,  // measure 73
0001
1000
0010
0100
0010
1000
0001
0010
,  // measure 74
0100
0000
1000
0010
1000
0000
0100
0000
0010
0001
0010
0000
0100
0000
1000
0000
,  // measure 75
0010
0100
0001
1000
0100
0010
0100
1000
,  // measure 76
0001
0001
0002
0000
0000
0000
0000
0000
,  // measure 77
0000
0000
0000
0000
,  // measure 78
0000
0003
0000
0000
;

//---------------dance-single - ----------------
#NOTES:
     dance-single:
     :
     Medium:
     6:
     0.473,0.460,0.119,0.092,0.000: // measure 1
0000
0000
0000
0000
,  // measure 2
0000
0000
0000
0000
,  // measure 3
0000
0000
0000
0000
,  // measure 4
0000
0000
0000
0000
,  // measure 5
0000
0000
0000
0000
,  // measure 6
0000
0000
0000
0000
,  // measure 7
0010
0000
1000
0100
0000
0100
1000
0000
,  // measure 8
0001
0000
0100
0010
1000
0000
0001
0000
,  // measure 9
0010
0000
0001
0100
0000
0100
0001
0000
,  // measure 10
1000
0100
0010
0000
0100
0000
1001
0000
,  // measure 11
0001
0000
0100
0000
1000
0100
0001
0000
,  // measure 12
1000
0100
0001
0100
,  // measure 13
1000
0000
0010
0000
0001
0010
1000
0000
,  // measure 14
0001
0010
1000
0010
,  // measure 15
0001
0000
0000
1000
0100
0000
1000
0001
,  // measure 16
1000
0000
0000
0001
0100
0000
0010
1000
,  // measure 17
0001
0000
0000
1000
0001
0000
1000
0000
,  // measure 18
1100
0101
1001
0001
,  // measure 19
0100
0000
0010
1000
0010
0000
0100
0000
,  // measure 20
0001
1000
0100
0010
0000
0100
1000
0000
,  // measure 21
0001
0100
0010
1000
,  // measure 22
0001
0000
0010
0100
0010
0000
0001
0000
,  // measure 23
1000
1000
0000
0001
0001
0000
1000
0000
,  // measure 24
0010
0000
0000
0100
0001
0000
0010
0100
,  // measure 25
1000
0000
0000
0100
0010
0000
0001
0000
,  // measure 26
0101
1100
1001
0001
,  // measure 27
0100
0000
0010
1000
0010
0000
0100
0000
,  // measure 28
0001
1000
0100
0010
0000
0100
1000
0000
,  // measure 29
0010
0000
0000
0100
0001
0000
1000
0000
,  // measure 30
0001
0010
0000
0100
0000
0010
0001
0000
,  // measure 31
1000
0000
0010
0100
0010
0000
1000
0000
,  // measure 32
0001
0010
0100
1000
,  // measure 33
0100
0010
0001
1000
,  // measure 34
0010
0100
0010
0000
1000
0000
0100
0000
,  // measure 35
0010
0000
0001
0100
0001
0000
1000
0000
,  // measure 36
0100
0010
0001
0010
,  // measure 37
0100
1000
0010
0100
,  // measure 38
0001
1000
0001
1000
0200
0000
0300
0000
,  // measure 39
0010
0000
0001
1000
0001
0000
0100
0000
,  // measure 40
0010
2000
3100
0010
,  // measure 41
0001
0100
0020
0130
,  // measure 42
0001
1000
0100
0000
0010
0000
0100
0000
,  // measure 43
1000
0000
0001
0100
0010
0000
0100
0000
,  // measure 44
0001
0020
0130
1000
,  // measure 45
0020
0130
0200
0301
,  // measure 46
1000
0000
0000
1001
0000
0000
0001
0100
,  // measure 47
0000
0110
0000
0000
0020
0000
2030
0000
,  // measure 48
3001
0010
0100
0010
0001
0000
1000
0000
,  // measure 49
0001
0100
0010
0100
0002
0000
0003
0000
,  // measure 50
1000
0100
0001
0010
,  // measure 51
1000
0010
0100
0010
1000
0000
0001
0000
,  // measure 52
1000
0100
0010
0100
1000
0000
0001
0000
,  // measure 53
1000
0010
0100
0010
1000
0000
0001
0000
,  // measure 54
1000
0100
0010
0000
0001
0000
0100
0000
,  // measure 55
0010
1000
0100
0000
0010
0000
0001
0000
,  // measure 56
1000
0100
0001
0100
1000
0000
0010
0000
,  // measure 57
0100
1000
0100
0000
0010
0100
0000
0100
,  // measure 58
0001
1000
0100
1000
0001
0000
0010
0000
,  // measure 59
0100
1000
0010
0000
0100
0000
0110
0000
,  // measure 60
0001
0100
1000
0100
0001
0000
0100
0000
,  // measure 61
0001
0010
1000
0010
0001
0000
0100
0000
,  // measure 62
0010
0100
0001
0000
0010
0100
1000
0000
,  // measure 63
0010
0000
0100
0000
0001
1000
1001
0000
,  // measure 64
0100
0000
1000
0010
0000
0010
1000
0000
,  // measure 65
0001
0000
0010
0100
1000
0000
0001
0000
,  // measure 66
0100
0000
0001
0010
0000
0010
0001
0000
,  // measure 67
1000
0010
0100
0000
0010
0000
1001
0000
,  // measure 68
0100
0000
0001
0010
0000
0010
0001
0000
,  // measure 69
1000
0000
0010
0100
0001
0000
1000
0000
,  // measure 70
0100
0000
1000
0010
0000
0010
1000
0000
,  // measure 71
0001
0010
0100
0000
0010
0000
1001
0000
,  // measure 72
1000
0000
0010
0000
0001
0010
1000
0000
,  // measure 73
0001
0010
1000
0010
,  // measure 74
0001
0000
0100
0000
1000
0100
0001
0000
,  // measure 75
1000
0100
0001
0100
,  // measure 76
1000
0001
2000
0000
0000
0000
0000
0000
,  // measure 77
0000
0000
0000
0000
,  // measure 78
0000
3000
0000
0000
;

//---------------dance-single - ----------------
#NOTES:
     dance-single:
     :
     Easy:
     4:
     0.292,0.310,0.018,0.018,0.000: // measure 1
0000
0000
0000
0000
,  // measure 2
0000
0000
0000
0000
,  // measure 3
0000
0000
0000
0000
,  // measure 4
0000
0000
0000
0000
,  // measure 5
0000
0000
0000
0000
,  // measure 6
0000
0000
0000
0000
,  // measure 7
0001
1000
0100
0010
,  // measure 8
0100
1000
0001
0000
,  // measure 9
1000
0010
0100
0001
,  // measure 10
0010
0100
1000
0000
,  // measure 11
0001
0100
0001
0100
,  // measure 12
0010
1000
0010
0000
,  // measure 13
1000
0100
1000
0100
,  // measure 14
0010
0001
0010
0000
,  // measure 15
0001
0000
0100
0000
,  // measure 16
0010
1000
0100
0000
,  // measure 17
0010
0000
0100
0000
,  // measure 18
1000
0001
1000
0000
,  // measure 19
0001
0000
0100
0000
,  // measure 20
0010
0100
0001
0000
,  // measure 21
1000
0000
0100
0000
,  // measure 22
0001
0100
1000
0000
,  // measure 23
0010
0000
0010
0000
,  // measure 24
0010
0100
0001
0000
,  // measure 25
1000
0000
0100
0000
,  // measure 26
0010
0100
1000
0000
,  // measure 27
0001
0000
0100
0000
,  // measure 28
0010
0100
0001
0000
,  // measure 29
0010
0000
0100
0000
,  // measure 30
1000
0010
0100
0110
,  // measure 31
0010
0000
0010
0000
,  // measure 32
1000
0001
1000
0000
,  // measure 33
0100
0000
0001
0000
,  // measure 34
0020
0000
0030
0000
,  // measure 35
0100
0000
0100
0000
,  // measure 36
1000
0001
1000
0000
,  // measure 37
0010
0000
0100
0000
,  // measure 38
0001
0010
0100
0000
,  // measure 39
1000
1000
0100
0010
,  // measure 40
0001
0010
0100
1000
,  // measure 41
0001
0100
0010
1000
,  // measure 42
0002
0000
0003
0000
,  // measure 43
0001
0001
0100
0010
,  // measure 44
1000
0001
0010
0100
,  // measure 45
0010
0001
1000
0010
,  // measure 46
0100
0000
0000
0010
0000
0000
0100
0000
,  // measure 47
0000
0010
0000
0000
0100
0000
0010
0000
,  // measure 48
1000
0001
1000
0100
,  // measure 49
0010
0010
0010
0000
,  // measure 50
0001
1000
0001
0100
,  // measure 51
0010
0010
0010
0000
,  // measure 52
1000
0001
0010
0100
,  // measure 53
1000
1000
1000
0000
,  // measure 54
0001
0100
0010
1000
,  // measure 55
0001
0001
0001
0000
,  // measure 56
1000
0100
0010
0000
,  // measure 57
0001
0100
0010
0000
,  // measure 58
1000
0100
0010
0001
,  // measure 59
0010
0100
1000
0000
,  // measure 60
0001
0100
0010
0100
,  // measure 61
0001
0010
0100
1000
,  // measure 62
0001
1000
0001
1000
,  // measure 63
0010
0100
0110
0000
,  // measure 64
1000
0001
0010
0100
,  // measure 65
0010
0001
1000
0000
,  // measure 66
0001
0100
0010
1000
,  // measure 67
0100
0010
0001
0000
,  // measure 68
1000
0001
0100
0010
,  // measure 69
0100
0001
1000
0000
,  // measure 70
0001
0010
0100
1000
,  // measure 71
0010
0100
0001
0000
,  // measure 72
1000
0100
1000
0100
,  // measure 73
0010
0001
0010
0000
,  // measure 74
0001
0100
0001
0100
,  // measure 75
0010
1000
0010
0000
,  // measure 76
0100
0100
0100
0000
0000
0000
0000
0000
;

//---------------dance-single - ----------------
#NOTES:
     dance-single:
     :
     Beginner:
     1:
     0.115,0.137,0.000,0.000,0.000: // measure 1
0000
0000
0000
0000
,  // measure 2
0000
0000
0000
0000
,  // measure 3
0000
0000
0000
0000
,  // measure 4
0000
0000
0000
0000
,  // measure 5
0000
0000
0000
0000
,  // measure 6
0000
0000
0000
0000
,  // measure 7
1000
0000
0000
0000
,  // measure 8
0001
0000
0000
0000
,  // measure 9
0100
0000
0000
0000
,  // measure 10
0010
0000
0000
0000
,  // measure 11
1000
0000
1000
0000
,  // measure 12
1000
0000
0000
0000
,  // measure 13
0001
0000
0001
0000
,  // measure 14
0001
0000
0000
0000
,  // measure 15
0100
0000
0000
0000
,  // measure 16
0100
0000
0000
0000
,  // measure 17
0010
0000
0010
0000
,  // measure 18
0010
0000
0000
0000
,  // measure 19
1000
0000
0000
0000
,  // measure 20
1000
0000
0000
0000
,  // measure 21
0001
0000
0001
0000
,  // measure 22
0001
0000
0000
0000
,  // measure 23
0010
0000
0000
0000
,  // measure 24
0010
0000
0000
0000
,  // measure 25
0100
0000
0100
0000
,  // measure 26
0100
0000
0000
0000
,  // measure 27
0001
0000
0000
0000
,  // measure 28
0001
0000
0000
0000
,  // measure 29
1000
0000
1000
0000
,  // measure 30
1000
0000
0000
0000
,  // measure 31
0001
0000
0000
0000
,  // measure 32
0100
0000
0000
0000
,  // measure 33
1000
0000
0000
0000
,  // measure 34
0010
0000
0000
0000
,  // measure 35
0001
0000
0000
0000
,  // measure 36
0010
0000
0000
0000
,  // measure 37
1000
0000
0000
0000
,  // measure 38
0100
0000
0000
0000
,  // measure 39
0001
0000
0001
0000
,  // measure 40
0001
0000
0000
0000
,  // measure 41
1000
0000
1000
0000
,  // measure 42
1000
0000
0000
0000
,  // measure 43
0010
0000
0010
0000
,  // measure 44
0010
0000
0000
0000
,  // measure 45
0100
0000
0100
0000
,  // measure 46
0100
0000
0000
0000
,  // measure 47
0000
1000
0000
0000
0000
0000
0000
0000
,  // measure 48
0001
0000
0000
0000
,  // measure 49
0001
0000
0000
0000
,  // measure 50
1000
0000
0000
0000
,  // measure 51
1000
0000
1000
0000
,  // measure 52
1000
0000
0000
0000
,  // measure 53
0100
0000
0000
0000
,  // measure 54
0010
0000
0010
0000
,  // measure 55
0010
0000
0000
0000
,  // measure 56
0001
0000
0000
0000
,  // measure 57
0001
0000
0000
0000
,  // measure 58
1000
0000
1000
0000
,  // measure 59
1000
0000
0000
0000
,  // measure 60
0010
0000
0010
0000
,  // measure 61
0010
0000
0000
0000
,  // measure 62
0100
0000
0100
0000
,  // measure 63
0100
0000
0000
0000
,  // measure 64
0001
0000
0000
0000
,  // measure 65
0001
0000
0000
0000
,  // measure 66
1000
0000
1000
0000
,  // measure 67
1000
0000
0000
0000
,  // measure 68
0010
0000
0000
0000
,  // measure 69
0010
0000
0000
0000
,  // measure 70
0100
0000
0100
0000
,  // measure 71
0100
0000
0000
0000
,  // measure 72
0001
0000
0000
0000
,  // measure 73
0010
0000
0000
0000
,  // measure 74
0100
0000
0000
0000
,  // measure 75
1000
0000
1000
0000
,  // measure 76
1000
0000
0000
0000
;
