#VERSION:0.81;
#TITLE:Aerial Skydive;
#SUBTITLE:;
#ARTIST:Dirty Androids;
#TITLETRANSLIT:;
#SUBTITLETRANSLIT:;
#ARTISTTRANSLIT:;
#GENRE:;
#ORIGIN:;
#CREDIT:;
#BANNER:[Round 1 Singles] - Aerial Skydive.png;
#BACKGROUND:[Round 1 Singles] - Aerial Skydive-bg.png;
#PREVIEWVID:;
#JACKET:[Round 1 Singles] - Aerial Skydive-jacket.png;
#CDIMAGE:;
#DISCIMAGE:;
#LYRICSPATH:;
#CDTITLE:;
#MUSIC:[Round 1 Singles] - Aerial Skydive.mp3;
#OFFSET:-0.700;
#SAMPLESTART:23.997;
#SAMPLELENGTH:15.000;
#SELECTABLE:YES;
#BPMS:0.000=175.000;
#STOPS:;
#DELAYS:;
#WARPS:;
#TIMESIGNATURES:0.000=4=4;
#TICKCOUNTS:0.000=4;
#COMBOS:0.000=1;
#SPEEDS:0.000=1.000=0.000=0;
#SCROLLS:0.000=1.000;
#FAKES:;
#LABELS:0.000=Song Start;
#BGCHANGES:;
#KEYSOUNDS:;
#ATTACKS:
;

//---------------dance-single - ----------------
#NOTEDATA:;
#CHARTNAME:;
#STEPSTYPE:dance-single;
#DESCRIPTION:;
#CHARTSTYLE:;
#DIFFICULTY:Hard;
#METER:8;
#RADARVALUES:0.633,0.660,0.241,0.327,0.103,449.000,28.000,38.000,0.000,0.000,0.000,0.000,0.000,0.633,0.660,0.241,0.327,0.103,449.000,28.000,38.000,0.000,0.000,0.000,0.000,0.000;
#CREDIT:;
#NOTES:
// measure 0
0000
0000
0000
0000
,  // measure 1
0000
0000
0000
0000
,  // measure 2
0000
0000
0000
0000
,  // measure 3
0000
0000
0000
0000
,  // measure 4
0000
0000
0000
0000
,  // measure 5
0000
0000
0000
0000
,  // measure 6
0000
0000
0000
0000
,  // measure 7
0000
0000
0000
0000
,  // measure 8
1000
0000
0100
0000
1000
0100
0000
1000
,  // measure 9
0010
0000
0100
0010
0000
1000
0100
0000
,  // measure 10
1000
0100
1000
0010
0000
0100
0010
1000
,  // measure 11
0001
0000
0010
0001
0000
0100
0000
0001
,  // measure 12
1000
0000
0010
0000
1000
0001
0000
1000
,  // measure 13
0100
0000
0100
0010
0000
0010
0001
0000
,  // measure 14
1000
0010
0100
0001
0000
0001
0010
0100
,  // measure 15
1100
0000
0000
0011
0000
0000
1001
0000
0000
0000
1000
0000
0001
0000
0010
0000
,  // measure 16
0200
0000
0000
0310
,  // measure 17
1001
0000
0001
0000
1000
0010
0000
1000
,  // measure 18
0001
0000
0010
0001
0000
0001
0100
0010
,  // measure 19
1000
0100
0010
0100
0000
0010
0001
0010
,  // measure 20
0001
1000
0010
1000
0000
1010
0000
0101
,  // measure 21
0001
0100
0010
0000
1000
0100
0000
1000
,  // measure 22
0010
0000
0100
0001
0000
0010
0001
0010
,  // measure 23
0100
1000
0010
0001
0000
0010
1000
0000
,  // measure 24
0010
1000
0100
0001
0000
0100
1000
0010
,  // measure 25
0110
0100
0010
0000
1000
0010
0000
1000
,  // measure 26
0100
0000
0010
0001
0000
0010
0001
0100
,  // measure 27
0101
0001
0010
0011
0000
0010
0000
0100
,  // measure 28
1100
0000
1000
0000
0010
0000
1010
0000
0000
0000
1000
0001
0010
0000
0000
0000
,  // measure 29
1001
1000
0010
1000
0001
0010
0001
1000
,  // measure 30
0100
1000
0010
0001
0000
0010
1000
0010
,  // measure 31
0100
0001
0010
0001
0000
1000
0010
0000
,  // measure 32
1000
0000
0100
0000
0010
0000
0001
0000
1000
0010
1000
0010
0100
0000
0001
0000
,  // measure 33
2001
0000
3002
0000
0013
0100
0010
0001
,  // measure 34
2000
0000
3010
2000
0000
3100
0010
0100
,  // measure 35
2000
0000
3020
0000
0031
0010
0100
0010
,  // measure 36
2000
0000
3100
0020
0000
0031
0100
0000
,  // measure 37
0020
0000
2030
0000
3010
0001
0010
0100
,  // measure 38
0002
0000
0013
0200
0000
0310
0001
0000
,  // measure 39
2000
0000
3020
0000
1030
0001
0010
0001
,  // measure 40
0200
0000
0310
0002
0000
0013
0200
0000
,  // measure 41
0301
0000
1000
0000
0010
0000
0000
0010
1000
0000
0001
0000
0010
0000
0000
0000
,  // measure 42
0001
0000
1000
0000
0100
0000
0000
0100
1000
0000
0001
0000
0100
0000
0000
0000
,  // measure 43
0001
0010
0100
0010
0001
0100
0010
0100
,  // measure 44
0001
0000
0010
0000
0100
0000
1000
0100
0000
0000
0100
0000
0010
0000
0000
0000
,  // measure 45
0001
0000
0100
0000
0010
0000
0000
0010
0100
0000
0001
0000
0010
0000
0001
0000
,  // measure 46
1000
0000
0010
0000
0100
0000
0000
0100
0010
0000
1000
0000
0100
0000
1000
0000
,  // measure 47
0001
0010
0001
1000
0010
1000
0100
0010
,  // measure 48
0110
0000
0000
1100
0000
0000
1001
0000
0000
0000
1000
0001
0010
0000
0000
0000
,  // measure 49
1001
0000
0000
1000
0100
0010
0002
0000
0000
1003
0000
0000
,  // measure 50
0020
0000
0000
0000
1030
0000
0010
0000
0100
0000
0010
0000
0010
0000
1000
0100
,  // measure 51
0020
0000
0000
0031
0100
0010
2000
0000
0000
0001
0000
0000
,  // measure 52
3010
0000
0100
0000
0001
0100
0100
0100
,  // measure 53
0001
0000
0000
1000
0100
0010
0002
0000
0000
1003
0000
0000
,  // measure 54
0001
0000
0000
0000
0010
0000
0000
0000
0001
0000
0000
0000
1000
0000
0000
0000
0000
0000
0010
0000
0000
0000
0000
0000
1000
0000
0000
0000
0000
0000
0100
0000
0000
0000
0000
0000
0100
0000
0000
0000
0000
0000
1000
0000
0000
0010
0000
0000
,  // measure 55
0200
0000
0301
0100
1000
0100
0001
0010
,  // measure 56
0100
1000
0010
0100
0001
1000
0001
0000
,  // measure 57
2001
0000
0010
0000
0000
0010
0000
0000
,  // measure 58
0001
0000
0000
3002
0000
0000
0203
0000
,  // measure 59
0320
0000
0000
2030
0000
0000
0010
0000
,  // measure 60
3200
0000
0000
0320
0000
0001
0000
0100
,  // measure 61
0032
0000
1000
0000
0000
1000
0000
0000
,  // measure 62
0010
0000
0000
0000
0000
0000
0203
0000
0000
0000
0000
0000
0000
0000
0301
1000
,  // measure 63
0010
0000
0000
1010
0000
0000
0101
0000
,  // measure 64
0001
0100
0010
1000
0100
0010
0001
0000
,  // measure 65
1001
1000
0010
0000
1000
0100
0000
1000
,  // measure 66
0010
0000
0100
0001
0000
0010
0001
0010
,  // measure 67
1000
0010
0100
0010
0000
0001
0100
1000
,  // measure 68
0100
0010
0100
0001
0000
0101
0000
1010
,  // measure 69
1000
0100
0010
0000
0001
0010
0000
0001
,  // measure 70
0100
0000
0010
0100
0000
0010
1000
0100
,  // measure 71
0010
0100
1000
0010
0100
0001
0010
0001
,  // measure 72
1000
0010
1000
0001
0000
0010
0001
0000
,  // measure 73
1001
1000
0010
0200
0000
0301
0020
0000
,  // measure 74
0031
1000
0100
1000
0001
0010
0100
0010
,  // measure 75
0011
0001
1000
1010
0000
0010
1000
0000
,  // measure 76
0101
0000
0001
0000
1000
0000
1100
0000
0000
0000
0001
1000
0010
0000
1000
0000
,  // measure 77
0100
0001
0100
2000
0000
3010
0200
0000
,  // measure 78
0301
0010
0001
0100
0010
1000
0100
1000
,  // measure 79
0010
0100
0001
0020
0000
0031
1000
0001
,  // measure 80
0100
0000
0001
0000
0010
0000
0100
0000
0000
0000
1000
0100
0010
0000
0000
0000
;

//---------------dance-single - ----------------
#NOTEDATA:;
#CHARTNAME:;
#STEPSTYPE:dance-single;
#DESCRIPTION:;
#CHARTSTYLE:;
#DIFFICULTY:Beginner;
#METER:1;
#RADARVALUES:0.177,0.243,0.146,0.095,0.000,116.000,17.000,11.000,0.000,0.000,0.000,0.000,0.000,0.177,0.243,0.146,0.095,0.000,116.000,17.000,11.000,0.000,0.000,0.000,0.000,0.000;
#CREDIT:;
#NOTES:
// measure 0
0000
0000
0000
0000
,  // measure 1
0000
0000
0000
0000
,  // measure 2
0000
0000
0000
0000
,  // measure 3
0000
0000
0000
0000
,  // measure 4
0000
0000
0000
0000
,  // measure 5
0000
0000
0000
0000
,  // measure 6
0000
0000
0000
0000
,  // measure 7
0000
0000
0000
0000
,  // measure 8
1000
0000
0000
0000
,  // measure 9
0001
0000
0000
0000
,  // measure 10
0100
0000
0000
0000
,  // measure 11
0010
0000
0000
0000
,  // measure 12
1000
0000
0000
0000
,  // measure 13
0001
0000
0000
0000
,  // measure 14
0100
0000
0000
0000
,  // measure 15
0010
0000
0000
0000
,  // measure 16
2002
0000
0000
3003
,  // measure 17
1001
0000
1000
0000
,  // measure 18
0010
0000
1000
0000
,  // measure 19
0001
0000
0100
0000
,  // measure 20
0001
0000
0100
0000
,  // measure 21
1000
0000
0100
0000
,  // measure 22
1000
0000
0100
0000
,  // measure 23
0001
0000
0100
0000
,  // measure 24
0001
0000
0100
0000
,  // measure 25
0110
0000
0010
0000
,  // measure 26
1000
0000
0010
0000
,  // measure 27
0110
0000
0000
0000
,  // measure 28
1001
0000
0000
0000
,  // measure 29
0110
0000
0010
0000
,  // measure 30
0100
0000
0010
0000
,  // measure 31
0001
0000
1000
0000
,  // measure 32
0002
0000
0000
0003
,  // measure 33
0001
0000
0001
0000
,  // measure 34
0010
0000
0010
0000
,  // measure 35
0100
0000
0100
0000
,  // measure 36
1000
0000
1000
0000
,  // measure 37
0001
0000
0001
0000
,  // measure 38
0100
0000
0100
0000
,  // measure 39
0010
0000
0010
0000
,  // measure 40
1000
0000
1000
0000
,  // measure 41
1001
0000
0010
0000
,  // measure 42
1000
0000
0010
0000
,  // measure 43
0100
0000
0100
0000
,  // measure 44
0001
0000
0001
0000
,  // measure 45
1000
0000
0100
0000
,  // measure 46
1000
0000
0100
0000
,  // measure 47
0010
0000
0010
0000
,  // measure 48
0001
0000
0001
0000
,  // measure 49
1001
0000
0010
0000
,  // measure 50
0000
0000
0100
0000
,  // measure 51
0000
0000
0001
0000
,  // measure 52
0000
0000
1000
0000
,  // measure 53
0000
0000
0001
0000
,  // measure 54
0000
0000
0100
0000
,  // measure 55
0000
0000
0010
0000
,  // measure 56
0000
0000
1000
0000
,  // measure 57
1001
0000
0000
0000
,  // measure 58
0000
0000
0000
0000
,  // measure 59
0000
0000
0000
0000
,  // measure 60
0000
0000
0000
0000
,  // measure 61
0000
0000
0000
0000
,  // measure 62
0000
0000
0000
0000
,  // measure 63
1001
0000
0110
0000
,  // measure 64
2002
0000
0000
3003
,  // measure 65
1001
0000
0001
0000
,  // measure 66
0010
0000
0001
0000
,  // measure 67
1000
0000
0010
0000
,  // measure 68
1000
0000
0010
0000
,  // measure 69
0001
0000
0100
0000
,  // measure 70
0001
0000
0100
0000
,  // measure 71
1000
0000
0100
0000
,  // measure 72
1000
0000
0100
0000
,  // measure 73
0020
0030
0010
0000
,  // measure 74
0200
0300
0100
0000
,  // measure 75
1001
0000
1001
0000
,  // measure 76
0110
0000
0110
0000
,  // measure 77
2000
3000
1000
0000
,  // measure 78
0002
0003
0001
0000
,  // measure 79
0200
0300
0100
0000
,  // measure 80
0020
0030
0010
0010
;

//---------------dance-single - ----------------
#NOTEDATA:;
#CHARTNAME:;
#STEPSTYPE:dance-single;
#DESCRIPTION:;
#CHARTSTYLE:;
#DIFFICULTY:Easy;
#METER:3;
#RADARVALUES:0.312,0.313,0.120,0.155,0.000,222.000,14.000,18.000,0.000,0.000,0.000,0.000,0.000,0.312,0.313,0.120,0.155,0.000,222.000,14.000,18.000,0.000,0.000,0.000,0.000,0.000;
#CREDIT:;
#NOTES:
// measure 0
0000
0000
0000
0000
,  // measure 1
0000
0000
0000
0000
,  // measure 2
0000
0000
0000
0000
,  // measure 3
0000
0000
0000
0000
,  // measure 4
0000
0000
0000
0000
,  // measure 5
0000
0000
0000
0000
,  // measure 6
0000
0000
0000
0000
,  // measure 7
0000
0000
0000
0000
,  // measure 8
2000
0100
0000
0100
,  // measure 9
0000
0100
0000
3100
,  // measure 10
0200
0010
0000
0310
,  // measure 11
0020
0001
0000
0031
,  // measure 12
0002
0100
0000
0100
,  // measure 13
0000
0100
0000
0103
,  // measure 14
0200
0010
0000
0310
,  // measure 15
0110
0000
0000
0010
0000
0000
0010
0000
,  // measure 16
0200
0000
0000
0310
,  // measure 17
1001
1000
0001
1000
,  // measure 18
0001
0100
0001
0100
,  // measure 19
0010
1000
0010
1000
,  // measure 20
0100
0010
0100
0000
,  // measure 21
1000
0010
1000
0010
,  // measure 22
0100
0001
0100
0001
,  // measure 23
0010
0001
0010
0001
,  // measure 24
1000
0100
1000
0000
,  // measure 25
1001
0001
0010
0001
,  // measure 26
1000
0010
1000
0010
,  // measure 27
1000
0000
0000
1000
0000
0000
0000
0000
,  // measure 28
0001
0000
0000
0001
0000
0000
0010
0000
,  // measure 29
0110
0100
1000
0100
,  // measure 30
0010
0001
0010
0001
,  // measure 31
1000
0100
0010
0001
,  // measure 32
2000
0000
0000
3001
,  // measure 33
1001
1000
0010
0010
,  // measure 34
1000
0000
0000
0010
0000
0000
1000
0000
,  // measure 35
0001
0001
0010
0010
,  // measure 36
0001
0000
0000
0010
0000
0000
0001
0000
,  // measure 37
1000
1000
0100
0100
,  // measure 38
1000
0000
0000
0100
0000
0000
1000
0000
,  // measure 39
0001
0001
0100
0100
,  // measure 40
0001
0000
0000
0100
0000
0000
0001
0000
,  // measure 41
1001
1000
0100
0000
,  // measure 42
0001
0001
0100
0000
,  // measure 43
1000
0100
1000
0100
,  // measure 44
0001
0100
0001
0100
,  // measure 45
1000
1000
0010
0000
,  // measure 46
0001
0001
0010
0000
,  // measure 47
1000
0010
1000
0010
,  // measure 48
0001
0000
0000
0010
0000
0000
0001
0000
,  // measure 49
2001
0000
3010
0000
,  // measure 50
0000
0001
0010
0000
,  // measure 51
0100
0000
0010
0000
,  // measure 52
0000
0100
0010
0000
,  // measure 53
0001
0000
0100
0000
,  // measure 54
0000
1000
0100
0000
,  // measure 55
0010
0000
0100
0000
,  // measure 56
0000
0010
0100
0000
,  // measure 57
2001
0000
0000
0000
,  // measure 58
0000
0000
0000
3002
0000
0000
0000
0000
,  // measure 59
0023
0000
0000
0230
0000
0000
0000
0000
,  // measure 60
2300
0000
0000
3020
0000
0000
0000
0000
,  // measure 61
0230
0000
0000
0000
,  // measure 62
0000
0000
0000
0302
0000
0000
0000
0000
,  // measure 63
1003
0000
0000
0001
0000
0000
1000
0000
,  // measure 64
0002
0000
0000
1003
,  // measure 65
1001
0100
1000
0100
,  // measure 66
0010
0001
0010
0001
,  // measure 67
1000
0010
1000
0010
,  // measure 68
0100
0001
0100
0001
,  // measure 69
1000
0100
0010
0001
,  // measure 70
1000
0010
0100
0001
,  // measure 71
1000
0010
0001
0010
,  // measure 72
1000
0100
0001
0100
,  // measure 73
1000
1000
0100
0000
,  // measure 74
0001
0001
0100
0000
,  // measure 75
0101
0000
0000
1100
0000
0000
0000
0000
,  // measure 76
1010
0000
0000
0011
0000
0000
1001
0000
,  // measure 77
0001
0001
0100
0000
,  // measure 78
1000
1000
0100
0000
,  // measure 79
0001
0010
0001
0100
,  // measure 80
0001
1000
0002
0013
;

//---------------dance-single - ----------------
#NOTEDATA:;
#CHARTNAME:;
#STEPSTYPE:dance-single;
#DESCRIPTION:;
#CHARTSTYLE:;
#DIFFICULTY:Medium;
#METER:5;
#RADARVALUES:0.375,0.486,0.224,0.232,0.009,252.000,26.000,27.000,0.000,0.000,0.000,0.000,0.000,0.375,0.486,0.224,0.232,0.009,252.000,26.000,27.000,0.000,0.000,0.000,0.000,0.000;
#CREDIT:;
#NOTES:
// measure 0
0000
0000
0000
0000
,  // measure 1
0000
0000
0000
0000
,  // measure 2
0000
0000
0000
0000
,  // measure 3
0000
0000
0000
0000
,  // measure 4
0000
0000
0000
0000
,  // measure 5
0000
0000
0000
0000
,  // measure 6
0000
0000
0000
0000
,  // measure 7
0000
0000
0000
0000
,  // measure 8
1000
0000
0010
0000
0000
0010
0000
0000
,  // measure 9
0100
0000
0000
0100
0000
0000
0100
0000
,  // measure 10
0001
0000
0000
0001
0000
0000
0001
0000
,  // measure 11
1000
0000
0000
1000
0000
0010
0000
0010
,  // measure 12
1000
0000
0100
0000
0000
0100
0000
0000
,  // measure 13
0010
0000
0000
0010
0000
0000
0010
0000
,  // measure 14
0001
0000
0000
0001
0000
0000
0100
0000
,  // measure 15
0010
0000
0000
0100
0000
0000
0110
0000
0000
0000
1000
0000
0001
0000
0000
0000
,  // measure 16
2000
0000
0000
3001
,  // measure 17
1001
0000
1000
0000
0000
0010
0000
0000
,  // measure 18
1000
0000
0000
1000
0000
0000
0001
0000
,  // measure 19
0100
0000
0100
0010
0000
0000
0010
0000
,  // measure 20
1000
0000
1000
0001
0000
0010
0000
0001
,  // measure 21
1000
0000
0010
0000
0000
0100
0000
0000
,  // measure 22
0001
0000
0000
0010
0000
0000
0001
0000
,  // measure 23
1000
0000
1000
0100
0000
0000
0010
0000
,  // measure 24
0001
0000
0001
0100
0000
0010
0000
0000
,  // measure 25
1001
0000
1000
0000
0000
0001
0000
0000
,  // measure 26
0010
0000
0000
0010
0000
0000
0001
0000
,  // measure 27
0011
0000
0000
1010
0000
1000
0000
0000
,  // measure 28
1100
0000
0000
0101
0000
0000
0110
0000
,  // measure 29
1001
0000
0010
0000
0000
0010
0000
0000
,  // measure 30
0001
0000
0000
0100
0000
0000
0001
0000
,  // measure 31
1000
0000
1000
0010
0000
0000
0100
0000
,  // measure 32
1000
0001
1000
0001
2000
0000
3001
0000
,  // measure 33
1002
2003
3001
0100
,  // measure 34
0020
0000
0030
0200
0000
0300
0010
0000
,  // measure 35
2000
3002
1003
0100
,  // measure 36
0020
0000
0030
0200
0000
0300
0010
0000
,  // measure 37
0002
0023
0130
1000
,  // measure 38
0002
0000
0003
0200
0000
0300
0001
0000
,  // measure 39
2000
3020
0130
0001
,  // measure 40
1000
0000
0000
0001
0000
0000
1000
0000
,  // measure 41
1001
0010
0001
0100
,  // measure 42
0010
1000
0100
1000
,  // measure 43
0010
0100
0001
0010
,  // measure 44
0100
1000
0100
0010
,  // measure 45
0001
0100
0010
1000
,  // measure 46
0100
0010
0001
0010
,  // measure 47
0100
1000
0010
0100
,  // measure 48
0001
0000
0000
1000
0000
0000
1001
0000
0000
0000
0000
0000
0110
0000
0000
0000
,  // measure 49
2001
0000
3010
0000
,  // measure 50
0000
0000
2000
0000
3001
0000
0000
1000
,  // measure 51
2000
0000
3100
0000
,  // measure 52
0000
2000
3001
0000
,  // measure 53
0002
0000
0013
0000
,  // measure 54
0000
0000
0002
0000
1003
0000
0000
0001
,  // measure 55
0002
0000
0103
0000
,  // measure 56
0000
0002
0013
0000
,  // measure 57
1001
0000
1000
0000
0000
1000
0000
0000
,  // measure 58
0010
0000
0000
0010
0000
0000
0010
0000
,  // measure 59
0100
0000
0000
0001
0000
0000
0001
0000
,  // measure 60
0010
0000
0000
0010
0000
0100
0000
0100
,  // measure 61
1000
0000
0000
1000
0000
0000
1000
0000
,  // measure 62
0001
0000
0000
0010
0000
0000
0010
0000
,  // measure 63
0110
0000
0000
1001
0000
0000
0110
0000
,  // measure 64
2000
0000
0000
3001
,  // measure 65
1001
0000
0010
0000
0000
0001
0000
0000
,  // measure 66
0100
0000
0000
0010
0000
0000
1000
0000
,  // measure 67
0001
0000
0001
0100
0000
0000
0010
0000
,  // measure 68
1000
0000
1000
0100
0000
0010
0000
0001
,  // measure 69
1000
0000
0001
0000
0000
0010
0000
0000
,  // measure 70
0001
0000
0000
0100
0000
0000
0001
0000
,  // measure 71
1000
0000
1000
0001
0000
0000
0100
0000
,  // measure 72
0010
0000
0010
0100
0000
0100
0000
0010
,  // measure 73
1000
0000
1000
0020
0000
0000
0130
0000
,  // measure 74
0001
0010
0100
1000
,  // measure 75
0011
0000
0000
1001
0000
0000
1010
0000
,  // measure 76
1100
0000
0000
1001
0000
0000
0101
0000
,  // measure 77
1001
0000
1000
0200
0000
0000
0310
0000
,  // measure 78
0001
0100
0010
1000
,  // measure 79
0001
0010
0001
0010
0000
0010
0001
0000
,  // measure 80
1000
0010
1000
0010
0000
1000
0010
0000
;
