#TITLE:What About...;
#SUBTITLE:;
#ARTIST:Toy Box;
#TITLETRANSLIT:;
#SUBTITLETRANSLIT:;
#ARTISTTRANSLIT:;
#GENRE:;
#CREDIT:;
#BANNER:What About... - Toy Boxbn.png;
#BACKGROUND:What About... - Toy Boxbg.png;
#LYRICSPATH:What About... - Toy Box.lrc;
#CDTITLE:encorerebirth.png;
#MUSIC:What About... - Toy Box.ogg;
#OFFSET:0.000;
#SAMPLESTART:47.900;
#SAMPLELENGTH:21.560;
#SELECTABLE:YES;
#BPMS:0.000=100.000
,100.000=50.000
,116.000=100.000
;
#STOPS:
;
#BGCHANGES:;
#KEYSOUNDS:;
#ATTACKS:;

//---------------dance-single - Spork!----------------
#NOTES:
     dance-single:
     :
     Beginner:
     1:
     0.054,0.071,0.057,0.019,0.000,32.000,6.000,2.000,0.000,0.000,0.000,0.054,0.071,0.057,0.019,0.000,32.000,6.000,2.000,0.000,0.000,0.000: // measure 0
0000
0000
0000
0000
,  // measure 1
0000
0000
0000
0000
,  // measure 2
0000
0000
0000
0000
,  // measure 3
0000
0000
0000
0000
,  // measure 4
1000
0000
0000
0000
,  // measure 5
0000
0000
0000
0000
,  // measure 6
0001
0000
0000
0000
,  // measure 7
0000
0000
0000
0000
,  // measure 8
1001
0000
0000
0000
,  // measure 9
1001
0000
0000
0000
,  // measure 10
1001
0000
0000
0000
,  // measure 11
1001
0000
0000
0000
,  // measure 12
0200
0000
0300
0000
,  // measure 13
0020
0000
0030
0000
,  // measure 14
1000
0000
0001
0000
,  // measure 15
0010
0000
0000
0000
,  // measure 16
0110
0000
0000
0000
,  // measure 17
0001
0000
0000
0000
,  // measure 18
1000
0000
0000
0000
,  // measure 19
0010
0000
0000
0000
,  // measure 20
0110
0000
0000
0000
,  // measure 21
1000
0000
0000
0000
,  // measure 22
0001
0000
0000
0000
,  // measure 23
0100
0000
0000
0000
,  // measure 24
0000
0000
0000
0000
,  // measure 25
0010
0000
0000
0000
,  // measure 26
1000
0000
0000
0000
,  // measure 27
0001
0000
0000
0000
,  // measure 28
0010
0000
0000
0000
,  // measure 29
0010
0000
0000
0000
,  // measure 30
0010
0000
0000
0000
,  // measure 31
0001
0000
0000
0000
,  // measure 32
0001
0000
0000
0000
,  // measure 33
1000
0000
0000
0000
,  // measure 34
1000
0000
0000
0000
,  // measure 35
0010
0000
0000
0000
,  // measure 36
0010
0000
0000
0000
,  // measure 37
0100
0000
0000
0000
;

//---------------dance-double - Spork!----------------
#NOTES:
     dance-double:
     :
     Easy:
     2:
     0.152,0.181,0.086,0.181,0.000,84.000,9.000,19.000,0.000,0.000,0.000,0.152,0.181,0.086,0.181,0.000,84.000,9.000,19.000,0.000,0.000,0.000:
00000000
00000000
00000000
00000000
,
00000000
00000000
00000000
00000000
,
00000000
00000000
00000000
00000000
,
00000000
00000000
00000000
00000000
,
00200000
00000000
00000000
00000000
01000000
00000000
00000000
00001000
,
00300000
00000000
00000000
00000000
,
00000020
00000000
00000000
00000000
00000100
00000000
00000000
00010000
,
00000030
00000000
00000000
00001000
00000000
00000000
00010000
00000000
,
00011000
00000000
00001000
00000000
,
01001000
00000000
00010000
00000000
,
00010100
00000000
00001000
00000000
,
00001001
00000000
00000001
00000000
,
00001000
00000000
00000010
00000010
,
00010000
00000000
00001000
00001000
,
01000000
00000000
10010000
00000000
,
10000000
00000000
00100000
00000000
,
20000000
00000000
31000000
00000000
,
02000000
00000000
03100000
00000000
,
00200000
00000000
00301000
00000000
,
00020000
00000000
00030100
00001000
,
00000002
00000000
00000013
00000000
,
00000020
00000000
00000130
00000000
,
00000200
00000000
00010300
00010000
,
00002000
00000000
02003000
00000000
,
03000000
00000000
00000000
00000000
,
00010000
00200000
00002000
00303000
,
00001000
00020000
00000020
00030030
,
00001000
00000200
00020000
00030300
,
00010000
00002000
01000000
01003000
,
10100000
00000000
01000000
00010000
,
00100000
00000000
00001000
00010000
,
00010100
00000000
00010000
00000010
,
00001000
00000000
00000100
00000100
,
00000011
00000000
00000100
00001000
,
00000010
00000000
00010000
00001000
,
00101000
00000000
00001000
00000000
,
01000000
00010000
00100000
01000000
,
20000000
00000000
00000000
00000000
01000000
00000000
00000000
00010000
,
30000000
00000000
00000000
00000000
;

//---------------dance-double - Spork!----------------
#NOTES:
     dance-double:
     :
     Medium:
     4:
     0.206,0.256,0.048,0.210,0.000,124.000,5.000,22.000,0.000,0.000,0.000,0.206,0.256,0.048,0.210,0.000,124.000,5.000,22.000,0.000,0.000,0.000:
00000000
00000000
00000000
00000000
,
00000000
00000000
00000000
00000000
,
00000000
00000000
00000000
00000000
,
00000000
00000000
00000000
00000000
,
00000002
00000000
00000000
00000000
00000023
00000000
00000000
00000200
,
00000030
00000000
00010000
00000300
00001000
00000000
01000000
00000000
,
00020000
00000000
00000000
00000000
00230000
00000000
00000000
02000000
,
00300000
00000000
00000000
23000000
00000000
00000000
00010000
30000000
,
10000000
00100000
01000000
01100000
,
01000000
00001000
00010000
00011000
,
00010000
00000010
00000100
00000110
,
00000100
00000000
00000001
00000000
00000010
00000001
00001000
00000000
,
00000002
00000023
00000130
00000110
,
00000200
00020300
00031000
00011000
,
00010000
00000000
00001000
00000000
01000000
00010000
10000000
00000000
,
00010000
10000000
00000000
10000000
,
00020000
00000000
02030000
00000000
,
03001000
00010000
00001000
00100000
,
00002000
00000000
00013000
00000100
,
00000020
00000000
00000130
00001000
,
00002000
00000000
00003020
00000000
,
00010030
00001000
00010000
00000100
,
00020000
00000000
00031000
01000000
,
00001000
00010000
00002000
00000000
,
00003000
00000000
00000000
00000000
,
10000000
00000000
01000000
00000000
00100000
00000000
00001000
00010000
,
00001000
00000000
00000100
00000000
00000001
00000000
00001000
00001000
,
00000001
00000000
00000010
00000000
00000100
00000000
00010000
00001000
,
00010000
00000000
00100000
00000000
10000000
00000000
00010000
00010000
,
10000000
01000000
10000000
00100000
,
01000000
00000000
00000000
00000000
00010000
10000000
00010000
00000000
,
00100000
00001000
00010000
00000010
,
00001000
00000000
00000100
00000000
00000100
00000010
00000001
00000000
,
00000001
00000010
00000001
00000100
,
00000010
00000000
00000000
00000000
00001000
00000001
00001000
00000000
,
00000100
00010000
00001000
01000000
,
00010000
00100000
00001000
00010000
,
00000020
00000000
00000000
00000000
00002030
00000000
00000000
00000200
,
00003000
00000000
00000000
00000300
00000000
00000000
00000000
00000000
;

//---------------dance-double - Spork!----------------
#NOTES:
     dance-double:
     :
     Hard:
     6:
     0.283,0.292,0.067,0.410,0.067,158.000,7.000,43.000,0.000,0.000,0.000,0.283,0.292,0.067,0.410,0.067,158.000,7.000,43.000,0.000,0.000,0.000:
00000000
00000000
00000000
00000000
,
00000000
00000000
00000000
00000000
,
00000000
00000000
00000000
00000000
,
00000000
00000000
00000000
00000000
,
00200000
00000000
00000000
00000000
20300000
00000000
00000000
00020000
,
30000000
00000000
00000000
00030000
00000000
00000000
00000000
00100000
,
00002000
00000000
00000000
00000000
00023000
00000000
00000000
00000020
,
00030000
00000000
00000000
00002030
00000000
00003001
00000100
00000001
,
00001000
00000000
00000000
00000100
00000000
00000000
00000110
00000000
00000000
00000000
00000000
00000000
00000010
00000000
00000000
00000000
,
00000001
00000000
00000000
00000100
00000000
00000000
00000101
00000000
00000000
00000000
00000000
00000000
00000010
00000000
00000000
00000000
,
00010000
00000000
00000000
00000100
00000000
00000000
00011000
00000000
00000000
00000000
00000000
00000000
00100000
00000000
00000000
00000000
,
00001000
00000000
00000000
01000000
00000000
00000000
00011000
00000000
00000000
00000000
00000000
00000000
00001000
00000000
00000000
00000000
,
00100000
00000000
00000000
00010000
00000000
00000000
00010000
00000000
02000000
00000000
00000000
00000000
00100000
03000000
00000000
00000000
,
00010000
00000000
00000000
10000000
00000000
00000000
10000000
00000000
02000000
00000000
00000000
00000000
00100000
03000000
00000000
00000000
,
00001000
00000000
00000000
01000000
00000000
00000000
00001000
00000000
00010000
00000000
00000100
00000000
00010000
00000000
00000000
00000000
,
00010000
00000000
00000000
00000010
00000000
00000000
00011000
00000000
00000000
00000000
00000000
00000000
00101000
00000000
00000000
00000000
,
00020000
00230000
02300000
23000000
,
32000000
03020000
00032000
00003200
,
00000302
00000023
00000230
00002300
,
00003002
00000000
00000023
00000000
00000031
00001000
00001001
00000000
,
00002000
00003020
00000230
00000302
,
00000203
00002300
00023000
02030000
,
23000000
30200000
02300000
03020000
,
10030000
00000000
00000000
00100000
00000000
00000000
10000000
00000000
00020000
00000000
00000000
00000000
00230000
00000000
00000000
00000000
,
00301000
00000000
00000000
00001000
01000000
00000000
00010000
00000000
,
10000000
01000000
00100000
01000000
00010000
00000000
00001000
00000100
,
00000001
00000010
00000100
00000010
00001000
00000000
00010000
01000000
,
10000000
00100000
01000000
00100000
00010000
00000000
00001000
00000010
,
00000002
00000000
00000203
00000000
00000320
00000000
00001030
00000001
,
00001000
00000000
00000001
00000010
00000100
00000000
00010000
00000000
,
00001000
00000000
00000000
00010000
00000000
00000000
00001000
00000000
01000000
00000000
00001000
00000000
00010000
00000000
00000000
00000000
,
00001000
00000000
00010000
00000100
00001000
00000000
00000010
00000000
,
00010000
00000000
00000000
00001000
00000000
00000000
00010000
00000000
00001000
00000000
00000000
00000000
00001000
00000000
01000000
00000000
,
00010000
00000000
10000000
01000000
00100000
00000000
00001000
00000000
,
00010000
00000000
00000000
00001000
00000000
00000000
00010000
00000000
00000100
00000000
00010000
00000000
00001000
00000000
00000000
00000000
,
00010000
00000000
00001000
00100000
00010000
00000000
01000000
00000000
,
00100000
00000000
00000000
00100000
00000000
00000000
00100000
00000000
10000000
00000000
00000000
00010000
00000000
00000000
00100000
00000000
,
02000000
00000000
00000000
00000000
23000000
00000000
00000000
00020000
,
30000000
00000000
00000000
00030000
00000000
00000000
00000000
00000000
;

//---------------dance-double - Spork!----------------
#NOTES:
     dance-double:
     :
     Challenge:
     10:
     0.629,0.622,0.229,0.095,0.867,428.000,24.000,10.000,72.000,0.000,0.000,0.629,0.622,0.229,0.095,0.867,428.000,24.000,10.000,72.000,0.000,0.000:
00000000
00000000
00000000
00000000
,
00000000
00000000
00000000
00000000
,
00000000
00000000
00000000
00000000
,
00000000
00000000
00000000
00000000
,
00000010
00001000
00000100
00001000
00000010
00000000
00000010
00000100
00000001
00000100
00000010
00000000
00001010
00000000
00001000
00000100
,
00010000
00001000
01000000
00010000
00100000
00000000
00100000
01000000
00000000
01000000
10000000
00000000
10010000
00000000
10000000
00100000
,
01000000
00010000
00100000
00010000
01000000
00000000
01000000
00100000
10000000
00100000
01000000
00000000
01010000
00000000
00010000
00100000
,
00001000
00010000
00000000
00010000
00000010
00000000
00000010
00000100
00000000
00000100
00000001
00000000
00001001
00000000
00001000
00000000
,
00M00001
00000010
00000001
000M0100
00001000
00000100
M0000001
00000010
00000100
00000000
00010000
00000000
00012000
00000000
00000000
00103000
,
00010M00
01000000
00010000
0010000M
10000000
00100000
000100M0
01000000
00001000
00000000
00010000
00000000
00021000
00000000
00000000
00030000
,
000010M0
01000000
00100000
10000M00
00100000
00000000
0001000M
00000000
00001000
00000000
00000100
00000001
00001000
00000100
00000010
00000100
,
00M01000
00000001
00000010
M0001000
00010000
00000000
0M000100
00000000
00010000
00001000
00010000
00100000
10000000
00010000
00000000
00000000
,
1100M000
00000000
10000000
010000M0
00100000
00000000
0000100M
00000000
00010000
00000000
00000100
00000000
00012000
00000000
00000000
00003000
,
00M10010
00000000
00010000
0M000010
00000100
00000000
M0000001
00000000
00001000
00000000
00000010
00000000
00001200
00000000
00000000
00000300
,
M0010000
00000100
00000010
00M00001
00000010
00000000
000M1010
00000000
00001000
00000000
00010000
00000000
00110000
00000000
00100000
00000000
,
1000M000
01000000
00100000
000100M0
02000000
00000000
0000000M
00000000
03001000
00000000
00010000
00001000
00011000
00000000
00010000
00000000
,
00M00100
00001000
00000010
M0001000
00000100
00000010
0M000001
00000100
00000010
00010000
00000100
00001000
00000010
00010000
00001000
01000000
,
00010M00
00000000
00100000
00000000
01000000
00000000
1000000M
00000000
01000000
00000000
00100000
00000000
000010M0
00000000
00010000
00000000
00001000
00010000
00001000
00010000
00001000
00000000
00010000
00000000
00000010
00000000
00001000
00000000
00000100
00000000
00000100
00000000
,
00M01000
00000001
00000100
0M000010
00010000
00001000
M0100000
00010000
01000000
00001000
00010000
00000010
00001000
00000010
00010000
00010000
,
00001M00
00000000
00100000
00000000
00010000
00000000
010000M0
00000000
00100000
00000000
10000000
00000000
0100000M
00000000
00100000
00000000
00010000
10000000
00010000
10000000
00010000
00000000
00100000
00000000
00001000
00000000
01000000
00000000
00010000
00000000
00010000
00000000
,
0010000M
00010000
01000000
000100M0
00100000
01000000
10000M00
00100000
01000000
00001000
00100000
00010000
01000000
00001000
00010000
00000010
,
M0001000
00000000
00000100
00000000
00000010
00000000
0M000001
00000000
00000010
00000000
00000100
00000000
00M01000
00000000
00000001
00000000
00000100
00000001
00000100
00000001
00000100
00000000
00000001
00000000
00000010
00000000
00000100
00000000
00010000
00000000
00010000
00000000
,
M0001000
00100000
00001000
0M010000
00000010
00001000
M0000100
00010000
00001000
01000000
00010000
00100000
01000000
10000000
00010000
01000000
,
0000100M
00000000
00100000
00000000
01000000
00000000
00100M00
00000000
00010000
00000000
01000000
00000000
0010000M
00000000
10000000
00000000
01000000
10000000
01000000
10000000
01000000
00000000
10000000
00000000
00010000
00000000
01000000
00000000
00001000
00000000
00010000
00000000
,
00000020
00000000
00000000
00001030
00000100
00000010
00000001
00001000
,
00000010
00000000
00000001
00000010
00010000
00000000
00011000
00001000
00010000
01000000
00010000
00001000
00000000
01000000
01010000
00010000
,
00100000
00000000
10000000
00100000
00001000
00000000
00011000
00010000
00001000
00000100
00001000
00010000
00000010
00001000
00001001
00001000
,
00000100
00000000
00000001
00000100
00010000
00000000
00011000
00010000
00001000
00000010
00001000
00010000
00000000
00000010
00001010
00001000
,
00000001
00000000
00000001
00000100
00000000
00000100
00000010
00010000
00000000
00002000
00000000
00000000
00103000
00100000
01000000
01000000
,
100000M0
00010000
10000000
0010M000
01000000
00000000
01000M00
00010000
01000000
00001000
00010000
00000000
00010010
00000000
00000010
00001000
,
0M000100
00000010
00000100
000M1000
00000001
00000000
00M00001
00000100
00000000
00000100
00000010
00000000
00001001
00000000
00000010
00000100
,
000M0001
00001000
00000001
00M00010
00000100
00000000
M0000100
00001000
00000100
00010000
00001000
00000000
01001000
00000000
01000000
00000000
,
0001M000
00100000
01000000
10000M00
01000000
00100000
0001000M
01000000
00001000
00010000
00000010
00010000
00000100
00001000
00000100
00000010
,
0M000001
00001000
00000001
000M0100
00000010
00000000
00M00010
00001000
00000010
00010000
00001000
00000000
01001000
00000000
01000000
00010000
,
001000M0
01000000
00100000
0001M000
10000000
00000000
10000M00
00100000
00000000
00100000
01000000
00000000
10010000
00000000
00100000
01000000
,
1000000M
00000000
10000000
00100M00
01000000
00010000
010000M0
00001000
00010000
00000000
00001000
00010000
00000100
00001000
00000100
00000010
,
M0000001
00000000
00000001
00M00100
00000000
00000100
0M000010
00000000
00001000
00000000
00000000
00000100
00000000
00000000
00000010
00000000
,
00000002
00000000
00000000
00000000
00002003
00000000
00000000
00200000
,
00003000
00000000
00000000
00300000
00000000
00000000
00000000
00000000
;

//---------------dance-single - Spork!----------------
#NOTES:
     dance-single:
     :
     Easy:
     2:
     0.155,0.146,0.038,0.219,0.000,87.000,4.000,23.000,0.000,0.000,0.000,0.155,0.146,0.038,0.219,0.000,87.000,4.000,23.000,0.000,0.000,0.000: // measure 0
0000
0000
0000
0000
,  // measure 1
0000
0000
0000
0000
,  // measure 2
0000
0000
0000
0000
,  // measure 3
0000
0000
0000
0000
,  // measure 4
0001
0000
0000
0000
0100
0000
0000
0200
,  // measure 5
0000
0000
0300
0001
,  // measure 6
1000
0000
0000
0000
0100
0000
0000
0200
,  // measure 7
0000
0000
0000
0300
0010
0000
0100
0000
,  // measure 8
1001
0000
0010
0000
,  // measure 9
1100
0000
0001
0000
,  // measure 10
0110
0000
1000
0000
,  // measure 11
0011
0000
0100
0000
,  // measure 12
2000
0000
3001
1000
,  // measure 13
0002
0000
1003
0001
,  // measure 14
0100
0100
0010
0010
,  // measure 15
1000
0001
0000
0001
,  // measure 16
2000
0000
3100
0000
,  // measure 17
0200
0000
0310
0000
,  // measure 18
0020
0000
0031
0000
,  // measure 19
2000
0000
3001
1000
,  // measure 20
0002
0000
0103
0000
,  // measure 21
0200
0000
0310
0000
,  // measure 22
0020
0000
1030
0001
,  // measure 23
2000
0000
3002
0000
,  // measure 24
0003
0000
0000
0000
,  // measure 25
0001
0001
0002
0000
,  // measure 26
1003
1000
2000
0000
,  // measure 27
3100
0100
0200
0000
,  // measure 28
0310
0010
0020
0000
,  // measure 29
0032
0000
0103
0001
,  // measure 30
1000
0000
0001
0001
,  // measure 31
2000
0000
3010
1000
,  // measure 32
0100
0000
0100
0100
,  // measure 33
0020
0000
0031
1000
,  // measure 34
0010
0000
1000
1000
,  // measure 35
0200
0000
0320
0000
,  // measure 36
0031
0010
0100
1000
,  // measure 37
0001
0000
0000
0000
0100
0000
0000
0200
,  // measure 38
0000
0000
0000
0300
0000
0000
0000
0000
;

//---------------dance-single - Spork!----------------
#NOTES:
     dance-single:
     :
     Hard:
     5:
     0.264,0.311,0.067,0.314,0.029,154.000,7.000,33.000,0.000,0.000,0.000,0.264,0.311,0.067,0.314,0.029,154.000,7.000,33.000,0.000,0.000,0.000: // measure 0
0000
0000
0000
0000
,  // measure 1
0000
0000
0000
0000
,  // measure 2
0000
0000
0000
0000
,  // measure 3
0000
0000
0000
0000
,  // measure 4
0020
0000
0000
0000
0032
0000
0000
2000
,  // measure 5
0003
0000
0000
0000
3000
0000
0000
1000
,  // measure 6
0020
0000
0000
0000
2030
0000
0000
0002
,  // measure 7
3000
0000
0000
0023
0000
0100
0100
0130
,  // measure 8
1000
0000
0001
0000
1000
0001
0100
0000
,  // measure 9
0001
0000
0100
0000
0001
0100
0010
0000
,  // measure 10
0100
0000
0010
0000
0100
0010
1000
0000
,  // measure 11
0010
1000
0001
0000
1000
0001
0010
0000
,  // measure 12
0002
0013
0110
1100
,  // measure 13
2000
3010
0110
0101
,  // measure 14
0001
0000
0010
0000
0100
0010
1001
0000
,  // measure 15
0010
0001
0000
0001
,  // measure 16
2000
3100
1000
0001
,  // measure 17
0200
0000
0301
0000
1000
0001
1000
0000
,  // measure 18
0002
0103
0001
1000
,  // measure 19
0020
0000
0130
0000
0010
1000
0001
0000
,  // measure 20
0002
0013
0001
0100
,  // measure 21
0020
0000
1030
0000
0001
1000
0001
0000
,  // measure 22
2000
3100
1000
0001
,  // measure 23
0100
0000
0000
0010
0000
0000
0100
0000
0200
0000
0000
0000
0302
0000
0000
0000
,  // measure 24
1003
0000
0000
1000
0100
1000
0010
1000
,  // measure 25
0002
0000
0023
0000
0230
0000
1300
0001
,  // measure 26
2000
0000
0000
0000
3020
0000
0000
0000
0230
0000
0000
0000
0301
1000
0001
0000
,  // measure 27
2000
0000
3002
0000
0023
0000
0031
0100
,  // measure 28
0001
0000
0000
0010
0000
0000
0100
0000
0200
0000
0000
0000
0310
0000
0000
0000
,  // measure 29
1001
0000
0001
1000
0001
0000
0100
0000
,  // measure 30
0020
0000
0000
0130
0100
0000
0001
0000
,  // measure 31
1000
0000
1000
0001
1000
0000
0100
0000
,  // measure 32
0010
0000
0000
0010
0000
0000
0010
0000
0001
0000
1000
0000
0010
0000
0000
0000
,  // measure 33
0110
0000
0100
0010
0100
0000
0001
0000
,  // measure 34
2000
0000
0000
3001
0001
0000
0010
0000
,  // measure 35
0100
0000
0100
1000
0000
1000
0001
0000
,  // measure 36
1000
0000
0000
1000
0000
0000
1000
0000
0010
0000
0000
0100
0000
0000
0001
0000
,  // measure 37
0020
0000
0000
0000
0032
0000
0000
2000
,  // measure 38
0003
0000
0000
3000
0000
0000
0000
0000
;

//---------------dance-single - Spork!----------------
#NOTES:
     dance-single:
     :
     Medium:
     4:
     0.211,0.257,0.067,0.257,0.000,121.000,7.000,27.000,0.000,0.000,0.000,0.211,0.257,0.067,0.257,0.000,121.000,7.000,27.000,0.000,0.000,0.000: // measure 0
0000
0000
0000
0000
,  // measure 1
0000
0000
0000
0000
,  // measure 2
0000
0000
0000
0000
,  // measure 3
0000
0000
0000
0000
,  // measure 4
2000
0000
0000
0000
3002
0000
0000
0200
,  // measure 5
0003
0000
0000
0300
0000
0000
0010
0000
,  // measure 6
0200
0000
0000
0000
0302
0000
0000
2000
,  // measure 7
0003
0000
0000
3000
0001
0000
1000
0000
,  // measure 8
0002
0000
0100
0003
1000
0000
0001
0000
,  // measure 9
2000
0000
0100
3000
0001
0000
1000
0000
,  // measure 10
0020
0000
0100
0030
1000
0000
0001
0000
,  // measure 11
0200
0000
0010
0300
0001
0000
1000
0000
,  // measure 12
0002
0103
0101
1001
,  // measure 13
2000
3010
1010
1001
,  // measure 14
0001
0010
0100
1000
,  // measure 15
0001
1000
0000
1000
,  // measure 16
0001
0001
0100
0001
,  // measure 17
1000
0010
1000
0001
,  // measure 18
2000
0000
3100
1000
,  // measure 19
0020
0000
0130
1001
,  // measure 20
1000
1000
0010
1000
,  // measure 21
0001
0010
0100
1000
,  // measure 22
0002
0000
1003
0001
,  // measure 23
0200
0000
0320
0000
,  // measure 24
1030
0000
0000
0000
,  // measure 25
0001
0000
0010
0000
0200
0000
1300
1000
,  // measure 26
1000
0000
0010
0000
0200
0000
0301
0001
,  // measure 27
0001
0000
1000
0000
0020
0000
1030
1000
,  // measure 28
1000
0001
0200
0300
,  // measure 29
0110
0100
0001
1000
,  // measure 30
0200
0000
0000
0000
0310
0100
0010
0000
,  // measure 31
0001
1000
0010
1000
,  // measure 32
0002
0000
0000
0000
0103
0100
0010
0000
,  // measure 33
1001
0001
0100
0010
,  // measure 34
2000
0000
0000
0000
3001
1000
0001
0000
,  // measure 35
0010
0001
0100
0010
,  // measure 36
1000
0100
0010
0001
,  // measure 37
2000
0000
0000
0000
3002
0000
0000
0200
,  // measure 38
0003
0000
0300
0000
;

//---------------dance-single - Spork!----------------
#NOTES:
     dance-single:
     :
     Challenge:
     9:
     0.441,0.475,0.333,0.124,0.338,276.000,35.000,13.000,12.000,0.000,4.000,0.441,0.475,0.333,0.124,0.338,276.000,35.000,13.000,12.000,0.000,4.000: // measure 0
0000
0000
0000
0000
,  // measure 1
0000
0000
0000
0000
,  // measure 2
0000
0000
0000
0000
,  // measure 3
0000
0000
0000
0000
,  // measure 4
0010
0100
0000
0100
0001
0000
0010
0001
0000
0001
1000
0000
0100
0000
0010
0000
,  // measure 5
0001
0100
0000
0100
0010
0000
0010
1000
0000
1000
0001
0000
1001
0000
0010
0000
,  // measure 6
0100
1000
0000
1000
0001
0000
0100
0010
0000
0010
1000
0000
0001
0000
1000
0000
,  // measure 7
1000
0100
0000
0100
0010
0000
0020
0000
0000
0000
0130
0000
1000
0000
0001
0000
,  // measure 8
1010
0000
0000
0M10
0000
0000
0011
0000
0001
0000
0100
0000
0010
0000
0000
0000
,  // measure 9
0101
0000
0000
01M0
0000
0000
1100
0000
1000
0000
0001
0000
0100
0000
0000
0000
,  // measure 10
0011
0000
0000
0M10
0000
0000
1010
0000
0010
0000
0100
0001
1000
0000
0100
0000
,  // measure 11
1100
0000
0000
01M0
0000
0000
0101
0000
0100
0000
0010
1000
0001
0000
0000
0000
,  // measure 12
1000
0000
0100
0001
0100
0000
1000
0000
0010
0000
1000
0000
0201
0000
0000
0000
,  // measure 13
0301
0000
0010
1000
0010
0000
0001
0000
0100
0000
0001
0000
1020
0000
0000
0000
,  // measure 14
1030
0100
1000
0001
1000
0000
1001
0000
0100
0000
0010
0000
1001
0000
1000
0000
,  // measure 15
0001
0100
0001
1000
0002
0000
0000
0000
0003
0000
0010
0100
0010
0000
0001
0000
,  // measure 16
0110
0000
1000
0000
0010
0000
0200
0000
0000
0000
0310
0000
1000
0010
0100
0001
,  // measure 17
0010
0000
0001
0000
0100
0000
0010
0000
4000
0000
0000
3000
0001
0000
0010
0000
,  // measure 18
1100
0000
0000
01M0
0000
0000
0101
0000
0001
0000
1000
0000
0001
0010
0100
0000
,  // measure 19
0011
0000
0000
0M10
0000
0000
1010
0000
0040
0000
0000
0030
1000
0000
0001
0000
,  // measure 20
0110
0000
0001
0000
0010
0000
0200
0000
0000
0000
0310
0000
0001
0100
0010
1000
,  // measure 21
0100
0000
1000
0000
0010
0000
0100
0000
0004
0000
0000
0003
1000
0000
0001
0000
,  // measure 22
0101
0000
0000
01M0
0000
0000
1100
0000
1000
0000
0001
0000
0100
0000
0010
0000
,  // measure 23
1010
0000
0000
0M10
0000
0000
0011
0000
0004
0000
0000
0003
2000
0000
0000
0000
,  // measure 24
3001
0000
0000
0100
0010
1000
0001
0010
,  // measure 25
0001
0100
0010
1000
0100
0000
0010
0000
0010
0100
0010
0100
0000
0100
1000
0000
,  // measure 26
1000
0010
0100
0001
0010
0000
0100
0000
0100
0010
0100
0010
0001
1000
0001
1000
,  // measure 27
0010
0100
0001
1000
0100
0000
0010
0000
0100
0010
0100
0010
0000
0010
0001
0000
,  // measure 28
1000
0000
1000
0010
0000
0010
1000
0100
0000
0200
0000
0000
1300
0010
0100
0001
,  // measure 29
0011
0000
0000
1M10
0000
0000
1001
0000
0200
0000
0000
0000
0310
0000
1000
0000
,  // measure 30
0001
0000
0010
0001
0000
0001
1000
0000
0001
0000
0100
0000
0010
0000
1000
0000
,  // measure 31
1100
0000
0000
01M1
0000
0000
1001
0000
0020
0000
0000
0000
0031
0000
0100
0000
,  // measure 32
0001
0000
0010
0001
0000
0001
0100
0000
0010
0000
1000
0000
0001
0000
1000
0000
,  // measure 33
1010
0000
0000
0M11
0000
0000
0110
0000
0002
0000
0000
0000
1003
0000
0010
0000
,  // measure 34
1000
0000
0100
0010
0000
0010
0001
0000
1000
0000
0100
0000
1000
0000
0001
0000
,  // measure 35
0101
0000
0000
11M0
0000
0000
0110
0000
1000
0000
0001
0000
0010
0000
0001
0000
,  // measure 36
1000
0000
1000
0010
0000
0010
0100
0000
0001
0000
0000
0010
0000
0000
0100
0000
,  // measure 37
2000
0000
0000
0000
0100
0000
0000
0002
,  // measure 38
0000
0000
0000
3003
0000
0000
0000
0000
;
