#TITLE:ON THE VERGE OF REVIVAL;
#SUBTITLE:(RED HARDCORE REMIX);
#ARTIST:ALiCE'S EMOTiON feat. ビートまりお(COOL&CREATE);
#TITLETRANSLIT:;
#SUBTITLETRANSLIT:;
#ARTISTTRANSLIT:ALiCE'S EMOTiON feat. beat Mario(COOL&CREATE);
#GENRE:;
#CREDIT:;
#BANNER:;
#BACKGROUND:;
#LYRICSPATH:;
#CDTITLE:;
#MUSIC:[Round 1 Doubles] - ON THE VERGE OF REVIVAL (RED HARDCORE REMIX).ogg;
#OFFSET:-2.665;
#SAMPLESTART:61.287;
#SAMPLELENGTH:11.092;
#SELECTABLE:YES;
#BPMS:0.000=174.000
;
#STOPS:
;
#BGCHANGES:;
#KEYSOUNDS:;
#ATTACKS:;

//---------------dance-double - ----------------
#NOTES:
     dance-double:
     :
     Hard:
     8:
     0.590,0.581,0.287,0.109,0.188,377.000,29.000,11.000,0.000,0.000,0.000,0.590,0.581,0.287,0.109,0.188,377.000,29.000,11.000,0.000,0.000,0.000: // measure 0
00000000
00000000
00000000
00000000
,  // measure 1
00000000
00000000
00000000
00000000
,  // measure 2
00000000
00000000
00000000
00000000
,  // measure 3
00000000
00000000
00000000
00000000
,  // measure 4
10000000
00000000
10000000
00000000
10000000
00000000
10000000
01000000
,  // measure 5
00100000
00000000
00100000
00000000
00100000
00000000
00100000
00010000
,  // measure 6
10000000
00100000
10000000
00100000
10000000
00010000
10000000
00010000
,  // measure 7
10000000
01000000
00010000
00001000
00000010
00000001
00001000
00000000
,  // measure 8
00000001
00000001
00000100
00000001
00001000
00000010
00010000
00001000
,  // measure 9
01000000
00010000
10000000
00100000
10000000
10000000
01000000
00000000
,  // measure 10
10000000
10000000
01000000
10000000
00010000
00100000
00001000
00010000
,  // measure 11
00000100
00001000
00000001
00000100
00000001
00000001
00000010
00000000
,  // measure 12
00000001
00000001
00000100
00000001
00001000
00000010
00010000
00001000
,  // measure 13
00100000
00010000
10000000
01000000
10000000
10000000
00010000
00000000
,  // measure 14
10000000
10000000
00100000
10000000
00010000
01000000
00001000
00010000
,  // measure 15
00011000
00000000
00000000
00010000
00000000
00000000
00010100
00000000
00000000
00000100
00000000
00000000
00001000
00000000
00000100
00000000
,  // measure 16
00001100
00000000
00000100
00000000
00000100
00000010
00000000
00000000
,  // measure 17
00000001
00000000
00000100
00000000
00000001
00000100
00000000
00000000
,  // measure 18
00001000
00000000
00010000
00000000
00001000
00010000
00000000
00000000
,  // measure 19
00100000
00000000
00000000
00000000
01000000
00000000
00010000
00000000
00000000
00000000
10000000
00000000
00000000
00000000
01000000
10000000
,  // measure 20
01000000
00000000
10000000
00000000
01000000
00100000
00000000
00000000
,  // measure 21
00001000
00000000
00010000
00000000
00001000
00010000
00000000
00000000
,  // measure 22
00000100
00000000
00000010
00000000
00000100
00000010
00000000
00000000
,  // measure 23
00000001
00000000
00000001
00000000
00000100
00000000
00000001
00000000
00000000
00001000
00000001
00000000
00000100
00000000
00000000
00000000
,  // measure 24
00000001
00000001
00000100
00000000
00000010
00001000
00000010
00000100
,  // measure 25
00001000
00001000
00010000
00000000
00001000
00010000
00100000
00010000
,  // measure 26
00100000
00100000
01000000
00000000
00100000
10000000
00100000
01000000
,  // measure 27
00010000
00000000
00000000
00000000
00010000
00000000
00100000
00000000
00000000
00000000
01000000
00000000
00000000
00000000
10000000
01000000
,  // measure 28
10000000
10000000
01000000
00000000
01000000
00100000
00010000
00100000
,  // measure 29
01000000
01000000
00010000
00000000
01000000
00010000
00001000
00000010
,  // measure 30
00001010
00001010
00000110
00000110
,  // measure 31
00002002
00000000
00000000
00003003
,  // measure 32
00000002
00000000
00000103
00000010
00000002
00000000
00000013
00000100
,  // measure 33
00002000
00000000
00003100
00000010
00010000
00001000
01000000
00000000
,  // measure 34
01010000
00000000
00010000
00000000
01000000
00000000
00010000
00000000
10000000
00000000
00010000
00100000
,  // measure 35
10000000
00000000
00100000
00000000
01000000
00000000
10000000
00000000
01000000
00000000
00100000
01000000
,  // measure 36
20000000
00000000
31000000
00100000
20000000
00000000
30100000
01000000
,  // measure 37
00020000
00000000
01030000
00100000
00001000
00010000
00000100
00000000
,  // measure 38
00001100
00000000
00001000
00000000
00000001
00000000
00000100
00000000
00000001
00000000
00001000
00000010
,  // measure 39
00000001
00000000
00000010
00000000
00000100
00000000
00000001
00000000
00000100
00000000
00000010
00000100
,  // measure 40
00001000
00000000
00001000
00000000
00001000
00000000
00010000
00000000
00010000
00000000
00010000
00000000
,  // measure 41
02000000
00000000
00000000
00000000
,  // measure 42
03100000
00000000
00000000
00000000
00000000
00000000
00000000
00000000
00100000
00000000
00000000
00100000
00000000
00000000
01000000
00000000
,  // measure 43
11000000
00000000
01000000
00100000
00010000
00000000
00101000
00000000
,  // measure 44
00010010
00000000
00000010
00010000
00000100
00000000
00010100
00000000
,  // measure 45
01001000
00000000
01000000
00001000
00010000
00000100
00000000
00000100
,  // measure 46
00000010
00000000
00000010
00000001
00000000
00000001
00001000
00000010
,  // measure 47
00000100
00000000
00000100
00001000
00010000
00000000
00001000
00010000
,  // measure 48
01000000
00000000
00010000
01000000
00100000
00000000
00100000
00010000
,  // measure 49
00110000
00000000
00000000
00010000
00000000
00000000
01000000
00000000
01100000
00000000
00000000
00100000
00000000
00000000
10000000
00000000
,  // measure 50
10100000
00000000
00000000
00000000
00000000
00000000
00000000
00000000
10000000
00000000
00000000
10000000
00000000
00000000
01000000
00000000
,  // measure 51
01100000
00000000
01000000
00100000
00010000
00000000
00101000
00000000
,  // measure 52
00010100
00000000
00000100
00010000
00000010
00000000
00010010
00000000
,  // measure 53
01001000
00000000
01000000
00001000
00100000
01000000
00000000
01000000
,  // measure 54
00010000
00000000
00010000
00001000
00000000
00001000
00000100
00000010
,  // measure 55
00001000
00000000
00001000
00000100
00000010
00000000
00000010
00000001
,  // measure 56
00001000
00000000
00001000
00000010
00000100
00000000
00000100
00001000
,  // measure 57
00001100
00000000
00000000
00001000
00000000
00000000
00000100
00000000
00000101
00000000
00000000
00000001
00000000
00000000
00000010
00000000
,  // measure 58
00000220
00000000
00000330
00000000
,  // measure 59
00000000
00000000
00000000
00000000
,  // measure 60
00000000
00000000
00000000
00000000
,  // measure 61
00000001
00000001
00000100
00000001
00001000
00000100
00010000
00001000
,  // measure 62
01000000
00010000
10000000
00100000
10000000
10000000
01000000
00000000
,  // measure 63
10000000
10000000
01000000
10000000
00010000
01000000
00001000
00010000
,  // measure 64
00000100
00000000
00010000
00000000
01000000
00000000
00100000
00000000
00001000
00000000
00000010
00000000
00000001
00000000
00000001
00000010
,  // measure 65
00000001
00000001
00000010
00000001
00001000
00000010
00010000
00001000
,  // measure 66
01000000
00010000
10000000
00100000
10000000
10000000
01000000
00000000
,  // measure 67
10000000
10000000
00100000
10000000
00010000
01000000
00001000
00010000
,  // measure 68
00011000
00000000
00000000
00010000
00000000
00000000
00010100
00000000
00000000
00000100
00000000
00000000
00001000
00000000
00000100
00000000
,  // measure 69
00001100
00000000
00000000
00000000
;

//---------------dance-double - ----------------
#NOTES:
     dance-double:
     :
     Medium:
     6:
     0.477,0.478,0.584,0.050,0.059,273.000,59.000,5.000,0.000,0.000,0.000,0.477,0.478,0.584,0.050,0.059,273.000,59.000,5.000,0.000,0.000,0.000:
00000000
00000000
00000000
00000000
,
00000000
00000000
00000000
00000000
,
00000000
00000000
00000000
00000000
,
00000000
00000000
00000000
00000000
,
10000000
10000000
10000000
10000000
,
00010000
00010000
00010000
00010000
,
00100000
00010000
00100000
00000000
01000000
10000000
01000000
00000000
,
10000000
01000000
00100000
00010000
00100000
01000000
10000000
00000000
,
10000000
00010000
01000000
00000000
01010000
00000000
01001000
00000000
,
00011000
00000000
00010100
00000000
00010000
00000100
00001000
00000000
,
00000100
00001000
00000001
00000000
00001001
00000000
00001100
00000000
,
00010100
00000000
00011000
00000000
00001000
01000000
00010000
00000000
,
10000000
00010000
00100000
00000000
00110000
00000000
00101000
00000000
,
00011000
00000000
00010010
00000000
00000010
00001000
00000001
00000000
,
00000001
00001000
00000100
00000000
00001100
00000000
00010100
00000000
,
00011000
00000000
00000000
00011000
00000000
00000000
00001000
00010000
,
00011000
00000000
00001000
00000000
00001000
01000000
00000000
00000000
,
01000000
00000000
01000000
00000000
01000000
00010000
00000000
00000000
,
00010000
00000000
00010000
00000000
00010000
10000000
00000000
00000000
,
10000000
00000000
10000000
01000000
00000000
01000000
00000000
01000000
,
00100000
00000000
00100000
00000000
00100000
00001000
00000000
00000000
,
00001000
00000000
00001000
00000000
00001000
00010000
00000000
00000000
,
00010000
00000000
00010000
00000000
00010000
00000010
00000000
00000000
,
00000010
00000000
00000010
00000100
00000000
00000100
00000010
00000000
,
00000100
00000100
00000000
00000000
00000100
00000001
00000000
00000001
,
00001000
00001000
00000000
00000000
00001000
00000010
00000000
00000010
,
00000100
00000100
00000000
00000000
00000100
00001000
00000000
00001000
,
00010000
00010000
00000000
00001000
00000000
00010000
00000000
00001000
,
00100000
00100000
00000000
00000000
00100000
00010000
00000000
00010000
,
10000000
10000000
00000000
00000000
10000000
01000000
00000000
01000000
,
11000000
10010000
01010000
10010000
,
22000000
00000000
00000000
33000000
,
11000000
00000000
01010000
00000000
,
10100000
00000000
00110000
00000000
,
00100000
00000000
01000000
00000000
00010000
00000000
00001000
00000000
00000000
00000000
00000000
00000000
,
00010000
00000000
00001000
00000000
00000010
00000000
00000100
00000000
00000000
00000000
00000000
00000000
,
00001100
00000000
00000011
00000000
,
00000101
00000000
00001010
00000000
,
00000010
00000000
00000100
00000000
00001000
00000000
00010000
00000000
00000000
00000000
00000000
00000000
,
00001000
00000000
00010000
00000000
00100000
00000000
01000000
00000000
00000000
00000000
00000000
00000000
,
00010000
00000000
10000000
00000000
01000000
00000000
00100000
00000000
00001000
00000000
00010000
00000000
,
00000020
00000000
00000000
00000000
,
00000130
00000000
00000001
00000001
,
00000101
00000000
00000100
00000001
00000000
00000001
00001000
00000000
,
00001010
00000000
00001000
00000010
00000000
00000010
00000100
00000000
,
00000110
00000000
00000010
00000100
00000000
00000100
00001000
00000000
,
00001100
00000000
00000000
00001000
00000000
00000000
00000100
00001000
,
00010000
00000000
00001000
00000000
00010000
00000000
00001000
00010000
,
01000000
00010000
01000000
10000000
,
11000000
10000000
10010000
00010000
,
01010000
00000000
10000000
10000000
,
11000000
00000000
01000000
10000000
00000000
10000000
00010000
00000000
,
00110000
00000000
00010000
00100000
00000000
00100000
01000000
00000000
,
01100000
00000000
00100000
01000000
00000000
01000000
00010000
00000000
,
01010000
00000000
00000000
00010000
00000000
00000000
01000000
00010000
,
00001000
00000000
00010000
00000000
00001000
00000000
00010000
00001000
,
00000100
00001000
00000100
00000001
,
00000101
00000001
00001001
00001000
,
00002200
00000000
00003300
00000000
,
00000000
00000000
00000000
00000000
,
00000000
00000000
00000000
00000000
,
00000100
00001000
00000010
00000000
00001010
00000000
00010010
00000000
,
00011000
00000000
00101000
00000000
00100000
00010000
01000000
00000000
,
01000000
00010000
10000000
00000000
10010000
00000000
00011000
00000000
,
00001000
00100000
00001000
00010000
00000010
00010000
00000010
00000000
,
00000100
00001000
00000010
00000000
00001010
00000000
00010010
00000000
,
00011000
00000000
01001000
00000000
00010000
01000000
00100000
00000000
,
10000000
00010000
00100000
00000000
00110000
00000000
00101000
00000000
,
00011000
00000000
00000000
00001001
00000000
00000000
00000100
00000010
,
00000110
00000000
00000000
00000000
;

//---------------dance-double - ----------------
#NOTES:
     dance-double:
     :
     Easy:
     3:
     0.277,0.342,0.218,0.050,0.000,169.000,22.000,5.000,0.000,0.000,0.000,0.277,0.342,0.218,0.050,0.000,169.000,22.000,5.000,0.000,0.000,0.000:
00000000
00000000
00000000
00000000
,
00000000
00000000
00000000
00000000
,
00000000
00000000
00000000
00000000
,
00000000
00000000
00000000
00000000
,
10000000
00000000
00000000
00000000
,
10000000
00000000
00000000
00000000
,
00010000
00000000
00010000
00000000
,
10000000
10000000
00010000
00000000
,
10000000
10000000
01000000
00010000
,
00001000
00000010
00000001
00000001
,
00000100
00000100
00000001
00000100
,
00001000
00010000
00100000
00100000
,
10000000
10000000
01000000
00010000
,
00001000
00000010
00000001
00000001
,
00000010
00000010
00000100
00001000
,
00000001
00000000
00000000
00001000
00000000
00000000
00000001
00000000
,
00001001
00000000
00000100
00000000
,
00000010
00000000
00000100
00000000
,
00001000
00000000
00010000
00000000
,
00100000
00000000
00000000
01000000
00000000
01000000
00000000
00000000
,
10010000
00000000
01000000
00000000
,
00100000
00000000
01000000
00000000
,
00010000
00000000
00010000
00000000
,
00001000
00001000
00000010
00000010
,
00000100
00000000
00000010
00000001
,
00001000
00000000
00001000
00000001
,
00000100
00000000
00000100
00001000
,
00010000
00000000
00001000
00000000
,
00010000
00000000
00010000
00100000
,
10000000
00000000
00100000
10000000
,
10010000
00010000
10010000
10000000
,
20020000
00000000
00000000
30030000
,
10010000
00000000
11000000
00000000
,
10010000
00000000
01010000
00000000
,
01000000
00000000
00001000
00000000
,
00010000
00000000
00000100
00000000
,
00001001
00000000
00000101
00000000
,
00001001
00000000
00001100
00000000
,
00000100
00000000
00010000
00000000
,
00001000
00000000
01000000
00000000
,
00001000
00000000
00010000
00000000
,
00000200
00000000
00000000
00000000
,
00000310
00000000
00000010
00000000
,
00000110
00000000
00000010
00000001
,
00001000
00000000
00001000
00000010
,
00000100
00000000
00000100
00001000
,
00010000
00000000
00001000
00010000
,
01000000
00000000
01000000
00000000
,
10000000
00000000
10000000
00000000
,
10100000
00000000
01010000
00000000
,
10010000
00000000
01000000
00000000
,
11000000
00000000
10000000
00010000
,
00100000
00000000
00100000
01000000
,
00010000
00000000
01000000
00010000
,
00001000
00000000
00010000
00001000
,
00000100
00000000
00000100
00000000
,
00000010
00000000
00000010
00000000
,
00001010
00000000
00000101
00000000
,
00002002
00000000
00003003
00000000
,
00000000
00000000
00000000
00000000
,
00000000
00000000
00000000
00000000
,
00000001
00000001
00000100
00001000
,
00010000
00100000
10000000
10000000
,
01000000
01000000
00010000
00001000
,
00000010
00000000
00000010
00000000
,
00000001
00000001
00000100
00001000
,
00010000
00100000
10000000
10000000
,
01000000
01000000
00010000
00001000
,
00000010
00000000
00000000
00000100
00000000
00000000
00001000
00000000
,
00001001
00000000
00000000
00000000
;
