#TITLE:五星戦隊ダイレンジャー;
#SUBTITLE:;
#ARTIST:New JACK 琢郎;
#TITLETRANSLIT:Gosei Sentai Dairanger;
#SUBTITLETRANSLIT:;
#ARTISTTRANSLIT:New JACK Takurou;
#GENRE:;
#CREDIT:;
#BANNER:Gosei Sentai Dairanger.png;
#BACKGROUND:Gosei Sentai Dairanger-bg.png;
#LYRICSPATH:;
#CDTITLE:;
#MUSIC:Gosei Sentai Dairanger.mp3;
#OFFSET:-0.079;
#SAMPLESTART:7.780;
#SAMPLELENGTH:16.380;
#SELECTABLE:YES;
#BPMS:0.000=123.660
;
#STOPS:
;
#BGCHANGES:;
#KEYSOUNDS:;
#ATTACKS:;

//---------------dance-single - ----------------
#NOTES:
     dance-single:
     :
     Hard:
     8:
     0.564,0.580,0.751,0.197,0.265,244.000,61.000,16.000,0.000,0.000,0.000,0.564,0.580,0.751,0.197,0.265,244.000,61.000,16.000,0.000,0.000,0.000:
0000
0000
0000
0000
,
0000
0000
0000
0000
,
0000
0000
0000
0000
,
0000
0000
0000
0000
,
1000
0000
0100
0000
0010
0000
0001
0000
0010
0000
0100
1000
0000
0000
2020
0000
,
0000
0000
3030
0000
0110
0000
0000
0000
0101
0000
0000
1001
0000
0000
0000
0000
,
0001
0000
0100
0000
0010
0000
1000
0000
0010
0000
0100
0001
0000
0000
0022
0000
,
0000
0000
0033
0000
0110
0000
0000
0000
1100
0000
0000
1001
0000
1000
0010
0100
,
0001
0000
0010
0000
0100
0000
0000
0000
1000
0000
0000
1001
0000
0000
0000
0000
,
0001
0100
1000
0100
0001
0010
1000
0010
,
0002
0000
0000
0000
0103
0000
0000
0000
1010
0000
0000
0000
0101
0000
0000
1002
,
0000
0000
0100
0000
0103
0000
0000
0000
0001
0000
0010
0000
0100
0000
0000
2001
,
0000
0100
3100
0000
1000
0010
0001
0100
,
1000
0000
1000
0000
0001
0000
0000
0000
0101
0000
0000
0000
1100
0000
0000
1001
,
0000
0000
0101
0000
0101
0000
1100
0000
1100
0000
1001
0000
1000
0010
0100
0000
,
0101
0000
0000
0000
1100
0000
0000
0000
0011
0000
0000
1010
0000
0000
1001
0000
,
0000
1000
0100
0001
1000
0010
0001
1000
,
1010
0000
0000
0000
0011
0000
0000
0000
1100
0000
0000
0101
0000
0000
1001
0000
,
0000
0001
0100
1000
0001
0010
1000
0001
,
0100
0000
0001
0010
0100
1000
0001
0100
,
0010
0000
0000
0010
0000
0000
0100
0001
0100
0001
0000
0000
1000
0100
1000
0000
,
0011
0000
0000
0000
1100
0000
0000
0000
0101
0000
0000
1010
0000
0000
1001
0000
,
0000
1000
0100
0001
0010
0001
0100
1000
,
1010
0000
0000
0000
0101
0000
0000
0000
0011
0000
0000
1100
0000
0000
1001
0000
,
0000
0001
0100
1000
0010
1000
0100
0001
,
0000
0100
0010
1000
0001
0010
0100
1000
,
0001
0000
0100
0010
0000
0100
0010
0000
1001
0000
1000
0000
0010
1000
0001
0000
,
1000
0100
0001
0100
0010
0100
1000
0001
,
1000
0010
0001
0010
0100
0010
1000
0001
,
0011
0000
0000
0000
1100
0000
0000
2001
0000
0000
3100
0000
1000
0001
0000
0000
,
0101
0000
0000
0000
1010
0000
0000
1002
0000
0000
0013
0000
0001
1000
0000
0000
,
0001
0000
0100
0000
1000
0000
0010
0000
0001
0000
0001
0000
1000
0010
1000
0000
,
0001
0000
0010
0000
1000
0000
0010
0000
0100
0000
1000
0001
0000
0000
2020
0000
,
0000
0000
3030
0000
0110
0000
0000
0000
0101
0000
0000
0011
0000
0000
1001
0000
,
0000
0000
0001
0000
0100
0000
0010
0000
1000
0000
1000
0000
0001
0010
0001
0000
,
1000
0000
0100
0000
0001
0000
0100
0000
0010
0000
0001
1000
0000
0000
2200
0000
,
0000
0000
3300
0000
0110
0000
0000
0000
0011
0000
0000
1001
0000
0000
0110
0000
,
0000
0000
0011
0000
1010
0000
0001
1000
0002
0000
0000
0000
0013
0000
0000
0000
,
0001
0100
0001
0100
0000
0000
1000
0100
1000
0100
0000
0001
1000
0001
1000
0000
,
0000
0000
0000
0100
0000
0000
0010
0000
0000
0100
0000
0000
0010
0000
0000
0000
0000
0000
0001
0000
0000
1000
0000
0000
0000
0000
0000
0000
0000
0000
0000
0000
0000
0000
0000
0000
0000
0000
0000
0000
0000
0000
0000
0000
0220
0000
0000
0000
,
0000
0000
0000
0000
,
0330
0000
0000
0000
;

//---------------dance-double - Blank----------------
#NOTES:
     dance-double:
     8:
     Hard:
     8:
     0.566,0.580,0.775,0.209,0.265,242.000,63.000,17.000,0.000,0.000,0.000,0.566,0.580,0.775,0.209,0.265,242.000,63.000,17.000,0.000,0.000,0.000:
00000000
00000000
00000000
00000000
,
00000000
00000000
00000000
00000000
,
00000000
00000000
00000000
00000000
,
00000000
00000000
00000000
00000000
,
10000000
00000000
01000000
00000000
00010000
00000000
00001000
00000000
00000010
00000000
00000001
00001000
00000000
00000000
00000202
00000000
,
00000000
00000000
00000303
00000000
00000110
00000000
00000000
00000000
00001010
00000000
00000000
00001001
00000000
00000000
00000000
00000000
,
00000001
00000000
00000100
00000000
00001000
00000000
00010000
00000000
00100000
00000000
10000000
00010000
00000000
00000000
22000000
00000000
,
00000000
00000000
33000000
00000000
01100000
00000000
00000000
00000000
00110000
00000000
00000000
10010000
00000000
10000000
01000000
00100000
,
00010000
00000000
01000000
00000000
00001000
00000000
00000000
00000000
00101000
00000000
00000000
00010100
00000000
00000000
00000000
00000000
,
00001000
00000010
00000100
00000001
00000010
00000100
00001000
00000100
,
00020000
00000000
00000000
00000000
00031000
00000000
00000000
00000000
00110000
00000000
00000000
00000000
11000000
00000000
00000000
20010000
,
00000000
00000000
01000000
00000000
31000000
00000000
00000000
00000000
10000000
00000000
00100000
00000000
00010000
00000000
00000000
00021000
,
00000000
00000100
00030100
00000000
00010000
00001000
00000010
00000001
,
00002000
00000000
00000000
00000000
00003001
00000000
00000000
00000000
00000101
00000000
00000000
00000000
00001100
00000000
00000000
00001001
,
00000000
00000000
00000101
00000000
00000101
00000000
00001100
00000000
00001100
00000000
00011000
00000000
00010000
00100000
01000000
00000000
,
11000000
00000000
00000000
00000000
01010000
00000000
00000000
00000000
00110000
00000000
00000000
00101000
00000000
00000000
00011000
00000000
,
00000000
00001000
00010000
00000100
00001000
00000010
00000100
00000001
,
00000101
00000000
00000000
00000000
00001100
00000000
00000000
00000000
00001010
00000000
00000000
00010010
00000000
00000000
00011000
00000000
,
00000000
00010000
00100000
10000000
01000000
00010000
00001000
00000010
,
00000001
00000000
00001000
00000010
00000100
00000001
00001000
00000100
,
00001100
00000000
00000000
00010100
00000000
00000000
00100000
00001000
00100000
00001000
00000000
00000000
00100000
01000000
10000000
00000000
,
10100000
00000000
00000000
00000000
00110000
00000000
00000000
00000000
01010000
00000000
00000000
01001000
00000000
00000000
00011000
00000000
,
00000000
00001000
00010000
00000010
00001000
00000100
00000010
00000001
,
00000011
00000000
00000000
00000000
00001010
00000000
00000000
00000000
00001100
00000000
00000000
00010100
00000000
00000000
00011000
00000000
,
00000000
00010000
01000000
10000000
00100000
00010000
00001000
00000100
,
00000000
00000001
00000010
00001000
00000010
00000001
00000100
00001000
,
00010000
00000000
00010000
00100000
00000000
00100000
10000000
00000000
00010000
00000000
10000000
00000000
00100000
01000000
00100000
00000000
,
10000000
01000000
00010000
01000000
00100000
00010000
01000000
00001000
,
00010000
00000100
00001000
00000010
00000001
00000010
00000100
00000001
,
00001001
00000000
00000000
00000000
00001100
00000000
00000000
00020100
00000000
00000000
00031000
00000000
00001000
00100000
00000000
00000000
,
10010000
00000000
00000000
00000000
01010000
00000000
00000000
01002000
00000000
00000000
00103000
00000000
00100000
00001000
00000000
00000000
,
00000000
00000000
00100000
00000000
00001000
00000000
00010000
00000000
00000100
00000000
00000100
00000000
00001000
00000001
00001000
00000000
,
00000001
00000000
00000100
00000000
00001000
00000000
00010000
00000000
00100000
00000000
10000000
00010000
00000000
00000000
22000000
00000000
,
00000000
00000000
33000000
00000000
01100000
00000000
00000000
00000000
00110000
00000000
00000000
00011000
00000000
00000000
00001100
00000000
,
00000000
00000000
00000010
00000000
00000001
00000000
00000100
00000000
00000010
00000000
00000010
00000000
00001000
00000001
00001000
00000000
,
00000001
00000000
00000010
00000000
00001000
00000000
00010000
00000000
01000000
00000000
10000000
00010000
00000000
00000000
00220000
00000000
,
00000000
00000000
00330000
00000000
00011000
00000000
00000000
00000000
00001100
00000000
00000000
00000101
00000000
00000000
00001001
00000000
,
00000000
00000000
00000101
00000000
00000101
00000000
00001000
00000001
00002000
00000000
00000000
00000000
00003100
00000000
00000000
00000000
,
00001000
00000100
00010000
00001000
00000000
00000000
00100000
00001000
01000000
00010000
00000000
01000000
00010000
10000000
01000000
00000000
,
00000000
00000000
00000000
10000000
00000000
00000000
00100000
00000000
00000000
10000000
00000000
00000000
00100000
00000000
00000000
00000000
00000000
00000000
01000000
00000000
00000000
00010000
00000000
00000000
00000000
00000000
00000000
00000000
00000000
00000000
00000000
00000000
00000000
00000000
00000000
00000000
00000000
00000000
00000000
00000000
00000000
00000000
00000000
00000000
00022000
00000000
00000000
00000000
,
00000000
00000000
00000000
00000000
,
00033000
00000000
00000000
00000000
;

//---------------dance-double - Blank----------------
#NOTES:
     dance-double:
     :
     Medium:
     5:
     0.443,0.389,0.615,0.098,0.006,194.000,50.000,8.000,0.000,0.000,0.000,0.443,0.389,0.615,0.098,0.006,194.000,50.000,8.000,0.000,0.000,0.000:
00000000
00000000
00000000
00000000
,
00000000
00000000
00000000
00000000
,
00000000
00000000
00000000
00000000
,
00000000
00000000
00000000
00000000
,
10000000
01000000
00100000
00010000
00100000
01000000
00010000
00000000
,
01010000
00101000
00010100
00001010
,
00000001
00000010
00000100
00001000
00000100
00000010
00001000
00000000
,
00001010
00010100
00101000
01010000
,
00100000
10000000
01000000
00000000
00200000
00000000
00310000
00000000
,
01000000
00001000
00010000
00000000
00001000
00010000
00000100
00000000
,
00002000
00003100
00000101
00001100
,
00001002
00000000
00000103
00000000
00000001
00000100
00000010
00000000
,
00002010
00000000
00003100
00000000
00001000
00000010
00000100
00000000
,
00000001
00000010
00000100
00000000
00001100
00000000
00011000
00000000
,
00110000
00000000
00100000
00100000
10000000
10000000
00010000
00000000
,
11000000
01100000
00110000
00011000
,
00001100
00000000
00000100
00000000
00000010
00000001
00000100
00000000
,
00000101
00000110
00001010
00011000
,
01010000
00000000
01000000
00000000
00100000
10000000
01000000
00000000
,
10000000
00000000
00010000
01000000
00010000
00000000
00100000
00000000
,
00001000
00001000
00001000
00000000
00010000
00010000
00010000
00000000
,
11000000
01100000
00110000
00011000
,
00001010
00000000
00000010
00000000
00000001
00000100
00000010
00000000
,
00000101
00000110
00001010
00011000
,
00110000
00000000
00100000
00000000
10000000
01000000
00100000
00000000
,
10000000
00100000
01000000
00010000
00100000
00001000
00010000
00000100
,
00001000
00000000
00000000
00001000
00000000
00000000
00001000
00000000
00000001
00000000
00000100
00000000
00000010
00000000
00001000
00000000
,
00000001
00000010
00000001
00000000
00000010
00000100
00000010
00000000
,
00000100
00001000
00000100
00000000
00010000
00001000
00010000
00000000
,
00110000
10100000
20010000
31000000
,
01010000
00011000
00002100
00003010
,
00001000
00000010
00000100
00000001
00001000
00000100
00000010
00000001
,
00001000
00000010
00000100
00000001
00000100
00001000
00010000
00000000
,
10100000
01010000
00110000
11000000
,
10000000
00100000
01000000
00010000
10000000
01000000
00100000
00010000
,
10000000
00100000
01000000
10000000
01000000
00010000
00001000
00000000
,
00000011
00001100
00000101
00001010
,
00000001
00000100
00001000
00010000
00022000
00000000
00033000
00000000
,
00010000
00100000
10000000
00000000
01000000
00100000
00010000
00000000
,
01000000
00010000
00100000
00001000
00010000
00000000
00000000
00000000
;

//---------------dance-double - Blank----------------
#NOTES:
     dance-double:
     :
     Easy:
     3:
     0.227,0.194,0.037,0.000,0.000,126.000,3.000,0.000,0.000,0.000,0.000,0.227,0.194,0.037,0.000,0.000,126.000,3.000,0.000,0.000,0.000,0.000: // measure 0
00000000
00000000
00000000
00000000
,  // measure 1
00000000
00000000
00000000
00000000
,  // measure 2
00000000
00000000
00000000
00000000
,  // measure 3
00000000
00000000
00000000
00000000
,  // measure 4
10000000
01000000
00100000
00010000
,  // measure 5
01000000
01000000
00010000
00010000
,  // measure 6
00100000
00001000
00010000
00000100
,  // measure 7
00000010
00000010
00000001
00000001
,  // measure 8
00001000
00000010
00001000
00000000
,  // measure 9
00000001
00000100
00000010
00001000
,  // measure 10
00000100
00000000
00010000
00001000
,  // measure 11
00010000
00000000
00100000
10000000
,  // measure 12
00100000
00000000
10000000
01000000
,  // measure 13
00100000
00010000
01000000
01000000
,  // measure 14
00010000
00010000
00100000
00100000
,  // measure 15
00001000
00010000
00000100
00010000
,  // measure 16
00000010
00000000
00000100
00000000
,  // measure 17
00000001
00000010
00000100
00000010
,  // measure 18
00000001
00000000
00001000
00000000
,  // measure 19
00000001
00000100
00001000
00010000
,  // measure 20
00100000
10000000
00010000
00000000
,  // measure 21
10000000
01000000
00010000
01000000
,  // measure 22
10000000
00000000
00010000
00000000
,  // measure 23
00100000
00001000
00010000
00000100
,  // measure 24
00001000
00000000
00000010
00000000
,  // measure 25
00000100
00000001
00000010
00000100
,  // measure 26
00001000
00010000
00011000
00000000
,  // measure 27
00010000
00100000
10000000
00100000
,  // measure 28
01000000
00010000
10000000
01000000
,  // measure 29
10000000
00100000
01000000
00000000
,  // measure 30
00010000
00100000
00001000
00000000
,  // measure 31
00010000
00000100
00001000
00000010
,  // measure 32
00000100
00000001
00000010
00000001
,  // measure 33
00000100
00000100
00000010
00000010
,  // measure 34
00001000
00000100
00010000
00001000
,  // measure 35
00100000
00010000
01000000
00100000
,  // measure 36
10000000
10000000
00010000
00010000
,  // measure 37
00100000
01000000
10010000
00000000
,  // measure 38
10000000
00100000
01000000
00010000
,  // measure 39
00100000
00001000
00011000
00000000
;
