#TITLE:9000 Miles;
#SUBTITLE:;
#ARTIST:Pendulum;
#TITLETRANSLIT:;
#SUBTITLETRANSLIT:;
#ARTISTTRANSLIT:;
#GENRE:;
#CREDIT:;
#BANNER:9000 Miles-bn.png;
#BACKGROUND:9000 Miles-bg.png;
#LYRICSPATH:;
#CDTITLE:;
#MUSIC:9000 Miles.ogg;
#OFFSET:0.005;
#SAMPLESTART:54.461;
#SAMPLELENGTH:22.760;
#SELECTABLE:YES;
#BPMS:0.000=174.000,32.000=87.000,96.000=174.000,224.000=87.000;
#STOPS:;
#TIMESIGNATURES:0.000=4=4
;
#BGCHANGES:0.000=9000 Miles-bg.png=1.000=0=0=1=====,
99999=-nosongbg-=1.000=0=0=0 // don't automatically add -songbackground-
;
#KEYSOUNDS:;

//---------------dance-double - ----------------
#NOTES:
     dance-double:
     :
     Easy:
     5:
     0.285,0.446,0.210,0.140,0.079,188.000,24.000,16.000,0.000,0.000,0.000,0.285,0.446,0.210,0.140,0.079,188.000,24.000,16.000,0.000,0.000,0.000: // measure 1
00000000
00000000
00000000
00000000
,  // measure 2
00000000
00000000
00000000
00000000
,  // measure 3
00000000
00000000
00000000
00000000
,  // measure 4
00000000
00000000
00000000
00000000
,  // measure 5
00000000
00000000
00000000
00000000
,  // measure 6
00000000
00000000
00000000
00000000
,  // measure 7
00000000
00000000
00000000
00000000
,  // measure 8
00000000
00000000
00000000
00000000
,  // measure 9
00001000
00000000
00000000
00001000
00000000
00000000
00001000
00000000
00000000
00002000
00000000
00000000
00000000
00000000
00000000
00000000
,  // measure 10
00013000
00000000
00000000
00010000
00000000
00000000
00010000
00000000
00020000
00000000
00000000
00000000
00000000
00000000
00000000
00000000
,  // measure 11
00000000
00000000
00000000
00030200
00000000
00000000
00000000
00000300
,  // measure 12
00000000
00000000
00000000
00000000
00000000
00000000
00000100
00001000
,  // measure 13
00000100
00000000
00000000
00000100
00000000
00000000
00000200
00000000
00000000
00000000
00000000
00000000
00000000
00000000
00000000
00001300
,  // measure 14
00000100
00000000
00000000
00000000
00000000
00000020
00000000
00000000
,  // measure 15
00000000
00000030
00000000
00000000
00000000
00000000
00000000
00000000
,  // measure 16
00000000
00000000
00000000
00000000
,  // measure 17
00000001
00000100
00000010
00001000
,  // measure 18
00000100
00000000
00000000
00000000
00010000
00000000
00000000
00000000
00001000
00000000
00000000
00000000
00100000
00001000
00100000
00000000
,  // measure 19
00010000
00100000
01000000
10000000
,  // measure 20
01000000
00000000
00000000
01000000
00000000
00000000
01000000
00000000
10000000
00000000
00000000
00000000
00010000
10000000
00010000
00000000
,  // measure 21
01000000
00100000
10000000
00010000
,  // measure 22
00100000
00000000
00000000
00000000
00001000
00000000
00000000
00000000
00010000
00000000
00000000
00000000
00000100
00000010
00000100
00000000
,  // measure 23
00001000
00000001
00001000
00000100
,  // measure 24
00010000
00000000
00000000
00010000
00000000
00000000
00010000
00000000
00000000
00010000
00000000
00000000
00020000
00000000
00000000
00000000
,  // measure 25
00031000
00011000
00000000
00001000
,  // measure 26
00100000
00101000
00000000
00100000
,  // measure 27
01000000
01100000
00000000
01000000
,  // measure 28
10000000
11000000
00000000
10000000
,  // measure 29
00010000
01010000
00000000
00010000
,  // measure 30
01000000
01001000
00000000
01000000
,  // measure 31
00001000
00011000
00000000
00001000
,  // measure 32
00010000
00010010
00000000
00010000
,  // measure 33
00000010
00000110
00000000
00000010
,  // measure 34
00000100
00000101
00000000
00000001
,  // measure 35
00001000
00001100
00000000
00001000
,  // measure 36
00000100
00010100
00000000
00001000
,  // measure 37
00100000
00110000
00000000
00100000
,  // measure 38
01000000
11000000
00000000
01000000
,  // measure 39
00100000
00101000
00000000
00100000
,  // measure 40
00001000
00011000
00010000
00001000
,  // measure 41
00010000
00000000
00011000
00000000
00000000
00001000
00001000
00000000
,  // measure 42
01000000
00100000
01000000
00010000
,  // measure 43
10000000
00000000
11000000
00000000
00000000
01000000
01000000
00000000
,  // measure 44
00100000
00001000
00010000
00000010
,  // measure 45
00000100
00000000
00000110
00000000
00000000
00000010
00000010
00000000
,  // measure 46
00000100
00000001
00000100
00000010
,  // measure 47
00001000
00000000
00001100
00000000
00000000
00000100
00000100
00000000
,  // measure 48
00010000
00001000
00100000
01000000
,  // measure 49
00100000
00000000
00110000
00000000
00000000
00010000
00010000
00000000
,  // measure 50
00100000
00001000
00010000
00001000
,  // measure 51
01000000
00000000
01010000
00000000
00000000
00010000
00010000
00000000
,  // measure 52
01000000
00100000
10000000
00010000
,  // measure 53
01000000
00000000
01100000
00000000
00000000
00100000
00100000
00000000
,  // measure 54
10000000
01000000
10000000
00010000
,  // measure 55
00100000
00000000
00110000
00000000
00000000
00010000
00010000
00000000
,  // measure 56
00100000
00000000
00001000
00000000
00010000
00000100
00001000
00000100
,  // measure 57
00002000
00000000
00000000
00000000
00000000
00000000
00003100
00000200
00000000
00000000
00020300
00000000
00000000
00000000
00031000
00002000
,  // measure 58
00000000
00000000
00000000
00000000
00000000
00000000
00103000
00200000
00000000
00000000
00000000
00000000
00000000
01300000
00100000
02000000
,  // measure 59
00000000
00000000
00000000
00000000
00000000
00000000
13000000
20000000
00000000
00000000
30020000
00000000
00000000
00000000
02030000
00002000
,  // measure 60
00000000
00000000
00000000
00000000
,  // measure 61
03003000
00000000
00000000
00000000
;

//---------------dance-double - ----------------
#NOTES:
     dance-double:
     :
     Medium:
     7:
     0.427,0.655,0.245,0.149,0.293,297.000,28.000,17.000,0.000,0.000,0.000,0.427,0.655,0.245,0.149,0.293,297.000,28.000,17.000,0.000,0.000,0.000: // measure 1
00000000
00000000
00000000
00000000
,  // measure 2
00000000
00000000
00000000
00000000
,  // measure 3
00000000
00000000
00000000
00000000
,  // measure 4
00000000
00000000
00000000
00000000
,  // measure 5
00000000
00000000
00000000
00000000
,  // measure 6
00000000
00000000
00000000
00000000
,  // measure 7
00000000
00000000
00000000
00000000
,  // measure 8
00000000
00000000
00000000
00000000
,  // measure 9
00001000
00000000
00000000
00001000
00000000
00000000
00100000
00000000
00000000
00100000
00000000
00000000
00010000
00000000
00100000
00000000
,  // measure 10
00010000
00000000
00000000
00010000
00000000
01000000
00010000
01000000
00000000
00000000
00100000
00000000
10000000
00100000
00000000
00000000
,  // measure 11
01000000
00000000
00000000
00010000
00000000
00000000
00100000
00000000
00000000
00001000
00000000
00000000
00010000
00001000
00000000
00000000
,  // measure 12
00010000
00000000
00000000
00010000
00000000
00000000
00001000
00000000
00000000
00001000
00000000
00000000
00010000
00000000
00000010
00000000
,  // measure 13
00001000
00000000
00000000
00001000
00000000
00000000
00000001
00000000
00000000
00000001
00000000
00000000
00000010
00000000
00000000
00000001
,  // measure 14
00000010
00000000
00000000
00000100
00000000
00000000
00001000
00000100
00000000
00000000
00000010
00000000
00000100
00001000
00000000
00000000
,  // measure 15
00000100
00000000
00000000
00000100
00000000
00000000
00010000
00000000
00000000
00010000
00000000
00000000
00001000
00010000
00000000
00000000
,  // measure 16
00001000
00000000
00000000
00200000
00000000
00000000
00020000
00000000
00000000
00000000
00000000
00000000
00000000
00000000
00330000
00000000
,  // measure 17
00010000
00000000
10000000
01000000
00000000
00000000
01000000
00100000
00000000
00000000
00100000
00010000
00000000
00010000
01000000
00001000
,  // measure 18
01000000
00000000
01000000
00010000
00000000
00000000
00010000
00100000
00000000
00000000
00100000
00001000
00010000
00001000
00010000
00000000
,  // measure 19
00011000
00000000
00001000
00010000
00000000
00000000
00010000
00000010
00000000
00000000
00000010
00000100
00000000
00000100
00000001
00000100
,  // measure 20
00000010
00000000
00000000
00001000
00000000
00000000
00000100
00000000
00000000
00000010
00000000
00000000
00000001
00000000
00001000
00000000
,  // measure 21
00001100
00000000
00000100
00010000
00000000
00000100
00010000
00000100
00000000
00010000
00001000
00010000
00000000
00001000
00100000
00001000
,  // measure 22
00100000
00000000
01000000
00100000
00000000
01000000
10000000
01000000
00000000
10000000
00010000
10000000
00000000
00010000
01000000
00010000
,  // measure 23
01000000
00000000
00001000
01000000
00000000
00001000
00010000
00001000
00000000
00010000
00000100
00010000
00000000
00000100
00001000
00000100
,  // measure 24
00001000
00000000
00000000
00000001
00000000
00000000
00001000
00000000
00000000
00000002
00000000
00000000
00002000
00000000
00000000
00003003
,  // measure 25
00001001
00000000
00001100
00000000
00000000
00000100
00010000
00000000
,  // measure 26
00001000
00000000
00101000
00000000
00000000
00100000
01000000
00000000
,  // measure 27
10000000
00000000
11000000
00000000
00000000
01000000
00100000
00000000
,  // measure 28
00001000
00000000
00011000
00000000
00000000
00010000
00000100
00000000
,  // measure 29
00001000
00000000
00010100
00000000
00000000
00000100
00010000
00000000
,  // measure 30
00000010
00000000
00001010
00000000
00000000
00001000
00000001
00000000
,  // measure 31
00000100
00000000
00001010
00000000
00000000
00000010
00001000
00000000
,  // measure 32
00000100
00000000
00010100
00000000
00000000
00010000
00001000
00100000
,  // measure 33
00001000
00000000
00110000
00000000
00000000
00100000
01000000
00000000
,  // measure 34
10000000
00000000
11000000
00000000
00000000
01000000
00100000
00000000
,  // measure 35
00001000
00000000
00010100
00000000
00000000
00010000
00000010
00000000
,  // measure 36
00001000
00000000
00001100
00000000
00000000
00000100
00010000
00000000
,  // measure 37
00001000
00000000
00110000
00000000
00000000
00100000
01000000
00000000
,  // measure 38
10000000
00000000
00110000
00000000
00000000
00100000
00001000
00000000
,  // measure 39
00010000
00000000
00010100
00000000
00000000
00000100
00010000
00000000
,  // measure 40
00001000
00000000
01001000
00000000
00001000
01000000
00001000
01000000
,  // measure 41
00010000
00000000
01000000
00000000
00100000
10000000
01000000
00000000
,  // measure 42
10000000
00000000
00010000
01000000
00100000
01000000
00010000
00000000
,  // measure 43
01000000
00000000
00001000
00000000
00010000
00000100
00010000
00000000
,  // measure 44
00000100
00000000
00000010
00000001
00001000
00000001
00000010
00000000
,  // measure 45
00000100
00000000
00001000
00000000
00000100
00000010
00000001
00000000
,  // measure 46
00000010
00000000
00000100
00001000
00000001
00001000
00000100
00000000
,  // measure 47
00010000
00000000
00001000
00000000
00100000
00001000
00010000
00000000
,  // measure 48
00001000
00000000
00100000
00010000
10000000
01000000
00100000
00010000
,  // measure 49
00100000
00000000
00110000
00000000
00010000
10000000
01000000
00000000
,  // measure 50
00110000
00000000
00100000
00010000
10000000
00010000
01000000
00000000
,  // measure 51
00001000
00000000
00011000
00000000
00001000
00010000
00000010
00000000
,  // measure 52
00001010
00000000
00001000
00000010
00000100
00000010
00001000
00000000
,  // measure 53
00000001
00000000
00000011
00000000
00000010
00000001
00001000
00000000
,  // measure 54
00001001
00000000
00000001
00000010
00000100
00000010
00000001
00000000
,  // measure 55
00001000
00000000
00001100
00000000
00000100
00010000
00001000
00000000
,  // measure 56
00011000
00000000
00001000
01000000
00010000
01000000
00100000
10000000
,  // measure 57
21000000
00000000
00000000
00000000
00000000
00000000
30200000
02300000
00000000
00000000
03002000
00000000
00000000
00000000
00023000
00030200
,  // measure 58
00000000
00000000
00000000
00000000
00000000
00000000
00000320
00000230
00000000
00000000
00000000
00000000
00000000
00010300
00001000
00020000
,  // measure 59
00000000
00000000
00000000
00000000
00000000
00000000
00030020
00002030
00000000
00000000
00000000
00000000
00000000
00000000
00003002
00000200
,  // measure 60
00000000
00000000
00000000
00000000
,  // measure 61
00000303
00000000
00000000
00000000
;

//---------------dance-double - ----------------
#NOTES:
     dance-double:
     :
     Hard:
     9:
     0.548,0.734,0.184,0.262,0.424,388.000,21.000,30.000,0.000,0.000,0.000,0.548,0.734,0.184,0.262,0.424,388.000,21.000,30.000,0.000,0.000,0.000: // measure 1
00000000
00000000
00000000
00000000
,  // measure 2
00000000
00000000
00000000
00000000
,  // measure 3
00000000
00000000
00000000
00000000
,  // measure 4
00000000
00000000
00000000
00000000
,  // measure 5
00000000
00000000
00000000
00000000
,  // measure 6
00000000
00000000
00000000
00000000
,  // measure 7
00000000
00000000
00000000
00000000
,  // measure 8
00000000
00000000
00000000
00000000
,  // measure 9
00002000
00000000
00000000
00010000
00000000
00000000
00100000
00000000
00000000
00100000
00000000
00000000
00010000
00000000
00010000
00000000
,  // measure 10
00203000
00000000
00000000
01000000
00000000
00010000
00010000
00320000
00000000
00000000
01000000
00000000
10000000
10000000
00000000
00000000
,  // measure 11
02030000
00000000
00000000
00100000
00000000
00000000
00100000
00000000
00000000
00010000
00000000
00000000
00010000
00010000
00000000
00000000
,  // measure 12
03002000
00000000
00000000
00010000
00000000
00000000
00100000
00000000
00000000
00100000
00000000
00000000
00010000
00000000
00010000
00000000
,  // measure 13
00023000
00000000
00000000
00001000
00000000
00000000
00000100
00000000
00000000
00000100
00000000
00000000
00001000
00000000
00000000
00000010
,  // measure 14
00030020
00000000
00000000
00000100
00000000
00000000
00001000
00002030
00000000
00000000
00000100
00000000
00000001
00003002
00000000
00000000
,  // measure 15
00000203
00000000
00000000
00000010
00000000
00000000
00000320
00000000
00000000
00001000
00000000
00000000
00010000
00020030
00000000
00000000
,  // measure 16
00032000
00000000
00000000
02003000
00000000
00000000
00020000
00000000
00000000
00000000
00000000
00000000
00000000
00000000
03030000
00000000
,  // measure 17
01010000
00000000
00010000
01000000
00000000
00100000
10000000
00100000
00000000
01000000
00010000
01000000
00000000
00100000
10000000
00010000
,  // measure 18
10000000
00000000
00000000
00000000
01000000
00000000
10000000
00000000
00000000
00000000
01000000
00000000
00100000
00000000
01000000
00000000
00000000
00000000
00100000
00000000
01000000
00000000
00100000
00000000
00010000
00100000
00010000
00100000
00010000
00000000
00100000
00000000
,  // measure 19
00001000
00000000
00010000
00000010
00000000
00001000
00000010
00001000
00000000
00000010
00000100
00000010
00000000
00000100
00000001
00000100
,  // measure 20
00000010
00000000
00000000
00000000
00001000
00000000
00000100
00000000
00000000
00000000
00000010
00000000
00000100
00000000
00000010
00000000
00000000
00000000
00000001
00000000
00001000
00000000
00000001
00000000
00000100
00000001
00000100
00000001
00000100
00000000
00000010
00000000
,  // measure 21
00001000
00000000
00001000
00000100
00000000
00000100
00010000
00000100
00000000
00000100
00000010
00000100
00000000
00000100
00010000
00001000
,  // measure 22
01000000
00000000
00010000
00000000
01000000
00000000
00100000
00000000
00000000
00000000
01000000
00000000
00100000
00000000
01000000
00000000
00000000
00000000
01000000
00000000
00010000
00000000
10000000
00000000
01000000
10000000
01000000
10000000
01000000
00000000
10000000
00000000
,  // measure 23
01000000
00100000
01000000
10000000
00000000
10000000
00100000
10000000
00000000
10000000
00010000
10000000
00000000
10000000
01000000
00100000
,  // measure 24
00002000
00000000
00000000
00023000
00000000
00000000
00030200
00000000
00000000
00000320
00000000
00000000
00000032
00000000
00002003
00000000
,  // measure 25
00003100
00000000
00000011
00000000
00000000
00001000
00001100
00000000
,  // measure 26
00000100
00000000
00010000
00001000
00100000
00100000
00010000
00000000
,  // measure 27
10000000
00000000
11000000
00000000
00000000
00010000
00110000
00000000
,  // measure 28
00100000
00000000
00000000
00000000
00001000
00000000
00010000
00000000
00000010
00010000
00000010
00010000
00000010
00000000
00001000
00000000
,  // measure 29
00000010
00000000
00000110
00000000
00000000
00000100
00000101
00000000
,  // measure 30
00000001
00000000
00001000
00000100
00010000
00010000
00000100
00000000
,  // measure 31
00010000
00000000
00011000
00000000
00000000
00001000
01001000
00000000
,  // measure 32
01000000
00000000
00000000
00000000
00100000
00000000
10000000
00000000
00010000
01000000
00010000
01000000
00100000
00000000
10000000
00000000
,  // measure 33
11000000
00000000
01100000
00000000
00000000
00100000
00110000
00000000
,  // measure 34
00101000
00000000
00100000
00001000
00010000
00010000
00000010
00000000
,  // measure 35
00000100
00000000
00000110
00000000
00000000
00000010
00001010
00000000
,  // measure 36
00010010
00000000
00000000
00000000
00000010
00000000
00010000
00000000
00001000
00010000
00001000
00010000
00001000
00000000
01000000
00000000
,  // measure 37
00010000
00000000
01010000
00000000
00000000
01000000
01100000
00000000
,  // measure 38
10100000
00000000
10000000
01000000
00100000
00100000
01000000
10000000
,  // measure 39
00010000
00000000
00110000
00000000
00000000
00100000
00101000
00000000
,  // measure 40
00001000
00000000
00100000
00010000
10000000
10000000
01000000
00100000
,  // measure 41
00010000
01000000
00100000
01000000
00010000
01000000
00001000
00010000
,  // measure 42
00000100
00000010
00000100
00001000
00000001
00000010
00000001
00001000
,  // measure 43
00000100
00010000
00001000
01000000
00001000
01000000
00100000
01000000
,  // measure 44
00010000
10000000
00100000
10000000
01000000
00100000
00010000
00100000
,  // measure 45
01000000
00100000
00001000
00010000
00000010
00001000
00000010
00000100
,  // measure 46
00000010
00001000
00000100
00010000
00001000
01000000
00100000
10000000
,  // measure 47
01000000
00100000
00010000
01000000
00100000
10000000
00001000
00010000
,  // measure 48
00000100
00001000
00000010
00010000
00001000
00100000
01000000
00100000
,  // measure 49
00010000
01000000
00100000
01000000
00001000
00010000
00001000
00000100
,  // measure 50
00001000
00100000
00010000
00100000
01000000
00010000
00001000
00010000
,  // measure 51
00001000
00100000
00001000
00000100
00000010
00000100
00000001
00001000
,  // measure 52
00000100
00010000
00001000
00010000
00100000
00010000
00001000
01000000
,  // measure 53
00100000
01000000
00010000
00100000
01000000
00001000
01000000
00100000
,  // measure 54
00001000
00000010
00001000
00010000
00000100
00000010
00000001
00001000
,  // measure 55
00000100
00010000
00001000
00000010
00001000
00010000
00001000
01000000
,  // measure 56
00100000
00000000
10000000
00000000
01000000
00000000
00100000
00000000
00010000
10000000
00010000
10000000
01000000
10000000
01000000
10000000
,  // measure 57
02000000
00000000
00000000
00000000
00000000
00000000
00100000
03200000
00000000
00000000
00302000
00000000
00000000
00000000
00010000
00023000
,  // measure 58
00000000
00000000
00000000
00000000
00000000
00000000
00000010
00030020
00000000
00000000
00000000
00000000
00000000
00000130
00000001
00000200
,  // measure 59
00000000
00000000
00000000
00000000
00000000
00000000
00000010
00000320
00000000
00000000
00020030
00000000
00000000
00000000
00001000
00002000
,  // measure 60
00000000
00000000
00000000
00000000
,  // measure 61
00033000
00000000
00000000
00000000
;

//---------------dance-double - ----------------
#NOTES:
     dance-double:
     :
     Challenge:
     11:
     0.784,1.000,0.918,0.787,0.620,433.000,105.000,90.000,0.000,2.000,0.000,0.784,1.000,0.918,0.787,0.620,433.000,105.000,90.000,0.000,2.000,0.000: // measure 1
00000000
00000000
00000000
00000000
,  // measure 2
00000000
00000000
00000000
00000000
,  // measure 3
00000000
00000000
00000000
00000000
,  // measure 4
00000000
00000000
00000000
00000000
,  // measure 5
00000000
00000000
00000000
00000000
,  // measure 6
00000000
00000000
00000000
00000000
,  // measure 7
00000000
00000000
00000000
00000000
,  // measure 8
00000000
00000000
00000000
00000000
,  // measure 9
00022000
00000000
00033000
02002000
00000000
03003000
02020000
00000000
03030000
02200000
00000000
03300000
20200000
30300000
22000000
33000000
,  // measure 10
02200000
00000000
03300000
00202000
00303000
00200000
00302000
00020000
00000000
00033000
00020020
00030030
00000020
00002000
00000000
00003030
,  // measure 11
00000220
00000000
00000330
00000202
00000000
00000303
00002002
00000000
00003003
00002200
00000000
00003300
00000200
00020000
00000000
00030300
,  // measure 12
00022000
00000000
00033000
00202000
00000000
00303000
02200000
00000000
03300000
22000000
00000000
33000000
20020000
30030000
02020000
03030000
,  // measure 13
02002000
00000000
03003000
00022000
00000000
00033000
00020020
00000000
00030030
00000220
00000000
00000330
00000202
00000000
00000303
00000002
,  // measure 14
00000020
00000000
00000033
00000220
00000000
00000330
00000200
00002000
00000000
00003300
00002020
00003030
00002000
00000020
00000000
00003030
,  // measure 15
00002020
00000000
00003030
00020020
00000000
00030030
00022000
00000000
00033000
00202000
00000000
00303000
00200000
02000000
00000000
03300000
,  // measure 16
20000000
00000000
00000000
02000000
00000000
00000000
00010000
00000000
00000000
00000000
00000000
00000000
00000000
00000000
33000000
00000000
,  // measure 17
11000000
01000000
00100000
00010000
00000000
00100000
00001000
00010000
00000000
00001000
00010000
00000100
00000000
00001000
00000100
00000010
,  // measure 18
00000100
00000000
00001000
00000000
00000001
00000000
00000100
00000000
00000000
00000000
00000010
00000000
00001000
00000000
00000100
00000000
00000000
00000000
00010000
00000000
00001000
00000000
00100000
00000000
00010000
00100000
00001000
00100000
00010000
00000000
00100000
00000000
,  // measure 19
01000000
10000000
00010000
01000000
00000000
00010000
01000000
00100000
00000000
10000000
00100000
01000000
00000000
00100000
01000000
00001000
,  // measure 20
00010000
00000000
00001000
00000000
00000000
00000000
00010000
00000000
00001000
00000000
00000000
00000000
00010000
00000000
00000100
00000000
00000010
00000000
00000100
00000000
00000000
00000000
00001000
00000000
00000001
00000100
00000001
00000100
00000010
00000000
00001000
00000000
,  // measure 21
00001100
00000100
00000010
00000100
00000000
00010000
00000100
00010000
00000000
00001000
01000000
00010000
00000000
01000000
00100000
10000000
,  // measure 22
00010000
00000000
01000000
00000000
00010000
00000000
00100000
00000000
00000000
00000000
01000000
00000000
10000000
00000000
01000000
00000000
00000000
00000000
00100000
00000000
00001000
00000000
00010000
00000000
00000100
00010000
00001000
00010000
00000100
00000000
00001000
00000000
,  // measure 23
00000100
00001000
00000001
00001000
00000000
00000010
00001000
00000010
00000000
00001000
00000010
00000100
00000000
00000001
00000100
00000010
,  // measure 24
00000100
00000001
00001000
00000001
00000000
00001000
00000100
00001000
00000000
00000010
00001000
00000010
00020000
00000000
00032000
00000000
,  // measure 25
01003000
00000000
01010000
00000000
00010000
10010000
10100000
00000000
,  // measure 26
10000000
00000000
00000000
00000000
11000000
00000000
00000000
01000000
00100000
00000000
00110000
00000000
00101000
00000000
00000000
00000000
,  // measure 27
00001000
00000000
00010100
00000000
00010000
00010100
00000110
00000000
,  // measure 28
00000010
00000000
00000000
00000000
00000011
00000000
00000000
00000001
00001000
00000000
00001100
00000000
00010100
00000000
00000000
00000000
,  // measure 29
00010000
00000000
00011000
00000000
00001000
00101000
00110000
00000000
,  // measure 30
00100000
00000000
00000000
00000000
11000000
00000000
00000000
10000000
01000000
00000000
01100000
00000000
00101000
00000000
00000000
00000000
,  // measure 31
00100000
00000000
00100010
00000000
00000010
00010010
00001010
00000000
,  // measure 32
00000010
00000000
00000000
00000000
00000110
00000000
00000000
00000010
00000100
00000001
00000100
00000001
00001000
00000001
00001000
00000100
,  // measure 33
00001000
00000000
00001100
00000000
00000100
00000011
00001001
00000000
,  // measure 34
00001000
00000000
00000000
00000000
00010100
00000000
00000000
00000100
00010000
00000000
00011000
00000000
01001000
00000000
00000000
00000000
,  // measure 35
01000000
00000000
10100000
00000000
00100000
01100000
01001000
00000000
,  // measure 36
00001000
00000000
00000000
00000000
00101000
00000000
00000000
00100000
01000000
00000000
11000000
00000000
01100000
00000000
00000000
00000000
,  // measure 37
00100000
00000000
00101000
00000000
00001000
00011000
00010010
00000000
,  // measure 38
00000010
00000000
00000000
00000000
00000110
00000000
00000000
00000100
00000010
00000000
00001010
00000000
00010010
00000000
00000000
00000000
,  // measure 39
00010000
00000000
00011000
00000000
00001000
00011000
00010100
00000000
,  // measure 40
00000100
00000000
00000000
00000000
00000110
00000000
00000000
00000010
00000001
00001000
00000001
00001000
00000100
00010000
00000100
00010000
,  // measure 41
00001000
00000000
01000000
00000000
01010000
00000000
00010000
01000000
00100000
00000000
10000000
00000000
10100000
00000000
00100000
00000000
,  // measure 42
10000000
00000000
00010000
00000000
00110000
00000000
00100000
00001000
00010000
00001000
00100000
00000000
00101000
00000000
00001000
00000000
,  // measure 43
00010000
00000000
00000100
00000000
00001100
00000000
00001000
00000001
00001000
00000000
00000001
00000000
00000011
00000000
00000010
00000000
,  // measure 44
00000100
00000000
00010000
00000000
00010100
00000000
00000100
00010000
00001000
00100000
00010000
00100000
01000000
00000000
10000000
00000000
,  // measure 45
01000000
00000000
00100000
00000000
00110000
00000000
00010000
00100000
00010000
00000000
10000000
00000000
10100000
00000000
00100000
00000000
,  // measure 46
01000000
00000000
00010000
00000000
10010000
00000000
10000000
00100000
10000000
00010000
01000000
00000000
01010000
00000000
00010000
00000000
,  // measure 47
01000000
00000000
00001000
00000000
00011000
00000000
00010000
00000100
00001000
00000000
00000100
00000000
00000110
00000000
00000010
00000000
,  // measure 48
00000001
00000000
00001000
00000000
00001100
00000000
00000100
00000010
00000001
00000010
00000100
00001000
00000100
00010000
00000100
00010000
,  // measure 49
00001000
00000000
00010000
00000000
00010010
00000000
00000010
00000100
00000001
00000000
00001000
00000000
00001100
00000000
00000100
00000000
,  // measure 50
00010000
00000000
00000100
00000000
00010100
00000000
00010000
00001000
01000000
00100000
01000000
00000000
01010000
00000000
00010000
00000000
,  // measure 51
10000000
00000000
00100000
00000000
10100000
00000000
10000000
00010000
01000000
00000000
00010000
00000000
10010000
00000000
10000000
00000000
,  // measure 52
01000000
00000000
00100000
00000000
00101000
00000000
00001000
00100000
00001000
00010000
00000100
00010000
00001000
00000000
00010000
00000000
,  // measure 53
00000010
00000000
00001000
00000000
00001010
00000000
00000010
00000100
00000001
00000000
00000100
00000000
00000101
00000000
00000001
00000000
,  // measure 54
00001000
00000000
00000100
00000000
00010100
00000000
00010000
00000010
00001000
00000010
00000100
00000000
00000110
00000000
00000010
00000000
,  // measure 55
00001000
00000000
00000100
00000000
00010100
00000000
00010000
00001000
00100000
00000000
00010000
00000000
00110000
00000000
00100000
00000000
,  // measure 56
01000000
00000000
10000000
00000000
10010000
00000000
00010000
00000000
01000000
00010000
10000000
00010000
00100000
00010000
00100000
00001000
,  // measure 57
00021000
00000000
00000000
00000000
00000000
00000000
00001000
00032000
00000000
00000000
00003200
00000000
00000000
00000000
00000010
00000320
,  // measure 58
00000000
00000000
00000000
00000000
00000000
00000000
00010000
00020030
00000000
00000000
00000000
00000000
00000000
00031000
00010000
02000000
,  // measure 59
00000000
00000000
00000000
00000000
00000000
00000000
00100000
03200000
00000000
00000000
00302000
00000000
00000000
00000000
02003000
00000200
,  // measure 60
00000000
00000000
00020000
00000000
,  // measure 61
03030300
00000000
00000000
00000000
;
