#TITLE:8 -eight-;
#SUBTITLE:;
#ARTIST:Tom-H@ck feat.Nadia;
#TITLETRANSLIT:;
#SUBTITLETRANSLIT:;
#ARTISTTRANSLIT:;
#GENRE:;
#CREDIT:;
#BANNER:;
#BACKGROUND:;
#LYRICSPATH:;
#CDTITLE:;
#MUSIC:[Round 1 Doubles] - 8 -eight-.mp3;
#OFFSET:0.159;
#SAMPLESTART:44.183;
#SAMPLELENGTH:12.000;
#SELECTABLE:YES;
#BPMS:0.000=230.000
;
#STOPS:
;
#BGCHANGES:;
#KEYSOUNDS:;
#ATTACKS:;

//---------------dance-double - ----------------
#NOTES:
     dance-double:
     :
     Easy:
     5:
     0.379,0.456,0.028,0.161,0.028,261.000,3.000,17.000,0.000,0.000,0.000,0.379,0.456,0.028,0.161,0.028,261.000,3.000,17.000,0.000,0.000,0.000:
00000000
00000000
00000000
00000000
,
00000000
00000000
00000000
00000000
,
00000000
00000000
00000000
00000000
,
00000000
00000000
00000000
00000000
,
00000000
00000000
00000000
00000000
,
00000000
00000000
00000000
00000000
,
00000000
00000000
00000000
00000000
,
00000000
00000000
00000000
00000000
,
00000000
00000000
00000000
00000000
,
01000000
01000000
00100000
00100000
,
00010000
00001000
00002000
00003000
,
00000100
00000100
00000010
00000010
,
00001000
00010000
00020000
00030000
,
01000000
10000000
01000000
10000000
,
00100000
00010000
00020000
00030000
,
00000100
00001000
00000100
00001000
,
00000010
00000001
00000010
00000001
,
00000100
00001000
00010000
00000000
,
01000000
00010000
00001000
00000000
,
00000010
00000100
00001000
00000001
,
00000010
00001000
00000100
00000001
,
00001000
00000000
00000001
00000000
,
00000100
00000100
00001000
00001000
,
00010000
00000000
00100000
00000000
,
10000000
00010000
00010000
00000000
,
01000000
00010000
00001000
00000000
,
00000100
00001000
00010000
00000000
,
00100000
01000000
00010000
10000000
,
00100000
00010000
01000000
10000000
,
00010000
00000000
10000000
00000000
,
01000000
01000000
00010000
00010000
,
00001000
00000000
00000010
00000000
,
00000001
00001000
00001000
00000000
,
00000010
00000000
00000100
00000000
,
00000100
00000000
00000010
00000000
,
00001000
00000000
00000100
00000000
,
00010000
00000000
01000000
00000000
,
00100000
00000000
01000000
00000000
,
01000000
00000000
00100000
00000000
,
10000000
10000000
10000000
00000000
,
00010000
00010000
00010000
00000000
,
00002000
00000000
00000000
00000000
,
00003000
00000000
00000100
00000000
,
00001000
00000001
00000010
00001000
,
00000010
00000001
00000100
00000000
,
00001000
00000100
00000001
00000100
,
00001000
00000000
00000000
00000000
00000000
00020000
00000000
00000000
00000000
00030000
00000000
00000000
,
00100000
00100000
01000000
01000000
,
00010000
10000000
01000000
00000000
,
00010000
01000000
10000000
00100000
,
00010000
00001000
00001000
00000000
,
00000110
00000100
00000001
00000010
,
00001000
00010000
00000100
00000000
,
00000010
00000100
00001000
00000001
,
00000100
00000000
00000000
00000000
00000000
00000020
00000000
00000000
00000000
00000030
00000000
00000000
,
00000100
00000000
00000100
00000000
,
01000000
00000000
01000000
00000000
,
00001000
00000000
00001000
00000000
,
00010000
00000000
00010000
00001000
,
00010000
10000000
00100000
00010000
,
00100000
10000000
01000000
00000000
,
00010000
01000000
10000000
01000000
,
00010000
00000000
00000000
00000000
00000000
00002000
00000000
00000000
00000000
00003000
00000000
00000000
,
00000010
00000010
00000100
00000100
,
00001000
00000001
00000100
00000000
,
00001000
00000100
00000001
00000010
,
00001000
00010000
00010000
00000000
,
01100000
01000000
10000000
00100000
,
00010000
00001000
01000000
00000000
,
00100000
01000000
00010000
10000000
,
01000000
00000000
00000000
00000000
00000000
00200000
00000000
00000000
00000000
00300000
00000000
00000000
,
01000000
00000000
01000000
00000000
,
00000100
00000000
00000100
00000000
,
00010000
00000000
00010000
00000000
,
00001000
00000000
00000000
00000000
00000000
00000000
00001000
00000000
00000000
00010000
00000000
00200000
,
00000000
00000000
00000000
00000000
,
00300000
00000000
00000000
00000000
,
00000000
00000000
00000000
00000000
,
00000000
00000000
00001000
00010000
,
00001000
00001000
00000100
00000100
,
00000001
00000010
00002000
00003000
,
00010000
00010000
01000000
01000000
,
10000000
00100000
00020000
00030000
,
00000010
00001000
00000010
00001000
,
00000001
00000010
00000200
00000300
,
00010000
00001000
00100000
00010000
,
10000000
01000000
00010000
00100000
,
10000000
10000000
00010000
00010000
,
00001000
00001000
00010000
00010000
,
10000000
10000000
00010000
00010000
,
00001000
00001000
00000002
00000000
,
00000013
00000100
00000010
00000100
,
00000010
00000001
00000200
00000300
,
00001000
00010000
00001000
00010000
,
00100000
10000000
01000000
00010000
,
00200000
00000000
00000000
00000000
00000000
00000000
00000000
00000000
00000000
00300000
00000000
20020000
,
00000000
00000000
30030000
00000000
;

//---------------dance-double - ----------------
#NOTES:
     dance-double:
     :
     Medium:
     7:
     0.474,0.592,0.151,0.340,0.302,299.000,16.000,36.000,0.000,0.000,0.000,0.474,0.592,0.151,0.340,0.302,299.000,16.000,36.000,0.000,0.000,0.000:
00000000
00000000
00000000
00000000
,
00000000
00000000
00000000
00000000
,
00000000
00000000
00000000
00000000
,
00000000
00000000
00000000
00000000
,
00000000
00000000
00000000
00000000
,
00000000
00000000
00000000
00000000
,
00000000
00000000
00000000
00000000
,
00000000
00000000
00000000
00000000
,
00000000
00000000
00000000
00000000
,
00001000
00000000
00001000
00000100
00000000
00000000
00000010
00000000
00000010
00000001
00000000
00000000
,
00000100
00000000
00000100
00000010
00000000
00000000
00000020
00000000
00000000
00000030
00000000
00000000
,
00000001
00000000
00000001
00001000
00000000
00000000
00000100
00000000
00000100
00010000
00000000
00000000
,
00001000
00000000
00001000
00100000
00000000
00000000
00020000
00000000
00000000
00030000
00000000
00000000
,
10000000
00000000
10000000
01000000
00000000
00000000
00100000
00000000
00100000
00010000
00000000
00000000
,
01000000
00000000
01000000
00100000
00000000
00000000
00200000
00000000
00000000
00300000
00000000
00000000
,
10000000
00000000
10000000
01000000
00000000
00000000
00100000
00000000
00100000
00001000
00000000
00000000
,
00010000
00000000
00010000
00000100
00000000
00000000
00000010
00000000
00000010
00000001
00000000
00002000
,
00000000
00000000
00000000
00003100
00000000
00000000
00000010
00000000
00000000
00000000
00000000
00000002
,
00000000
00000000
00000000
00000103
00000000
00000000
00000010
00000000
00000000
00000000
00000000
00002000
,
00000000
00003100
00010000
00001000
,
00100000
00010000
10000000
01000000
,
00010000
00001000
00000100
00000001
,
00000010
00001000
00010000
00100000
,
10000000
01000000
10000000
00100000
,
00010000
00000000
00000000
00001000
00000000
00000000
01000000
00000000
00000000
00000000
00000000
00020000
,
00000000
00000000
00000000
01030000
00000000
00000000
00100000
00000000
00000000
00000000
00000000
20000000
,
00000000
00000000
00000000
31000000
00000000
00000000
00100000
00000000
00000000
00000000
00000000
00020000
,
00000000
01030000
00001000
00010000
,
00000010
00001000
00000001
00000100
,
00001000
00010000
01000000
10000000
,
00100000
00010000
00001000
00000010
,
00000001
00000100
00000001
00000010
,
00001000
00010000
00000100
00000000
,
00010000
00000000
00100000
00000000
,
10000000
01000000
00010000
00000000
,
00001000
00000000
00000010
00000000
,
00000001
00000100
00001000
00000000
,
00010000
00000000
00100000
00000000
,
01000000
00010000
10000000
00000000
,
01000000
00010000
00001000
00000000
,
00000010
00000000
00000000
00001000
00000000
00000000
00010000
00000000
00000000
00000000
00000000
00022000
,
00000000
00000000
00000000
00000000
,
00033000
00000000
00000000
00000000
00000000
00000000
00000100
00000000
00000000
00000000
00000000
00001001
,
00000000
00001000
00000100
00000001
,
00000010
00000000
00000000
00000000
00000000
00001000
00000000
00000000
00000001
00000000
00000000
00000110
,
00000000
00000010
00001000
00010000
,
01000000
00000000
00000000
00000000
00000000
00200000
00000000
00000000
00000000
00000000
00000000
00000000
,
00310000
00000000
00010000
01000000
00000000
00000000
10000000
00000000
00000000
10000000
00000000
00000000
,
00100000
00000000
00000000
00000000
00000000
01000000
00000000
00000000
00000000
00000000
00000000
00000000
,
00100000
01000000
00010000
00001000
,
00000010
00000000
00000000
00000100
00000000
00001000
00000000
00000000
00000000
00000000
00000000
00110000
,
00000000
00010000
00100000
10000000
,
01000000
00000000
00000000
00000000
00000000
00010000
00000000
00000000
10000000
00000000
00000000
01100000
,
00000000
01000000
00010000
00001000
,
00000100
00000000
00000000
00000000
00000000
00000020
00000000
00000000
00000000
00000000
00000000
00000000
,
00001030
00000000
00000000
00010000
00000000
00000000
00000000
00000000
10000000
00000000
00000000
00000000
,
00010000
00000000
00000000
00000000
00000000
00001000
00000000
00000000
00000000
00000001
00000000
00000000
,
00000020
00000030
00002000
00003000
,
00020000
00000000
00000000
00030000
00000000
00000000
01000000
00000000
00000000
00000000
00000000
10010000
,
00000000
00010000
01000000
10000000
,
00100000
00000000
00000000
00000000
00000000
00010000
00000000
00000000
10000000
00000000
00000000
01100000
,
00000000
00100000
00010000
00001000
,
00000100
00000000
00000000
00000000
00000000
00000020
00000000
00000000
00000000
00000000
00000000
00000000
,
00001030
00000000
00001000
00000100
00000000
00000000
00000001
00000000
00000000
00000001
00000000
00000000
,
00000010
00000000
00000000
00000000
00000000
00000100
00000000
00000000
00000000
00000000
00000000
00000000
,
00000010
00000100
00001000
00010000
,
00100000
00000000
00000000
01000000
00000000
00010000
00000000
00000000
00000000
00000000
00000000
00001010
,
00000000
00001000
00000010
00000001
,
00000100
00000000
00000000
00000000
00000000
00001000
00000000
00000000
00000001
00000000
00000000
00000110
,
00000000
00000100
00001000
00010000
,
01000000
00000000
00000000
00000000
00000000
00200000
00000000
00000000
00000000
00000000
00000000
00000000
,
00310000
00000000
00000000
00001000
00000000
00000000
00000000
00000000
00000001
00000000
00000000
00000000
,
00001000
00000000
00000000
00000000
00000000
00010000
00000000
00000000
00000000
10000000
00000000
00000000
,
00200000
00300000
00020000
00030000
,
00002000
00000000
00000000
00003000
00000000
00000000
00000100
00000000
00000000
00000000
00000000
00002002
,
00000000
00000000
00000000
00000000
,
00003003
00000000
00000000
00000000
,
00000000
00000000
00000000
00000000
,
00000000
00000000
00000020
00000000
00000000
00000000
00001030
00000000
00000000
00010000
00000000
00000000
,
00011000
00100000
01000000
00100000
,
00010000
00000000
00010000
10000000
00000000
00000000
20020000
00000000
00000000
30030000
00000000
00000000
,
01000000
00100000
10000000
00100000
,
00010000
00000000
00010000
00001000
00000000
00000000
00022000
00000000
00000000
00033000
00000000
00000000
,
00011000
00000010
00000100
00000010
,
00001000
00000000
00001000
00000001
00000000
00000000
00002002
00000000
00000000
00003003
00000000
00000000
,
00000001
00000000
00000001
00001000
00000000
00000000
00000010
00000000
00000010
00010000
00000000
00000000
,
00001000
00000000
00001000
01000000
00000000
00000000
00010000
00000000
00010000
10000000
00000000
00000000
,
01000000
00100000
01000000
00100000
,
00010000
00001000
00010000
00001000
,
00000100
00000010
00000100
00000010
,
00000001
00000010
00002000
00000000
,
00013000
00100000
10000000
00010000
,
00200000
01000000
02000000
03300000
,
10000000
00000000
01000000
00100000
00000000
00000000
01000000
00000000
00100000
00010000
00000000
00000000
,
00001000
00000000
00000100
00000010
00000000
00000000
00000100
00000000
00000010
00000001
00000000
00000000
,
00002000
00000000
00000000
00000000
00000000
00000000
00000000
00000000
00000000
00003000
00000000
00000220
,
00000000
00000000
00000330
00000000
;

//---------------dance-double - ----------------
#NOTES:
     dance-double:
     :
     Hard:
     9:
     0.791,0.775,0.633,0.510,0.949,465.000,67.000,54.000,0.000,0.000,0.000,0.791,0.775,0.633,0.510,0.949,465.000,67.000,54.000,0.000,0.000,0.000: // measure 0
00000000
00000000
00000000
00000000
,  // measure 1
00000000
00000000
00000000
00000000
,  // measure 2
00000000
00000000
00000000
00000000
,  // measure 3
00000000
00000000
00000000
00000000
,  // measure 4
00000000
00000000
00000000
00000000
,  // measure 5
00000000
00000000
00000000
00000000
,  // measure 6
00000000
00000000
00000000
00000000
,  // measure 7
00000000
00000000
00000000
00000000
,  // measure 8
00000000
00000000
00000000
00000000
,  // measure 9
00100000
00000000
00100000
00010000
00000000
00010000
01000000
00000000
01000000
10000000
00000000
10000000
,  // measure 10
00100000
00000000
00100000
00010000
00000000
00000000
00101000
00000000
00000000
00011000
00000000
00000000
,  // measure 11
00000010
00000000
00000010
00001000
00000000
00001000
00000100
00000000
00000100
00000001
00000000
00000001
,  // measure 12
00000010
00000000
00000010
00001000
00000000
00000000
00010010
00000000
00000000
00011000
00000000
00000000
,  // measure 13
00001000
00000000
00001000
00010000
00000000
00010000
00100000
00000000
00100000
01000000
00000000
01000000
,  // measure 14
10000000
00000000
10000000
00010000
00000000
00000000
00110000
00000000
00000000
10100000
00000000
00000000
,  // measure 15
10000000
00000000
01000000
10000000
00000000
01000000
10000000
00000000
00010000
00100000
00000000
00001000
,  // measure 16
00010000
00000000
00001000
00010000
00000000
00000010
00001000
00000000
00000010
00001000
00000000
00000201
,  // measure 17
00000000
00000000
00000301
00000100
00000000
00000000
00001001
00000000
00000000
00000000
00000000
00020010
,  // measure 18
00000000
00000000
00031000
00010000
00000000
00000000
00011000
00000000
00000000
00000000
00000000
00010200
,  // measure 19
00000000
00000000
00001300
00000100
00000000
00000000
00000010
00000000
00000000
00000010
00000000
00000000
,  // measure 20
00000001
00001010
00000001
00001100
,  // measure 21
00000001
00000000
00001000
00000010
00000000
00000001
00000010
00000000
00001000
00000100
00000000
00000001
,  // measure 22
00000100
00000000
00001000
00000010
00000000
00010000
00001000
00000000
00000100
00001000
00000000
00010000
,  // measure 23
00001000
00000000
01000000
00010000
00000000
10000000
00100000
00000000
00010000
00100000
00000000
10000000
,  // measure 24
01000000
00000000
00010000
01000000
00000000
10000000
00010000
00000000
00100000
00010000
00000000
12000000
,  // measure 25
00000000
00000000
13000000
01000000
00000000
00000000
10010000
00000000
00000000
00000000
00000000
00102000
,  // measure 26
00000000
00000000
00013000
00001000
00000000
00000000
00011000
00000000
00000000
00000000
00000000
02001000
,  // measure 27
00000000
00000000
03010000
01000000
00000000
00000000
00100000
00000000
00000000
00100000
00000000
00000000
,  // measure 28
10000000
00110000
10000000
01010000
,  // measure 29
10000000
00000000
00010000
00100000
00000000
10000000
00100000
00000000
00010000
01000000
00000000
10000000
,  // measure 30
01000000
00000000
00010000
00100000
00000000
00001000
00010000
00000000
01000000
00010000
00000000
00001000
,  // measure 31
00010000
00000000
00000100
00001000
00000000
00000001
00000010
00000000
00001000
00000010
00000000
00000001
,  // measure 32
00000100
00000000
00001000
00000100
00000000
00000001
00002000
00000000
00000000
00003002
00000000
00000000
,  // measure 33
00000103
00000000
00000001
00000000
00000000
00000100
00000010
00000000
00000000
00000100
00000000
00001000
,  // measure 34
00000000
00000000
00010000
00001000
00000000
00001000
02000000
00000000
00000000
03000000
00000000
00000000
,  // measure 35
00100000
00000000
10000000
00000000
00000000
00010000
10000000
00000000
00000000
01000000
00000000
10000000
,  // measure 36
00000000
00000000
00010000
00100000
00000000
00001000
00020000
00000000
00000000
00030000
00000000
00000000
,  // measure 37
00100000
00000000
10000000
00000000
00000000
00100000
01000000
00000000
00000000
00100000
00000000
00010000
,  // measure 38
00000000
00000000
00001000
00010000
00000000
00010000
00000010
00000000
00001000
00000000
00000000
00000100
,  // measure 39
00001100
00000000
00000000
00000101
00000000
00000000
00001100
00000000
00000000
00001000
00000000
00000001
,  // measure 40
00000000
00000000
00000001
00000100
00000000
00000000
00000010
00000000
00000000
00001000
00000000
00020000
,  // measure 41
00000000
00000000
02000000
03000000
,  // measure 42
20030000
00000000
00000000
00000000
00000000
00000000
30010000
00000000
10000000
01000000
00000000
02100000
,  // measure 43
00000000
00000000
03100000
00010000
00000000
00000000
10100000
00000000
00000000
00110000
00000000
00000000
,  // measure 44
10000000
00000000
00100000
10000000
00000000
00010000
00000000
00000000
01010000
00000000
00000000
01002000
,  // measure 45
00000000
00000000
00013000
00001000
00000000
00000000
00000100
00000000
00000000
00000001
00000000
00000000
,  // measure 46
00000220
00000000
00000000
00000330
00000000
00002002
00000000
00000000
00000000
00003003
00000000
00000000
,  // measure 47
00000001
00000000
00000001
00000010
00000000
00000010
00001000
00000000
00001000
00010000
00000000
00010000
,  // measure 48
01000000
00000000
01000000
00100000
00000000
00020000
00000000
00000000
00000000
00030000
00000000
00000000
,  // measure 49
10000000
00000000
01000000
00010000
00000000
00001000
00000010
00000000
00000001
00000100
00000000
00001000
,  // measure 50
00010000
00000000
00100000
10000000
00000000
00020000
00000000
00000000
00000000
00030000
00000000
02200000
,  // measure 51
00000000
00000000
03300000
10000000
00000000
00000000
00010000
00000000
00010000
01000000
00000000
00000000
,  // measure 52
00100000
00000000
10000000
01000000
00000000
00100000
00000000
00000000
00101000
00000000
00000000
00010020
,  // measure 53
00000000
00000000
00001030
00000010
00000000
00000010
00001000
00000000
00001000
00000100
00000000
00000000
,  // measure 54
00000022
00000000
00000000
00000033
00000000
00002002
00000000
00000000
00000000
00003003
00000000
00000000
,  // measure 55
00000010
00000000
00000000
00001100
00000000
00000000
00000000
00000000
01010000
00000000
00000000
00000000
,  // measure 56
00100000
00000000
00010000
00000000
00000000
00001010
00000000
00000000
00000010
00000100
00000000
00000000
,  // measure 57
00000002
00000013
00002000
00003010
,  // measure 58
00000002
00000000
00000000
00000103
00000000
00000000
00001000
00000000
00000001
00000100
00000000
00000210
,  // measure 59
00000000
00000000
00000310
00001000
00000000
00000000
00000011
00000000
00000000
00001010
00000000
00000000
,  // measure 60
00000001
00000000
00000010
00000001
00000000
00001000
00000000
00000000
00001100
00000000
00000000
00020100
,  // measure 61
00000000
00000000
00031000
00010000
00000000
00000000
01000000
00000000
00000000
10000000
00000000
00000000
,  // measure 62
02200000
00000000
00000000
03300000
00000000
20020000
00000000
00000000
00000000
30030000
00000000
00000000
,  // measure 63
10000000
00000000
10000000
00100000
00000000
00100000
00010000
00000000
00010000
00001000
00000000
00001000
,  // measure 64
00000100
00000000
00000100
00000010
00000000
00002000
00000000
00000000
00000000
00003000
00000000
00000000
,  // measure 65
00000001
00000000
00000100
00001000
00000000
00010000
00100000
00000000
10000000
01000000
00000000
00010000
,  // measure 66
00001000
00000000
00000010
00000001
00000000
00002000
00000000
00000000
00000000
00003000
00000000
00000220
,  // measure 67
00000000
00000000
00000330
00000001
00000000
00000000
00001000
00000000
00001000
00000100
00000000
00000000
,  // measure 68
00000010
00000000
00000001
00000100
00000000
00000010
00000000
00000000
00010010
00000000
00000000
00201000
,  // measure 69
00000000
00000000
00310000
00100000
00000000
00100000
00010000
00000000
00010000
01000000
00000000
00000000
,  // measure 70
20200000
00000000
00000000
30300000
00000000
20020000
00000000
00000000
00000000
30030000
00000000
00000000
,  // measure 71
00100000
00000000
00000000
01010000
00000000
00000000
00000000
00000000
00001100
00000000
00000000
00000000
,  // measure 72
00000010
00000000
00001000
00000000
00000000
00110000
00000000
00000000
00100000
01000000
00000000
00000000
,  // measure 73
20000000
30100000
00020000
00130000
,  // measure 74
20000000
00000000
00000000
31000000
00000000
00000000
00010000
00000000
10000000
01000000
00000000
00200000
,  // measure 75
00000000
00000000
00000000
00000000
,  // measure 76
00301000
00000000
00000000
00000000
,  // measure 77
00000000
00000000
00000000
00000000
,  // measure 78
00000000
00000000
00010000
00001000
00000000
00000000
00010100
00000000
00000000
00001001
00000000
00000000
,  // measure 79
00000110
00000000
00000000
00000010
00000000
00000000
00000100
00000000
00000100
00000001
00000000
00000000
,  // measure 80
00000010
00000000
00000010
00001000
00000000
00000000
00010100
00000000
00000000
00101000
00000000
00000000
,  // measure 81
00010000
00000000
00000000
01000000
00000000
00000000
00100000
00000000
00100000
10000000
00000000
00000000
,  // measure 82
01000000
00000000
01000000
00010000
00000000
00000000
00101000
00000000
00000000
00010100
00000000
00000000
,  // measure 83
00001000
00000000
00001000
00000010
00000000
00000010
00000100
00000000
00000100
00000001
00000000
00000001
,  // measure 84
00001000
00000000
00001000
00000100
00000000
00000000
00000110
00000000
00000000
00001001
00000000
00000000
,  // measure 85
00000010
00000000
00010000
00001000
00000000
00010000
00000100
00000000
00010000
00001000
00000000
00001000
,  // measure 86
01000000
00000000
00001000
00010000
00000000
00001000
00100000
00000000
00000000
01100000
00000000
00000000
,  // measure 87
00010000
00000000
00010000
01000000
00000000
01000000
10000000
00000000
10000000
00100000
00000000
00100000
,  // measure 88
00010000
00000000
00010000
00001000
00000000
00001000
00000100
00000000
00000100
00000001
00000000
00000001
,  // measure 89
00000010
00000000
00000010
00001000
00000000
00001000
00010000
00000000
00010000
01000000
00000000
01000000
,  // measure 90
10000000
00000000
10000000
00100000
00000000
00000000
00120000
00000000
00000000
00000000
00000000
00000000
,  // measure 91
10030000
00000000
10000000
01000000
00000000
01000000
00010000
00000000
00010000
00100000
00000000
00100000
,  // measure 92
00001000
00000000
00001000
00010000
00000000
00000000
00011000
00000000
00000000
01001000
00000000
00000000
,  // measure 93
00010000
00100000
00010000
10000000
00000000
10000000
00100000
00000000
00100000
01000000
00000000
01000000
,  // measure 94
00001000
00000000
00001000
00010000
00000000
00010000
00001000
00010000
00000010
00001000
00000100
00000010
,  // measure 95
00000002
00000000
00000000
00000000
00000000
00000000
00000000
00000000
00000000
00000003
00000000
00020200
,  // measure 96
00000000
00000000
00030300
00000000
;
