#TITLE:SuperNova;
#SUBTITLE:;
#ARTIST:cranky;
#TITLETRANSLIT:;
#SUBTITLETRANSLIT:;
#ARTISTTRANSLIT:;
#GENRE:;
#CREDIT:;
#BANNER:[Qualifier Singles] - SuperNova_bn.png;
#BACKGROUND:[Qualifier Singles] - SuperNova_bg.png;
#LYRICSPATH:;
#CDTITLE:;
#MUSIC:[Qualifier Singles] - SuperNova.mp3;
#OFFSET:1.135;
#SAMPLESTART:21.220;
#SAMPLELENGTH:12.000;
#SELECTABLE:YES;
#BPMS:0.000=165.000;
#STOPS:;
#BGCHANGES:;
#KEYSOUNDS:;

//---------------dance-single - ----------------
#NOTES:
     dance-single:
     :
     Challenge:
     11:
     0.978,1.000,0.676,0.197,1.000:
0000
0000
0000
0000
0000
0000
0000
0000
0000
0000
0000
0000
0000
0000
0000
0000
0000
0000
0000
0000
0000
0001
0010
0100
,
1000
0000
0000
0000
,
0000
0000
0000
0000
,
000M
0000
0M00
0000
,
00M0
00M0
00M0
00M0
,
00M0
0000
0000
0000
00M0
M000
000M
0M00
00M0
0000
0000
0000
00M0
0M00
00M0
0M00
,
10M1
1100
1001
0101
,
0011
0000
0000
0000
1000
0000
0000
0000
0101
0000
0000
0001
0100
0000
0010
0000
,
1010
0000
0000
0000
0001
0000
0000
0000
1100
0000
0000
0010
0001
0000
1001
0000
,
0100
0000
0000
0001
1000
0000
1000
0000
0100
0000
0000
0010
0100
0000
0010
0000
,
0001
0000
0000
0000
0000
0000
0100
0000
0000
1000
0000
0000
0100
0000
0000
0000
0000
0000
0001
0000
0000
0000
0000
0000
0010
0000
0000
0000
0000
0000
0100
0000
0000
1000
0000
0000
0001
0000
0100
0000
0001
0000
0100
0000
0000
0010
0000
0000
,
1000
0000
0000
0000
0110
0000
0000
0000
1001
0000
0000
0001
0010
0000
0100
0000
,
0110
0000
0000
0000
1001
0000
0000
0000
0001
0000
0000
0100
0010
0000
1000
0000
,
0010
0000
0000
1000
0000
0000
0000
0000
0000
0001
0000
0000
0010
0000
0000
0001
0000
0000
1000
0000
0000
0010
0000
0000
0100
0000
0000
0001
0000
0000
0000
0000
0000
0100
0000
0000
0001
0000
0010
0000
0001
0000
0010
0000
0000
0100
0000
0000
,
0010
0000
0010
0100
1000
0000
1000
0001
0200
0000
0310
0100
0001
0000
0000
0000
,
1010
0000
0000
0000
0000
0000
1100
0000
0000
0000
0000
0000
1010
0000
0000
0010
0100
0010
1000
0000
0000
0001
0000
0000
,
0011
0000
0000
0000
0110
0000
0000
0000
1000
0000
0001
0100
0000
0000
0010
0100
,
0001
0000
0000
0000
0000
0000
0101
0000
0000
0000
0000
0000
1001
0000
0000
1000
0100
0010
0100
0000
0000
1000
0000
0000
,
0100
0000
0000
0000
0010
0000
0000
0000
0001
1000
0001
1000
0010
0000
0100
0000
,
0101
0000
0000
0000
0000
0000
0011
0000
0000
0000
0000
0000
1010
0000
0000
0010
0100
0010
1000
0000
0000
0001
0000
0000
,
0010
0000
0000
0000
0100
0000
0000
0000
1100
0000
0100
0010
0000
0000
0100
1000
,
0001
0000
0000
0000
0000
0000
0101
0000
0000
0000
0000
0000
0110
0000
0000
0010
1000
0010
0100
0000
0000
0001
0000
0000
,
0011
0000
0000
0010
0100
0000
0010
0100
1000
0000
0000
0001
1000
0000
1000
0000
,
0110
0000
0000
0000
0101
0000
0000
0000
1100
0000
0000
1100
0000
0000
0010
0001
,
1000
0000
0000
0000
1010
0000
0000
0000
0101
0000
0000
0001
0000
0000
1000
0010
,
1000
0000
0000
0000
0000
0000
1001
0000
0000
0000
0000
0000
0011
0000
0000
0010
0100
0010
0100
0000
0000
1000
0000
0000
,
1001
0000
0000
0000
0110
0000
0000
0000
1000
0010
1000
0010
0100
0000
0001
0000
,
0011
0000
0000
0000
1100
0000
0000
0000
0110
0000
0000
0110
0000
0000
0100
1000
,
0010
0000
0000
0000
0101
0000
0000
0000
0011
0000
0000
1000
0000
0000
0001
0100
,
0010
0000
0000
0000
0000
0000
1010
0000
0000
0000
0000
0000
0101
0000
0000
0001
0010
0001
1000
0000
0000
0100
0000
0000
,
0010
0000
0010
0000
0001
0000
0001
0000
1000
0100
00M0
0000
0001
0100
00M0
0000
,
1100
0000
0000
0000
1100
0000
0000
0000
1010
0000
0010
0100
0001
0000
0001
0000
,
10M0
0000
1000
0000
0M10
0000
0010
0000
100M
0000
0100
1000
0100
0000
0010
0000
,
0101
0000
0000
0000
0101
0000
0000
0000
0011
0000
0001
0010
0100
0010
0001
0000
,
M100
0000
0010
0000
010M
0000
0010
0000
M110
0000
0000
0001
0100
0000
0010
0000
,
1000
0010
0100
0010
1000
0000
0010
0100
0001
0010
0001
1000
0100
0000
0010
0100
,
001M
0000
0010
0000
0M01
0000
0001
0000
10M0
0000
0100
1000
0000
0001
1000
0000
,
0001
0010
0001
0100
0010
0000
1000
0010
1000
0001
0100
0010
0100
0000
0001
0000
,
0101
0000
0000
0000
1100
0000
0000
0000
2001
3000
0000
0002
0203
0300
0010
0000
,
0110
0000
0100
0000
0110
0000
0001
0000
1000
0000
0100
0010
0100
0000
0010
0000
,
0001
0000
40M0
040M
30M0
030M
0010
0100
,
1001
0000
0001
0000
1000
0000
1000
0000
0100
0000
0010
0100
1000
0000
0001
0000
,
1000
0000
00M4
M400
00M3
M300
0100
0001
,
0010
0100
1000
0001
1000
0000
0010
0100
0001
0010
0001
1000
0010
0000
0100
0001
,
1000
0020
0130
0020
0130
0000
0001
0000
2000
3000
0002
0013
0000
0200
0310
0000
,
0001
0010
0001
0010
0100
1000
0001
1000
0010
1000
0001
0100
0010
0100
0001
1000
,
0MM1
0000
0000
0000
0MM0
0000
0000
0000
0000
1000
0000
0000
1000
0000
0010
0000
,
2000
3000
0100
1000
0000
0000
1000
0000
01MM
1000
0000
0000
0010
0100
0010
1000
,
0002
0003
0100
0001
0000
0010
0001
0000
M1M0
0001
0000
1000
0001
0010
0100
0010
,
0200
0300
1000
0100
0000
0000
0100
0000
M0M0
0001
0100
0000
0010
0100
1000
0001
,
2000
3000
0010
0100
0000
0001
1000
0000
0M1M
1000
0000
0000
1000
0000
0001
0000
,
0200
0301
0100
0001
10M0
0100
1000
0100
0020
0031
0010
0001
1M00
0001
1000
0001
,
0200
0301
1000
0001
M010
0100
M010
0001
0200
0310
0100
1000
010M
0010
1000
0001
,
0400
0004
0000
0300
40M3
0400
0000
3000
0340
0400
0000
0030
43M0
0004
3003
0000
,
1M01
0000
00M0
0000
,
000M
0M00
00M0
M000
,
10M1
0000
0000
0000
1M01
00M0
0M00
00M0
1M01
0000
0000
0000
10M1
0M00
00M0
0M00
,
1001
0000
1000
0000
0001
0010
0100
1000
0001
0000
0000
1000
0010
1000
0010
0100
,
0001
0000
0010
0000
0001
0100
0001
1000
0010
0000
0000
0100
0010
0100
0001
1000
,
0001
0000
0010
0001
0010
0000
0100
0000
1000
0000
0010
1000
0010
0000
0100
0000
,
0101
0000
0001
0010
0100
0000
0001
0000
0100
0000
1000
0000
0010
1000
0010
1000
,
0010
0000
0100
0000
0010
1000
0001
0010
0100
0000
0000
0010
0100
0010
0001
0100
,
0010
0000
1000
0000
0001
0100
0001
1000
0001
0000
0000
0010
0100
1000
0001
1000
,
0010
0000
0100
0010
0100
0000
0001
0000
1000
0000
0001
0010
0001
0000
1000
0000
,
0200
0000
0000
0000
0000
0000
1300
0000
0000
0010
0000
0000
0100
0000
0000
0000
0000
0000
0100
0000
0000
0001
0000
0000
0020
0000
0000
0000
0000
0000
0031
0000
0000
0100
0000
0000
0010
0000
1000
0000
0010
0000
1000
0000
0000
0010
0000
0000
,
0100
0000
0001
0000
0101
0000
0001
1000
0100
0000
0100
0010
0000
0000
0011
0000
,
1000
0000
0000
0000
0000
0000
0001
0000
0000
0000
0000
0000
0110
0000
0000
0000
0000
0000
0010
0000
0000
1000
0000
0000
0010
0000
0000
0000
0000
0000
0010
0000
0000
0100
0000
0000
0001
0000
0000
1000
0000
0000
0100
0000
0010
0000
0100
0000
,
0010
0000
0001
0000
1000
0001
0100
0001
0010
0000
0100
1000
0100
0010
0001
1000
,
0001
0000
0000
0000
0000
0000
1000
0000
0010
0000
1000
0000
0010
0000
0000
0100
0000
0000
0001
0000
0000
0010
0000
0000
0100
0000
0000
1000
0000
0000
0010
0000
0000
0100
0000
0000
0010
0000
0000
1000
0000
0000
0001
0000
0000
1000
0000
0000
,
0M10
0000
1000
0000
1010
0000
001M
1000
0100
0000
0000
0011
0000
0000
1M01
0000
,
1000
0000
0M01
0000
0001
0010
M100
0010
0001
0000
10M0
0001
0100
0001
M100
0010
,
1000
0000
010M
0010
0100
0000
01M0
1000
0001
0100
M010
0100
0001
1000
010M
0010
,
0100
1000
001M
0100
0001
0100
M010
0100
0001
0000
10M0
0001
1000
0000
0M10
1000
,
0001
0000
0000
0000
0000
0000
1000
0000
0010
0000
1000
0000
0010
0000
0000
0100
0000
0000
0000
0000
0000
0001
0000
0000
0000
0000
0000
0010
0000
0000
0000
0000
0000
0001
0000
0000
0010
0000
0000
0000
0100
0000
0000
0000
1000
0000
0000
0000
,
20M2
3003
0000
0000
0000
0000
0000
0000
0000
0000
0000
0000
0000
0000
0000
0000
0000
0000
0000
0000
0000
0000
0000
0000
0000
0000
0000
0000
0000
0000
0000
0000
0000
0000
0000
0000
0000
0000
0000
0000
0000
0000
0000
0000
0000
0000
0000
0000
0000
0000
0000
0000
0000
0000
0000
0000
0000
0000
0000
0000
0000
0000
0000
0000
;

//---------------dance-single - ----------------
#NOTES:
     dance-single:
     :
     Hard:
     9:
     0.734,0.799,0.854,0.319,0.408:
0000
0000
0000
0000
,
M00M
0000
0000
0000
,
0000
0000
0000
0000
,
0001
0000
1000
0000
,
0100
0100
0200
0000
,
0000
0000
0000
0000
,
1300
0110
0011
0101
,
1001
0000
0000
0000
0100
0000
0000
0000
0101
0000
0000
0001
0000
0000
0010
0000
,
0100
0000
0000
0000
1000
0000
0000
0000
1001
0000
0000
0001
0000
0000
1000
0000
,
0010
0000
0000
0010
1000
0000
0001
0000
0010
0000
0000
0001
0100
0000
0010
0000
,
1000
0000
0100
0010
0001
0000
1000
0000
0010
0000
0100
0000
0001
0000
1000
0000
,
1001
0000
0000
0000
0001
0000
0000
0000
0011
0000
0000
0010
0000
0000
0100
0000
,
1000
0000
0000
0000
0001
0000
0000
0000
1010
0000
0000
0010
0000
0000
0100
0000
,
0001
0000
0000
1000
0100
0000
0010
0000
0100
0000
0000
1000
0001
0000
0100
0000
,
0010
0000
1000
0010
1000
0000
0010
0100
0010
0000
0100
0001
0100
0000
0000
0000
,
1001
0000
0000
0000
0000
0000
1000
0000
0000
0000
0000
0000
0100
0000
0000
0010
0001
0000
0000
0000
0000
0010
0000
0000
,
0001
0000
0000
0000
1000
0000
0000
0000
0010
0000
0000
0010
0000
0000
0100
0000
,
0001
0000
0000
0000
0000
0000
1000
0000
0000
0000
0000
0000
0001
0000
0000
0010
0001
0000
0000
0000
0000
1000
0000
0000
,
0010
0000
0000
0000
0100
0000
0000
0000
0001
0010
0100
0010
0001
0000
1000
0000
,
0001
0000
0000
0000
0100
0000
0000
0000
0010
0000
0000
0010
0000
0000
1000
0000
,
0001
0000
0000
0000
1000
0000
0000
0000
0100
0000
0000
0100
0000
0000
0010
0001
,
1000
0000
0000
0000
0000
0000
1000
0000
0000
0000
0000
0000
0001
0000
0000
1000
0010
0000
0000
0000
0000
0100
0000
0000
,
0001
0000
0000
0010
0100
0000
2000
0000
0001
0000
3000
1000
0100
0000
0010
0000
,
0110
0000
0000
0000
1000
0000
0000
0000
0110
0000
0000
0110
0000
0000
0011
0000
,
1000
0000
0000
0000
0001
0000
0000
0000
1010
0000
0000
1010
0000
0000
0010
0100
,
0001
0000
0000
0000
0000
0000
0100
0000
0000
0000
0000
0000
0101
0000
0000
0001
1000
0000
0000
0000
0000
0100
0000
0000
,
0010
0000
0000
0000
0001
0000
0000
0000
1000
0010
0100
0010
1000
0000
0001
0000
,
1001
0000
0000
0000
1000
0000
0000
0000
1010
0000
0000
0101
0000
0000
0110
0000
,
1000
0000
0000
0000
0001
0000
0000
0000
1100
0000
0000
0110
0000
0000
0010
0001
,
1000
0000
0000
0000
0000
0000
0010
0000
0000
0000
0000
0000
0110
0000
0000
0100
0001
0000
0000
0000
0000
0010
0000
0000
,
0001
0000
0001
0000
1000
0000
1000
0000
0010
0100
0000
0000
0001
0100
0000
0000
,
1002
0003
0000
0000
2001
3000
0000
0000
1002
0003
0000
0000
2001
3000
0000
0000
,
1000
0000
0100
0000
0010
0100
1000
0000
,
0101
0000
0000
0000
0101
0000
0000
0000
0101
0000
0001
0010
0000
0001
1000
0000
,
1010
0000
0000
0000
0011
0000
0000
0000
1010
0000
0000
1000
0001
0000
0010
0000
,
1100
0000
0000
0000
1100
0000
0000
0000
1100
0000
0100
0010
0000
0000
0001
0000
,
1001
0000
0000
0000
0110
0000
0000
0000
1001
0000
0010
0100
M00M
0000
0010
0000
,
1010
0000
0000
0000
0011
0000
0000
0000
1010
0000
0001
0010
0000
0001
0100
0000
,
0101
0000
0000
0000
1001
0000
0000
0000
1010
0000
0000
0010
0100
0000
0010
1000
,
0001
0000
0000
0000
0011
0000
0000
0000
0010
0000
0001
0100
0000
0000
0010
0000
,
0M00
000M
2000
3200
2300
3200
0310
0001
,
1001
0000
0000
0000
0101
0000
0000
0000
1001
0000
1000
0100
0000
0000
0010
0000
,
000M
M000
0002
0203
0302
0203
0310
1000
,
0110
0000
0000
0000
0101
0000
0000
0000
0010
0000
1000
0100
0000
0000
0010
0000
,
0100
0000
1000
0000
1000
0000
0000
0000
0010
0000
0100
0010
0000
1000
0001
0000
,
0011
0000
0000
0000
0011
0000
0000
0001
0100
0000
0001
0010
0001
0000
1000
0000
,
0010
0000
0000
0000
0010
0000
0000
0000
0000
000M
0000
0000
000M
0000
M000
0000
,
0101
0010
2000
3000
,
1100
0010
0002
0003
,
1001
0010
0200
0300
,
1010
1000
0100
0000
0020
0000
0030
0000
,
0011
0000
2002
3003
0101
0000
2020
3030
,
0110
0000
0000
0000
2100
0000
3200
0000
0310
0000
0000
0000
0022
0000
0033
0001
,
0100
0000
0000
0010
0200
0000
0300
0001
1000
0000
0000
0100
2000
0000
3000
0010
,
0100
0000
0010
0000
,
1002
0000
1000
0000
2000
0000
0000
0003
,
3001
0101
1100
0101
,
1001
0000
0000
0000
1000
0000
0000
0000
0110
0000
0000
0010
0000
0000
1000
0000
,
0001
0000
0000
0000
0010
0000
0000
0000
0011
0000
0000
0001
0000
0000
1000
0000
,
0010
0000
0000
0010
0100
0000
0001
0000
1000
0000
0000
1000
0100
0000
0010
0000
,
0100
0000
1000
0100
1000
0000
0010
0000
0100
0000
0001
0000
0010
0000
0001
0000
,
1001
0000
0000
0000
0100
0000
0000
0000
1010
0000
0000
1000
0000
0000
0100
0000
,
0010
0000
0000
0000
0001
0000
0000
0000
1001
0000
0000
0001
0000
0000
0100
0000
,
0010
0000
0000
1000
0001
0000
0010
0000
0100
0000
0000
0001
0100
0000
1000
0000
,
1200
0000
0300
0000
0010
0000
0001
0000
0102
0000
0003
0000
1000
0010
1000
0010
,
1000
0000
0000
0000
0001
0000
0000
0000
0101
0000
0000
0001
1000
0000
0100
0000
,
0110
0000
0000
0000
0001
0000
0000
0000
0011
0000
0000
0001
1000
0000
0010
0000
,
1010
0000
0000
0010
1000
0000
0100
0000
0100
0000
0000
0100
0010
0000
0001
0000
,
1000
0000
0010
1000
0010
0000
0100
0000
0001
0000
0010
0000
0001
0000
1000
0000
,
1001
0000
0000
0000
0100
0000
0000
0000
0110
0000
0000
1010
0000
0000
0101
0000
,
0010
0000
0000
0000
1000
0000
0000
0000
1001
0000
0000
1001
0000
0000
1100
0000
,
0101
0000
0000
0001
0010
0000
0010
0000
0100
0000
0000
0010
0001
0000
1000
0000
,
0100
0000
0010
0100
0010
0000
0100
1000
0100
0000
1000
0001
1000
0000
0001
0000
,
0101
0000
0000
0000
0000
0000
0100
0000
0000
0001
0000
0000
0000
0000
0000
0010
0000
0000
0000
0000
0000
0001
0000
0000
0000
0000
0000
0100
0000
0000
0000
0000
0000
0010
0000
0000
1000
0000
0000
0000
0010
0000
0000
0000
0100
0000
0000
0000
,
2002
3003
0000
0000
0000
0000
0000
0000
0000
0000
0000
0000
0000
0000
0000
0000
0000
0000
0000
0000
0000
0000
0000
0000
0000
0000
0000
0000
0000
0000
0000
0000
0000
0000
0000
0000
0000
0000
0000
0000
0000
0000
0000
0000
0000
0000
0000
0000
0000
0000
0000
0000
0000
0000
0000
0000
0000
0000
0000
0000
0000
0000
0000
0000
;

//---------------dance-single - ----------------
#NOTES:
     dance-single:
     :
     Medium:
     7:
     0.570,0.660,0.451,0.178,0.235:
0000
0000
0000
0000
,
M00M
0000
0000
0000
,
0000
0000
0000
0000
,
1000
0000
0100
0000
,
0010
0010
0020
0000
,
0000
0000
0000
0030
,
1001
1001
1001
1001
,
0101
0000
0000
0000
0001
0000
0000
0000
0010
0000
0000
0010
0000
0000
0100
0000
,
1000
0000
0000
0000
0001
0000
0000
0000
1000
0000
0000
1000
0000
0000
0010
0000
,
0100
0000
0000
0001
0000
0000
0001
0000
0010
0000
0000
0001
0000
0000
1000
0000
,
0010
0000
0100
0000
0001
0000
1000
0100
,
1000
0000
0000
0000
0001
0000
0000
0000
1000
0000
0000
1000
0000
0000
0010
0000
,
0100
0000
0000
0000
0001
0000
0000
0000
0010
0000
0000
0010
0000
0000
0001
0000
,
0100
0000
0000
0001
0000
0000
0001
0000
1000
0000
0000
0001
0000
0000
0010
0000
,
0100
0000
0000
0000
1000
0000
0000
0000
1002
0003
0000
0000
1000
0000
0000
0000
,
0110
0000
0010
0000
1000
0010
1000
0000
,
0001
0010
0001
0010
0001
0010
0100
0000
,
1000
0001
1000
0010
1000
0100
0010
0000
,
0100
0000
1000
0001
1000
0010
0000
0000
,
1001
0000
0001
0010
0001
0000
0001
0000
,
1000
0000
0000
0000
0100
0000
0000
0000
0020
0000
0000
0000
0130
0000
0000
1000
,
0100
1000
0001
1000
0001
0000
0001
0000
,
0100
0000
0000
0010
0100
0000
0001
0000
1000
0000
0000
0001
1000
0000
0100
0000
,
0010
0000
0000
0000
0100
0000
0000
0000
0010
0000
0000
0010
0000
0000
0001
0000
,
1000
0000
0000
0000
0001
0000
0000
0000
0100
0000
0000
0100
0000
0000
0010
0000
,
1000
0000
0001
0000
1000
0100
1000
0100
,
0010
0000
0000
0000
0001
0000
0000
0000
1000
0000
0000
0100
1000
0000
0001
0000
,
1000
0000
0000
0000
0010
0000
0000
0000
1000
0000
0000
1000
0000
0000
0100
0000
,
0010
0000
0000
0000
0100
0000
0000
0000
0010
0000
0000
0010
0000
0000
0001
0000
,
1000
0000
0001
0000
0100
0001
0100
0001
,
1000
0000
0001
0000
1000
0000
0001
0000
0200
0300
0000
0000
0200
0300
0000
0000
,
1001
1001
1001
1001
,
0001
0000
0100
0000
0001
1000
0001
0000
,
0011
0011
0011
0011
,
1000
0000
0000
0000
0001
0000
0000
0000
1010
0000
0000
1000
0010
0000
1000
0000
,
0010
1010
1010
1010
,
1000
0000
0001
0000
0020
0000
0130
0010
,
0100
0110
0110
0110
,
1000
0000
0000
0000
0001
0000
0000
0000
0100
0000
0000
0010
0100
0000
0001
0000
,
1000
0000
1001
0000
1000
0100
1000
0001
,
0000
0000
0100
0010
0100
0010
0000
1000
,
0001
0000
1001
0000
1000
0100
0010
0001
,
0000
0000
0010
0100
0010
0100
0000
1000
,
0100
0000
1100
0000
1000
0001
0100
0001
,
1000
0000
0000
0000
1000
0000
0000
0000
0100
0000
0010
0000
0100
0000
0000
0010
,
0001
0000
0000
0010
0001
0000
0000
1000
0001
0000
0000
1000
0001
0000
0000
1000
,
0010
0010
0000
0000
,
0101
0000
0020
0030
,
1001
0000
2000
3000
,
1010
0000
0200
0300
,
0011
0000
2000
3000
,
1001
0000
0200
0300
1001
0000
0020
0030
,
0011
0000
0000
0000
0200
0000
0300
0000
1010
0000
0000
0000
0200
0000
0300
0001
,
0100
0000
0000
0001
0020
0000
0030
0001
1000
0000
0000
0001
0020
0000
0030
0001
,
1000
0000
0100
0000
,
0010
0010
0020
0000
,
0031
1001
1001
1001
,
1001
0000
0000
0000
0010
0000
0000
0000
1000
0000
0000
1000
0000
0000
0001
0000
,
0010
0000
0000
0000
0100
0000
0000
0000
0010
0000
0000
0010
0000
0000
0001
0000
,
1000
0000
0000
0001
0000
0000
0001
0000
0100
0000
0000
0010
0000
0000
1000
0000
,
0010
0100
0010
0100
0001
1000
0001
1000
,
0100
0000
0000
0000
0010
0000
0000
0000
0100
0000
0000
0100
0000
0000
1000
0000
,
0001
0000
0000
0000
0100
0000
0000
0000
0001
0000
0000
0001
0000
0000
0010
0000
,
0100
0000
0000
1000
0000
0000
1000
0000
0001
0000
0000
0100
0000
0000
0010
0000
,
0100
0000
0101
0000
,
1001
0000
0000
0000
1100
0000
0000
0000
1001
0000
0000
0001
0000
0000
0100
0000
,
0010
0000
0000
0000
0110
0000
0000
0000
0101
0000
0000
0001
0000
0000
1000
0000
,
0001
0000
0000
0010
0000
0000
0100
0000
0010
0000
0000
0001
0000
0000
1000
0000
,
0001
0100
0001
0100
0010
1000
0100
1000
,
0100
0000
0000
0000
0110
0000
0000
0000
0011
0000
0000
0001
0000
0000
1000
0000
,
0010
0000
0000
0000
1010
0000
0000
0000
0110
0000
0000
0100
0000
0000
0001
0000
,
0010
0000
0000
0100
0000
0000
0100
0000
1000
0000
0000
0001
0000
0000
0100
0000
,
0010
1000
0010
0100
0001
1000
0100
0010
,
0001
0000
0000
0000
0000
0000
2000
0000
0000
0000
0000
0000
3000
0000
0000
0001
0000
0000
0000
0000
0000
1000
0000
0000
0000
0000
0000
0001
0000
0000
0000
0000
0000
1000
0000
0000
0001
0000
0000
0000
1000
0000
0000
0000
0001
0000
0000
0000
,
2000
3000
0000
0000
0000
0000
0000
0000
0000
0000
0000
0000
0000
0000
0000
0000
0000
0000
0000
0000
0000
0000
0000
0000
0000
0000
0000
0000
0000
0000
0000
0000
0000
0000
0000
0000
0000
0000
0000
0000
0000
0000
0000
0000
0000
0000
0000
0000
0000
0000
0000
0000
0000
0000
0000
0000
0000
0000
0000
0000
0000
0000
0000
0000
;

//---------------dance-single - ----------------
#NOTES:
     dance-single:
     :
     Easy:
     6:
     0.440,0.486,0.422,0.160,0.127:
0000
0000
0000
0000
,
0000
0000
0000
0000
,
0000
0000
0000
0000
,
1000
0000
0001
0000
,
0200
0000
0000
0000
,
0000
0000
0000
0000
,
0310
0010
0010
0010
,
1001
0000
0000
0000
1000
0000
0000
0000
0100
0000
0000
0100
0000
0000
0000
0000
,
0010
0000
0000
0000
0001
0000
0000
0000
0010
0000
0000
0010
0000
0000
0000
0000
,
0001
0000
0000
1000
0000
0000
0000
0000
0001
0000
0000
1000
0000
0000
0000
0000
,
0010
0100
0001
0100
,
0010
0000
0000
0000
1000
0000
0000
0000
0001
0000
0000
1000
0000
0000
0000
0000
,
0100
0000
0000
0000
0010
0000
0000
0000
0100
0000
0000
1000
0000
0000
0000
0000
,
0001
0000
0000
1000
0000
0000
0000
0000
0100
0000
0000
1000
0000
0000
0000
0000
,
0100
0010
1001
0100
,
0001
0010
0100
0100
,
1000
0001
0100
0100
,
0010
1000
0001
1000
,
0100
0000
0010
0000
0001
1000
0001
0000
,
1001
1000
0100
0100
,
0010
0001
1000
0010
,
1000
0001
0100
0010
,
1000
0100
0100
1000
,
1001
0000
0000
0000
0001
0000
0000
0000
0100
0000
0000
0100
0000
0000
0000
0000
,
0010
0000
0000
0000
1000
0000
0000
0000
0001
0000
0000
0001
0000
0000
0000
0000
,
0010
0000
0000
0000
0100
0000
0000
0000
0010
0000
0000
0100
0000
0000
0000
0000
,
1000
0000
0100
0000
1000
0001
1000
0000
,
1001
0000
0000
0000
0001
0000
0000
0000
0010
0000
0000
0010
0000
0000
0000
0000
,
0001
0000
0000
0000
1000
0000
0000
0000
0100
0000
0000
0100
0000
0000
0000
0000
,
1000
0000
0000
0000
0100
0000
0000
0000
1000
0000
0000
1000
0000
0000
0000
0000
,
0001
0100
0001
0100
0001
0000
0001
0000
,
1001
1001
1001
1001
,
0100
0010
0100
0010
,
1001
1001
1001
1001
,
1000
0001
2000
3000
,
1100
1100
1100
1100
,
0100
0010
0001
0000
,
0101
0101
0101
0101
,
0001
0000
0000
0000
1000
0000
0000
0000
0010
0000
0000
1000
0000
0000
0001
0000
,
1000
1000
1000
0010
,
0000
0000
1000
0001
1000
0001
0000
0000
,
0001
0001
0001
0010
,
0000
0000
0001
1000
0001
1000
0000
0000
,
1000
1000
1000
0100
,
0010
0010
0010
0100
,
1000
0001
1000
0001
,
0110
0100
0000
0000
,
1001
0000
0002
0003
,
0011
0000
0020
0030
,
0110
0000
0200
0300
,
1100
0000
2000
3000
,
1000
0002
1003
0002
,
1003
0002
1003
0002
,
1003
1100
0101
1100
,
0101
0000
0010
0000
,
2000
0000
0000
0000
,
3001
0001
0001
0001
,
1000
0000
0000
0000
0100
0000
0000
0000
1000
0000
0000
1000
0000
0000
0000
0000
,
0001
0000
0000
0000
0100
0000
0000
0000
0001
0000
0000
0001
0000
0000
0000
0000
,
0010
0000
0000
0010
0000
0000
0000
0000
0100
0000
0000
0100
0000
0000
0000
0000
,
0010
0000
0001
0000
1000
0001
1000
0000
,
0001
0000
0000
0000
0100
0000
0000
0000
0001
0000
0000
0100
0000
0000
0000
0000
,
0010
0000
0000
0000
1000
0000
0000
0000
0010
0000
0000
1000
0000
0000
0000
0000
,
0001
0000
0000
0010
0000
0000
0000
0000
0001
0000
0000
0010
0000
0000
0000
0000
,
0011
0000
0110
0000
,
1100
0000
0000
0000
1100
0000
0000
0000
0100
0000
0000
0100
0000
0000
0000
0000
,
1001
0000
0000
0000
1001
0000
0000
0000
0001
0000
0000
0001
0000
0000
0000
0000
,
0101
0001
0101
0100
,
0010
0000
1000
0000
0001
1000
0001
0000
,
1001
0000
0000
0000
0110
0000
0000
0000
1000
0000
0000
1000
0000
0000
0000
0000
,
1010
0000
0000
0000
0011
0000
0000
0000
0001
0000
0000
0001
0000
0000
0000
0000
,
1100
0100
1100
1000
,
0010
0000
0100
0000
0001
1000
0001
1000
,
0002
0003
0020
0030
0200
0300
2000
3000
,
2002
3003
0000
0000
0000
0000
0000
0000
0000
0000
0000
0000
0000
0000
0000
0000
0000
0000
0000
0000
0000
0000
0000
0000
0000
0000
0000
0000
0000
0000
0000
0000
0000
0000
0000
0000
0000
0000
0000
0000
0000
0000
0000
0000
0000
0000
0000
0000
0000
0000
0000
0000
0000
0000
0000
0000
0000
0000
0000
0000
0000
0000
0000
0000
;

//---------------dance-single - ----------------
#NOTES:
     dance-single:
     :
     Beginner:
     1:
     0.188,0.278,0.019,0.000,0.000:
0000
0000
0000
0000
,
0000
0000
0000
0000
,
0000
0000
0000
0000
,
1000
0000
0001
0000
,
1000
0000
0000
0000
,
0000
0000
0000
0000
,
0010
0010
0010
0010
,
1000
0000
1000
0000
,
0001
0000
0001
0000
,
1000
0000
1000
0000
,
0100
0000
0010
0000
,
0001
0000
0001
0000
,
1000
0000
1000
0000
,
0001
0000
0001
0000
,
1000
0000
0010
0000
,
1000
0000
0000
0000
,
0100
0000
0000
0000
,
1000
0000
0000
0000
,
0010
0000
0100
0000
,
0010
0000
0000
0000
,
1000
0000
0000
0000
,
0001
0000
0001
0000
,
0010
0000
0010
0010
,
0100
0000
1000
0000
,
0100
0000
0010
0000
,
0100
0000
1000
0000
,
0001
0000
0001
0000
,
1000
0000
0010
0000
,
0100
0000
0010
0000
,
1000
0000
0010
0000
,
1000
0001
1000
1000
,
0001
0001
0001
0001
,
0000
0000
0000
0000
,
1000
1000
1000
1000
,
0000
0000
0000
0000
,
0001
0001
0001
0001
,
0000
0000
0000
0000
,
1000
1000
1000
1000
,
0000
0000
0010
0010
,
0100
0100
0100
0100
,
0000
0000
0000
0000
,
0010
0010
0010
0010
,
0000
0000
0000
1000
,
0001
0001
0001
0001
,
0000
0000
0000
0000
,
1000
1000
1000
1000
,
0100
0000
0000
0000
,
0010
0000
0000
0000
,
0010
0000
0000
0000
,
0010
0000
0000
0000
,
0010
0000
0000
0000
,
0010
0000
0010
0000
,
0010
0000
0010
0000
,
0010
0000
0010
0000
,
1001
0000
0000
0000
,
0000
0000
0000
0000
,
1000
1000
1000
1000
,
0001
0000
0001
0000
,
0100
0000
0100
0000
,
0001
0000
0001
0000
,
1000
0000
0100
0000
,
1000
0000
1000
0000
,
0001
0000
0001
0000
,
0010
0000
0010
0000
,
0100
0000
1000
0000
,
0001
0000
1000
0000
,
0001
0000
1000
0000
,
0010
0000
0100
0000
,
0010
0000
0100
0000
,
0001
0000
1000
0000
,
0100
0000
0010
0000
,
0001
0000
0010
0000
,
0100
0000
1000
0000
,
0001
0000
0000
0000
,
1001
0000
0000
0000
;
