#VERSION:0.81;
#TITLE:Sticker of Puyo Puyo;
#SUBTITLE:Puyo 20th Anniversary Ver.;
#ARTIST:Hideki Abe;
#TITLETRANSLIT:;
#SUBTITLETRANSLIT:;
#ARTISTTRANSLIT:;
#GENRE:;
#ORIGIN:;
#CREDIT:;
#BANNER:banner.png;
#BACKGROUND:background.png;
#PREVIEWVID:;
#JACKET:jacket.png;
#CDIMAGE:;
#DISCIMAGE:;
#LYRICSPATH:;
#CDTITLE:cdtitle.png;
#MUSIC:sticker.ogg;
#OFFSET:0.000000;
#SAMPLESTART:12.706000;
#SAMPLELENGTH:12.000000;
#SELECTABLE:YES;
#BPMS:0.000=170.000;
#STOPS:;
#DELAYS:;
#WARPS:;
#TIMESIGNATURES:0.000=4=4;
#TICKCOUNTS:0.000=4;
#COMBOS:0.000=1;
#SPEEDS:0.000=1.000=0.000=0;
#SCROLLS:0.000=1.000;
#FAKES:;
#LABELS:0.000=Song Start;
#BGCHANGES:;
#KEYSOUNDS:;
#ATTACKS:
;

//---------------dance-single - ----------------
#NOTEDATA:;
#CHARTNAME:;
#STEPSTYPE:dance-single;
#DESCRIPTION:;
#CHARTSTYLE:;
#DIFFICULTY:Hard;
#METER:8;
#RADARVALUES:0.509064,0.470301,0.178172,0.311802,0.000000,414.000000,24.000000,42.000000,0.000000,0.000000,0.000000,0.000000,0.000000,0.509064,0.470301,0.178172,0.311802,0.000000,414.000000,24.000000,42.000000,0.000000,0.000000,0.000000,0.000000,0.000000;
#CREDIT:Tyty;
#NOTES:
// measure 0
0000
0000
0000
0000
,  // measure 1
1000
0000
1000
0000
0000
0001
0000
0001
,  // measure 2
0000
0001
0000
0000
0010
0100
1000
0001
,  // measure 3
0010
0000
0010
0000
0000
0100
0000
0100
,  // measure 4
0000
0100
0000
0000
1000
0100
0010
0001
,  // measure 5
0100
0000
0100
0000
0000
0010
0000
0010
,  // measure 6
0000
0010
0000
0000
1000
0100
0010
0001
,  // measure 7
1000
0000
1000
0000
0000
0001
0000
0001
,  // measure 8
0000
0001
0000
0000
0100
0010
1000
0001
,  // measure 9
1000
0100
0010
0001
1000
0010
0000
0010
,  // measure 10
0100
0001
0000
0001
0010
0100
0000
1000
,  // measure 11
0010
0100
0001
0010
0100
1000
0000
1001
,  // measure 12
0000
2000
0000
0000
3001
0000
0010
0000
,  // measure 13
0100
1000
0001
0010
0100
1000
0000
1000
,  // measure 14
0010
0100
0000
0100
0001
0010
0000
0010
,  // measure 15
0100
1000
0100
0010
0001
0000
0100
0010
,  // measure 16
0000
2000
0000
0000
3001
1000
0001
1000
,  // measure 17
0001
0000
0001
0000
0000
1000
0000
1000
,  // measure 18
0000
1000
0000
0000
0010
0100
0010
0100
,  // measure 19
0010
0000
0010
0000
0000
0100
0000
0100
,  // measure 20
0000
0100
0000
0000
0001
1000
0001
1000
,  // measure 21
0100
0000
0100
0000
0000
0010
0000
0010
,  // measure 22
0000
0010
0000
0000
0001
0010
0001
0010
,  // measure 23
0001
0000
0001
0000
0000
1000
0000
1000
,  // measure 24
0000
1000
0000
0000
0100
1000
0100
1000
,  // measure 25
0100
0010
0001
1000
0100
0010
0000
0010
,  // measure 26
0001
0010
0000
0010
0100
0010
0000
0010
,  // measure 27
0001
0100
0010
1000
0100
0010
0000
0001
,  // measure 28
0000
1000
0000
0000
0001
1000
0001
1000
,  // measure 29
0001
0010
0100
1000
0010
0100
0000
0100
,  // measure 30
1000
0100
0000
0100
0010
0100
0000
0100
,  // measure 31
0001
0010
0100
1000
0001
0000
1000
0001
,  // measure 32
0000
2000
0000
0000
3001
1000
0001
1000
,  // measure 33
0020
0000
0000
2000
0000
0000
0000
3030
,  // measure 34
1000
0010
0001
0010
0000
0110
0000
0000
,  // measure 35
2000
0000
0000
0200
0000
0000
0000
3300
,  // measure 36
0001
0100
1000
0100
0001
0000
0000
0000
,  // measure 37
0200
0000
0000
2000
0000
0000
0000
3300
,  // measure 38
0010
0001
0010
1000
0000
0101
0000
0000
,  // measure 39
0020
0000
0000
0200
0000
0000
0000
0330
,  // measure 40
0100
0000
1000
0000
0001
1000
0000
0000
,  // measure 41
0010
0000
0100
0010
0000
1000
0001
0000
,  // measure 42
1000
0100
0010
0001
0000
1000
0001
0000
,  // measure 43
0010
0000
0100
1000
0000
0100
0001
0000
,  // measure 44
0100
1000
0100
2000
0000
0001
3001
0000
,  // measure 45
0001
0000
1000
0100
0000
1000
0001
0000
,  // measure 46
1000
0010
0100
0001
0010
0100
1000
0001
,  // measure 47
1000
0000
0001
0100
0000
0010
1000
0000
,  // measure 48
0001
0010
0001
0020
0000
0001
0031
0000
,  // measure 49
0010
0000
0100
1000
0000
0010
0100
0000
,  // measure 50
0001
0010
0100
1000
0000
0001
1000
0000
,  // measure 51
0010
0000
0100
0001
0000
0010
0100
0000
,  // measure 52
1000
0010
0100
0002
0000
1000
1003
0000
,  // measure 53
0001
0000
0010
0001
0000
0100
0010
0000
,  // measure 54
1000
0010
1000
0001
0100
0001
1000
0100
,  // measure 55
1000
0000
0010
0100
0000
0001
0010
0000
,  // measure 56
0100
1000
0001
0020
0000
0001
0031
0000
,  // measure 57
2000
0000
0000
0200
0000
0000
0000
3300
,  // measure 58
0001
0100
1000
0100
0000
0110
0000
0000
,  // measure 59
0002
0000
0000
2000
0000
0000
0000
3003
,  // measure 60
0010
1000
0100
0001
0100
0000
0000
0000
,  // measure 61
2000
0000
0000
0200
0000
0000
0000
3300
,  // measure 62
0001
0100
1000
0010
0000
0011
0000
0000
,  // measure 63
0020
0000
0000
0200
0000
0000
0000
0330
,  // measure 64
0010
0100
0001
1000
,  // measure 65
0022
0000
0033
2200
0000
0000
0000
3300
,  // measure 66
0001
0010
0100
1000
0000
1001
0000
0000
,  // measure 67
2020
0000
3030
0202
0000
0000
0303
0000
,  // measure 68
1000
0010
1000
0001
0200
0000
0000
0300
,  // measure 69
0022
0000
0033
2200
0000
0000
0000
3300
,  // measure 70
0010
1000
0001
0010
0000
0011
0000
0000
,  // measure 71
2200
0000
3300
0022
0000
0000
0000
0033
,  // measure 72
0100
0000
0100
0000
0010
0010
0000
0000
,  // measure 73
1000
0000
0001
0000
,  // measure 74
1000
0000
0001
0000
,  // measure 75
0100
0000
0010
0000
,  // measure 76
0100
0000
0010
0000
,  // measure 77
0100
0000
0100
0000
0000
0001
0000
0001
,  // measure 78
0000
0001
0000
0000
1000
0100
0010
0001
,  // measure 79
0100
0000
0100
0000
0000
0010
0000
0010
,  // measure 80
0000
0010
0000
0000
0100
0010
1000
0001
,  // measure 81
0010
0000
0011
0000
0000
0100
0000
0010
,  // measure 82
0000
0110
0000
0000
1000
0100
0010
0001
,  // measure 83
0100
0000
0110
0000
0000
0010
0000
0100
,  // measure 84
0000
0110
0000
0000
0100
0010
1000
0100
,  // measure 85
1000
0000
1100
0000
0000
0010
0000
0001
,  // measure 86
0000
0011
0000
0000
0010
0001
0010
0100
,  // measure 87
1000
0000
1001
0000
0000
0010
0000
0100
,  // measure 88
0000
0110
0000
0000
1000
0100
0010
0001
,  // measure 89
0100
0010
1000
0100
0010
0001
0010
0100
,  // measure 90
2002
0000
3003
0000
;

//---------------dance-single - ----------------
#NOTEDATA:;
#CHARTNAME:;
#STEPSTYPE:dance-single;
#DESCRIPTION:;
#CHARTSTYLE:;
#DIFFICULTY:Medium;
#METER:5;
#RADARVALUES:0.386040,0.436708,0.200444,0.296954,0.000000,297.000000,27.000000,40.000000,0.000000,0.000000,0.000000,0.000000,0.000000,0.386040,0.436708,0.200444,0.296954,0.000000,297.000000,27.000000,40.000000,0.000000,0.000000,0.000000,0.000000,0.000000;
#CREDIT:Tyty;
#NOTES:
0000
0000
0000
0000
,
1000
0000
1000
0000
0000
0000
0000
0001
,
0000
0001
0000
0000
0010
0000
1000
0000
,
0010
0000
0010
0000
0000
0000
0000
0100
,
0000
0100
0000
0000
0001
0000
0010
0000
,
0100
0000
0100
0000
0000
0000
0000
0010
,
0000
0010
0000
0000
1000
0000
0010
0000
,
1000
0000
1000
0000
0000
0000
0000
0001
,
0000
0001
0000
0000
0100
0000
0010
0000
,
0100
1000
1000
0100
,
0100
0010
0010
0001
,
0010
0000
0001
0000
1000
0000
0000
1001
,
0000
2000
0000
0000
3001
0000
0010
0000
,
0010
0001
0001
0010
,
0010
0100
0100
1000
,
0100
0000
1000
0000
0001
0000
0000
1001
,
0000
2000
0000
0000
3001
0000
1000
0000
,
0001
0000
0001
0000
0000
0000
0000
1000
,
0000
1000
0000
0000
0010
0000
0100
0000
,
0010
0000
0010
0000
0000
0000
0000
0100
,
0000
0100
0000
0000
0001
0000
1000
0000
,
0100
0000
0100
0000
0000
0000
0000
0010
,
0000
0010
0000
0000
0001
0000
0010
0000
,
0001
0000
0001
0000
0000
0000
0000
1000
,
0000
1000
0000
0000
0100
0000
1000
0000
,
0100
0010
0001
0001
,
0001
0010
0100
0010
,
0001
0010
0100
0000
,
1000
0000
0001
0000
1000
0001
1000
0000
,
0001
0100
0010
0000
,
1000
0100
0010
0000
,
0001
0000
0100
0000
0001
0000
0000
0001
,
0000
2000
0000
0000
3001
0000
0001
0000
,
0020
0000
0000
2000
0000
0000
0000
3030
,
1000
0001
0110
0000
,
2000
0000
0000
0200
0000
0000
0000
3300
,
0001
1000
0001
0000
,
2000
0000
0000
0200
0000
0000
0000
3300
,
0100
0010
1001
0000
,
0020
0000
0000
0200
0000
0000
0000
0330
,
0100
1000
0001
0000
,
0010
0000
0100
0010
0000
0010
0001
0000
,
0001
0010
0001
1000
,
1000
0000
0010
0100
0000
0100
1000
0000
,
0100
0000
0000
0110
0000
0000
0000
0000
,
0100
0000
0010
0100
0000
0100
1000
0000
,
1000
0100
1000
0001
,
0001
0000
0100
0010
0000
0010
0001
0000
,
1000
0000
0000
1001
0000
0000
0000
0000
,
0010
0000
0100
0100
0000
0100
0010
0000
,
0001
0010
0100
1000
,
0010
0000
0100
0001
0000
0010
0100
0000
,
1000
0000
0100
0002
0000
0000
1003
0000
,
0001
0000
0010
0001
0000
0100
0010
0000
,
1000
0010
0100
0001
,
1000
0000
0010
0100
0000
0001
0010
0000
,
0100
0000
1000
0020
0000
0000
0031
0000
,
2000
0000
0000
0200
0000
0000
0000
3300
,
0001
0000
1000
0100
0000
0110
0000
0000
,
0002
0000
0000
2000
0000
0000
0000
3003
,
0010
1000
0100
0000
0001
0000
0000
0000
,
2000
0000
0000
0200
0000
0000
0000
3300
,
0001
0100
0000
0010
0000
1010
0000
0000
,
0020
0000
0000
0200
0000
0000
0000
0330
,
0010
0100
0001
1000
,
0022
0000
0033
2200
0000
0000
0000
3300
,
0001
0010
0100
1001
,
2020
0000
3030
0202
0000
0000
0303
0000
,
1000
0010
1000
0000
2000
0000
3000
0000
,
0022
0000
0033
2200
0000
0000
0000
3300
,
0010
0000
0001
0010
0000
0011
0000
0000
,
2200
0000
3300
0022
0000
0000
0000
0033
,
0100
0100
0010
0000
,
1000
0000
0001
0000
,
1000
0000
0001
0000
,
0100
0000
0010
0000
,
0100
0000
0010
0000
,
0100
0000
0100
0000
0000
0001
0000
0001
,
0000
0001
0000
0000
1000
0000
0001
0000
,
0100
0000
0100
0000
0000
0010
0000
0010
,
0000
0010
0000
0000
0100
0000
1000
0000
,
0010
0000
0011
0000
0000
0100
0000
0010
,
0000
0110
0000
0000
1000
0000
0010
0000
,
0100
0000
0110
0000
0000
0010
0000
0100
,
0000
0110
0000
0000
0100
0000
1000
0000
,
1000
0000
1100
0000
0000
0010
0000
0001
,
0000
0011
0000
0000
0001
0000
0001
0000
,
1000
0000
1001
0000
0000
0010
0000
0100
,
0000
0110
0000
0000
1000
0000
0010
0000
,
0100
0001
0010
0010
,
2002
0000
3003
0000
;

//---------------dance-single - ----------------
#NOTEDATA:;
#CHARTNAME:;
#STEPSTYPE:dance-single;
#DESCRIPTION:;
#CHARTSTYLE:;
#DIFFICULTY:Easy;
#METER:3;
#RADARVALUES:0.304378,0.268743,0.133629,0.163325,0.000000,247.000000,18.000000,22.000000,0.000000,0.000000,0.000000,0.000000,0.000000,0.304378,0.268743,0.133629,0.163325,0.000000,247.000000,18.000000,22.000000,0.000000,0.000000,0.000000,0.000000,0.000000;
#CREDIT:Tyty;
#NOTES:
0000
0000
0000
0000
,
1000
1000
0000
0001
,
0001
0000
0010
1000
,
0010
0000
0000
0100
,
0100
0000
0001
0010
,
0100
0100
0000
0010
,
0010
0000
1000
0010
,
1000
0000
0000
0001
,
0001
0000
0100
0010
,
0100
1000
1000
0000
,
0100
0010
0010
0000
,
0010
0000
0001
0000
1000
0000
0000
1000
,
0000
2000
0000
0000
3001
0000
0010
0000
,
0010
0000
0001
0010
,
0010
0000
0100
1000
,
0100
0000
1000
0000
0001
0000
0000
1000
,
0000
2000
0000
0000
3001
0000
1000
0000
,
0001
0001
0000
1000
,
1000
0000
0010
0100
,
0010
0010
0000
0100
,
0100
0000
0001
1000
,
0100
0100
0000
0010
,
0010
0000
0001
0010
,
0001
0001
0000
1000
,
1000
0000
0100
1000
,
0100
0010
0001
0000
,
0001
0010
0100
0000
,
0001
0010
0100
0000
,
1000
0001
1000
1000
,
0001
0100
0010
0000
,
1000
0100
0010
0000
,
0001
0000
0100
0000
0001
0000
0000
0001
,
0000
2000
0000
0000
3001
0000
0001
0000
,
0020
0000
0000
0000
0000
0000
0000
0030
,
1000
0001
0110
0000
,
2000
0000
0000
0000
0000
0000
0000
3000
,
0001
1000
0001
0000
,
2000
0000
0000
0000
0000
0000
0000
3000
,
0100
0010
1001
0000
,
0020
0000
0000
0000
0000
0000
0000
0030
,
0100
1000
0001
0000
,
0010
0100
0000
0001
,
0001
0010
0001
1000
,
1000
0010
0000
1000
,
0100
0000
0000
0110
0000
0000
0000
0000
,
0100
0010
0000
1000
,
1000
0100
1000
0001
,
0001
0100
0000
0001
,
1000
0000
0000
1001
0000
0000
0000
0000
,
0010
0100
0000
0010
,
0001
0010
0100
1000
,
0010
0100
0000
0100
,
1000
0100
0000
1001
,
0001
0010
0000
0010
,
1000
0010
0100
0001
,
1000
0010
0000
0010
,
0100
1000
0000
1001
,
2000
0000
0000
0000
0000
0000
0000
3000
,
0001
0000
1000
0000
0000
0110
0000
0000
,
0002
0000
0000
0000
0000
0000
0000
0003
,
0010
0100
0001
0000
,
2000
0000
0000
0000
0000
0000
0000
3000
,
0001
0000
0000
0010
0000
1010
0000
0000
,
0020
0000
0000
0000
0000
0000
0000
0030
,
0010
0100
0001
1000
,
0002
0000
0003
2000
0000
0000
0000
3000
,
0001
0010
0100
1000
,
2000
0000
3000
0002
0000
0000
0003
0000
,
1000
1000
2000
3000
,
0020
0000
0030
0200
0000
0000
0000
0300
,
0010
0000
0001
0000
0000
0011
0000
0000
,
0200
0000
0300
0020
0000
0000
0000
0030
,
0100
0100
0010
0000
,
1000
0000
0001
0000
,
1000
0000
0001
0000
,
0100
0000
0010
0000
,
0100
0000
0010
0000
,
0100
0000
0100
0000
0000
0000
0000
0001
,
0000
0001
0000
0000
1000
0000
0001
0000
,
0100
0000
0100
0000
0000
0000
0000
0010
,
0000
0010
0000
0000
0100
0000
1000
0000
,
0000
0000
0011
0000
0000
1000
0000
0000
,
0000
0110
0000
0000
1000
0000
0010
0000
,
0000
0000
0110
0000
0000
0010
0000
0000
,
0000
0110
0000
0000
0100
0000
1000
0000
,
0000
0000
1100
0000
0000
0010
0000
0000
,
0000
0011
0000
0000
0001
0000
0001
0000
,
0000
0000
1001
0000
0000
0010
0000
0000
,
0000
0110
0000
0000
1000
0000
0010
0000
,
0100
0001
0010
0010
,
2002
0000
3003
0000
;
