#TITLE:Some day (instrumental);
#SUBTITLE:;
#ARTIST:NAOKI;
#TITLETRANSLIT:;
#SUBTITLETRANSLIT:;
#ARTISTTRANSLIT:;
#CREDIT:;
#BANNER:[Qualifier Singles] Some day.png;
#BACKGROUND:[Qualifier Singles] Some day-bg.png;
#LYRICSPATH:;
#CDTITLE:;
#MUSIC:[Qualifier Singles] Some day (instrumental) - NAOKI.mp3;
#OFFSET:-0.122;
#SAMPLESTART:86.830;
#SAMPLELENGTH:12.000;
#SELECTABLE:YES;
#BPMS:0.000=155.000;
#STOPS:;
#BGCHANGES:;

//---------------dance-single - ----------------
#NOTES:
     dance-single:
     :
     Hard:
     8:
     0.526,0.562,0.715,0.069,0.005: // measure 1
0000
0000
0000
0000
,  // measure 2
0000
0000
0000
0000
,  // measure 3
0000
0000
0000
0000
,  // measure 4
0000
0000
0000
0000
,  // measure 5
2000
0000
0000
3000
,  // measure 6
0002
0000
0000
0003
,  // measure 7
2000
0000
0000
3000
,  // measure 8
0020
0000
0000
0000
0000
0030
0000
0000
,  // measure 9
1000
0100
0010
0000
0101
0000
1001
0000
,  // measure 10
1000
0010
0100
0000
0011
0000
0101
0000
,  // measure 11
0010
0100
0010
0000
1001
0000
1010
0000
,  // measure 12
0100
0010
0100
0000
1001
0000
0101
0000
,  // measure 13
1000
0010
1000
0000
0011
0000
1001
0000
,  // measure 14
0100
0010
0100
0000
1010
0000
1001
0000
,  // measure 15
0001
0100
0001
0000
1010
0000
1001
0000
,  // measure 16
1000
0001
1000
0000
0110
0000
0110
0000
,  // measure 17
0001
1000
0001
1000
0010
0100
0010
0100
,  // measure 18
1000
0010
1000
0010
0100
0010
0100
0010
,  // measure 19
0001
0010
0001
0010
1000
0010
1000
0010
,  // measure 20
0100
0010
0100
0001
0100
0001
0100
0000
,  // measure 21
0010
1100
1000
0101
,  // measure 22
0010
1100
1000
0101
,  // measure 23
0010
1100
1000
0101
,  // measure 24
0011
0011
1100
1100
,  // measure 25
0010
0100
0010
0100
0010
1000
0010
1000
,  // measure 26
0010
0100
0010
0100
0001
0100
0001
0100
,  // measure 27
0010
1000
0010
1000
0010
0100
0010
0000
,  // measure 28
1001
1001
0110
0110
,  // measure 29
1000
0100
1000
0100
0010
0100
0010
0100
,  // measure 30
0010
1000
0010
1000
0010
0100
0001
0100
,  // measure 31
0001
0100
0010
0100
0001
0100
0001
0000
,  // measure 32
1010
1010
0101
0101
,  // measure 33
2000
0000
0000
0000
,  // measure 34
0000
0000
3000
0000
,  // measure 35
0020
0000
0000
0000
,  // measure 36
0030
0000
0000
0000
,  // measure 37
1001
0000
1001
0000
0010
0100
0010
0000
,  // measure 38
1001
0000
1001
0000
0010
0100
0010
0000
,  // measure 39
1001
1001
0110
0110
,  // measure 40
0001
0000
0011
0000
1000
0100
1000
0000
,  // measure 41
0011
0000
0011
0000
0001
1000
0001
0000
,  // measure 42
1001
0000
1001
0000
0100
0010
0100
0000
,  // measure 43
1010
0000
1010
0000
0100
0010
0100
0000
,  // measure 44
1001
0000
1001
0000
0010
0100
0010
0000
,  // measure 45
1010
1001
0010
0110
,  // measure 46
0001
0000
1001
0000
0010
0100
0010
0000
,  // measure 47
1001
1001
1010
1010
,  // measure 48
0101
0000
0101
0010
1000
0010
1000
0010
,  // measure 49
1000
0000
0100
0010
0010
0000
0001
1000
,  // measure 50
1000
0001
1000
0001
0010
1000
0100
0001
,  // measure 51
0001
0100
0010
1000
0100
1000
0001
0000
,  // measure 52
0010
1000
0010
0001
1000
0001
1000
0000
,  // measure 53
0100
1010
0001
0101
,  // measure 54
0020
0000
0000
1030
,  // measure 55
0001
0100
1000
0001
,  // measure 56
1001
1001
1001
1001
,  // measure 57
0010
0100
0010
0100
0010
1000
0010
1000
,  // measure 58
0010
0100
0001
0100
0001
0100
0010
0100
,  // measure 59
1000
0100
0010
0001
0010
0001
0010
0001
,  // measure 60
0010
0001
0010
0001
0010
0001
1000
0000
,  // measure 61
1000
1001
0010
0110
,  // measure 62
0001
1001
0010
1010
,  // measure 63
0100
0101
1000
0010
,  // measure 64
0100
0000
0000
0001
0000
0000
1000
0000
0000
0000
0001
0000
1001
0000
0000
0000
;

//---------------dance-single - ----------------
#NOTES:
     dance-single:
     :
     Easy:
     3:
     0.267,0.281,0.000,0.029,0.000:
0000
0000
0000
0000
,
0000
0000
0000
0000
,
0000
0000
0000
0000
,
0000
0000
0000
0000
,
1000
0000
0000
0000
,
0001
0000
0000
0000
,
0100
0000
0000
0000
,
0010
0000
0000
0000
,
1000
0001
0100
0100
,
0010
1000
1000
0000
,
0001
0100
0010
0010
,
1000
0001
1000
1000
,
0010
0100
0001
0001
,
0001
0010
0000
0000
,
1000
1000
0010
0000
,
0100
0100
0001
0000
,
1000
0010
1000
0010
,
0100
0001
0100
0001
,
1000
0100
1000
0100
,
0010
0001
0010
0001
,
0001
0001
1000
1000
,
0001
0001
1000
1000
,
0100
0100
0010
0010
,
0100
0100
0100
0100
,
0010
0010
1000
1000
,
0010
0010
0001
0001
,
0010
0010
0100
0100
,
0001
1000
0001
1000
,
0100
0100
0001
0001
,
0100
0100
1000
1000
,
0100
0100
0010
0010
,
1000
0001
1000
0001
,
0200
0000
0000
0000
,
0000
0000
0000
0000
,
0000
0000
0000
0000
,
0000
0300
0000
0000
,
1000
0001
1000
1000
,
0001
0001
1000
1000
,
0010
0010
0100
0100
,
0001
1000
0001
1000
,
1000
0001
0001
1000
,
1000
0010
0100
0010
,
1000
1000
0001
0001
,
1000
0001
1000
0000
,
0010
1000
0001
0100
,
0100
0100
0000
0000
,
0001
1000
0010
0100
,
0001
0001
0001
0000
,
1000
0010
0100
1000
,
0001
0001
0001
0000
,
0010
0100
1000
0001
,
0100
0100
0100
0000
,
0020
0000
0000
0000
,
0000
0030
0000
0000
0000
0000
0000
0000
,
2000
0000
0000
0000
0000
0000
0000
3000
,
0000
0000
0000
0000
,
0001
1000
0001
0001
,
1000
0001
1000
1000
,
0001
1000
0001
0001
,
1000
0001
1000
1000
,
0010
0100
0010
0010
,
0100
0010
0100
0100
,
0010
0100
0010
0001
,
0001
0001
0001
0001
;

//---------------dance-single - Copied from----------------
#NOTES:
     dance-single:
     Copied from:
     Medium:
     5:
     0.371,0.468,0.304,0.078,0.005:
0000
0000
0000
0000
,
0000
0000
0000
0000
,
0000
0000
0000
0000
,
0000
0000
0000
0000
,
0020
0000
0000
0030
,
0200
0000
0000
0000
0000
0300
0000
0000
,
0002
0000
0000
0000
0000
0003
0000
0000
,
2000
0000
0000
0000
0000
3000
0000
0000
,
0001
0001
1000
1000
,
0001
0001
1000
1000
,
0010
0010
0100
0100
,
0010
0010
0100
0100
,
1001
1001
0010
0010
,
0010
0001
0001
0001
,
1001
1001
0010
0010
,
0100
0100
0100
0100
,
0010
0000
1000
0000
0001
1000
0001
0000
,
0010
0000
0010
0000
1000
0010
1000
0000
,
0001
0000
0001
0000
0100
0010
0100
0000
,
1000
1000
0001
0001
,
0100
0010
0100
0000
0001
0000
0001
0000
,
1000
0010
1000
0000
0100
0000
0100
0000
,
0010
0100
0010
0000
1000
0000
1000
0000
,
0010
1010
0001
0011
,
1000
1000
1000
1000
,
0010
0010
0010
0010
,
0100
0100
0100
0100
,
1001
1001
0110
0110
,
0001
0010
0001
0000
1000
0000
1000
0000
,
0100
1000
0100
0000
0010
0000
0010
0000
,
0001
0010
0001
0000
1000
0010
1000
0000
,
0001
0101
0010
1010
,
0200
0000
0000
0000
,
0000
0000
0000
0000
0000
0300
0000
0000
,
0002
0000
0000
0000
,
0000
0003
0000
0000
,
1001
1001
0010
0010
,
1001
1001
0010
0100
,
0001
1001
1001
1001
,
0010
0010
0010
0100
,
1001
1001
0010
0100
,
1001
1001
1001
0010
,
0100
0001
1000
0010
,
0100
0100
0100
0100
,
0001
1000
0001
0000
0100
0000
0100
0000
,
0010
1000
0010
0000
0100
0000
0100
0000
,
0001
0010
0001
0000
1000
0000
1000
0000
,
0010
0100
0010
0000
0001
0000
0001
0000
,
1000
0010
1000
0000
0001
0000
0001
0000
,
0100
0010
0100
0000
1000
0000
1000
0000
,
0010
0100
0010
0000
0001
0010
0001
0000
,
1000
1000
1000
0010
,
0002
0000
0000
0000
,
0000
0003
0000
0000
,
2000
0000
0000
3000
,
0001
0001
0001
0001
,
1000
0010
1000
0010
,
1000
0001
0100
0001
,
1000
0010
0100
0010
,
0001
0010
0100
1000
,
0001
1000
0001
0000
0110
0000
0110
0000
,
0001
1000
0001
0000
0110
0000
0110
0000
,
0001
1000
0001
0000
0110
0000
0110
0000
,
1000
0000
0000
1000
0000
0000
1000
0000
0000
0000
0001
0000
1001
0000
0000
0000
;

//---------------dance-single - Copied from----------------
#NOTES:
     dance-single:
     Copied from:
     Beginner:
     2:
     0.158,0.250,0.098,0.059,0.000:
0000
0000
0000
0000
,
0000
0000
0000
0000
,
0000
0000
0000
0000
,
0000
0000
0000
0000
,
2000
0000
0000
3000
,
0200
0000
0000
0300
,
0020
0000
0000
0000
0000
0000
0000
0030
,
0002
0000
0000
0003
,
1000
0000
0000
0000
,
0000
0001
0000
0000
,
0000
1000
0000
0000
,
0000
0100
0000
0000
,
0001
0000
1000
0000
,
0001
0000
1000
0000
,
0010
0000
0100
0000
,
0010
0000
0100
0000
,
1000
0000
1000
0000
,
1000
0000
1000
0000
,
0001
0000
0001
0000
,
0100
0100
0010
0010
,
0000
0000
0000
0000
,
1001
0000
0000
0000
,
1010
0000
0000
0000
,
0001
0001
1000
1000
,
0001
0000
0001
0000
,
0001
0000
0001
0000
,
0001
0000
0001
0000
,
0100
0100
0010
0010
,
1001
0000
0000
0000
,
1001
0000
0000
0000
,
1001
0000
0000
0000
,
0100
0100
0010
0010
,
2000
0000
0000
0000
,
0000
0000
0000
0000
,
0000
0000
0000
0000
,
0000
0000
0000
3000
,
0001
0000
1000
0000
,
0101
0000
0000
0000
,
1000
0000
0001
0000
,
1010
0000
0000
0000
,
1000
0000
0001
0000
,
0101
0000
0000
0000
,
1000
0000
0001
0000
,
1010
0000
0000
0000
,
1000
0000
1000
0000
,
0100
0000
0100
0000
,
0010
0000
0010
0000
,
0001
0000
0001
0000
,
1000
0000
1000
0000
,
0100
0000
0100
0000
,
0010
0000
0010
0000
,
0001
0000
0001
0000
,
2000
0000
0000
0000
,
0000
0000
0000
0000
,
0000
0000
0000
3000
,
0001
0000
0001
0000
,
0100
0000
0100
0000
,
1000
0000
1000
0000
,
0001
0000
0001
0000
,
0010
0000
0010
0000
,
0100
0000
1000
0000
,
0001
0000
0010
0000
,
0100
0000
1000
0000
,
0001
0000
0000
1001
;
