#TITLE:Smells Like a Chocolate;
#SUBTITLE:;
#ARTIST:Vospi;
#TITLETRANSLIT:;
#SUBTITLETRANSLIT:;
#ARTISTTRANSLIT:;
#GENRE:Pump It Up PRO 2;
#CREDIT:;
#BANNER:Smells Like a Chocolate-bn.png;
#BACKGROUND:Smells Like a Chocolate-bg.png;
#LYRICSPATH:;
#CDTITLE:;
#MUSIC:Smells Like a Chocolate.mp3;
#OFFSET:-0.093;
#SAMPLESTART:44.990;
#SAMPLELENGTH:12.000;
#SELECTABLE:YES;
#BPMS:0.000=176.000,68.000=88.000,100.000=176.000;
#STOPS:;
#BGCHANGES:0.000==1.000=0=0=1=====,
99999=-nosongbg-=1.000=0=0=0 // don't automatically add -songbackground-
;
#KEYSOUNDS:;

//---------------dance-single - TaroNuke(PRO2 port)----------------
#NOTES:
     dance-single:
     TaroNuke(PRO2 port):
     Challenge:
     12:
     0.848,1.000,0.142,0.804,0.775:
0000
0000
0000
0000
,
0000
0000
0000
0000
,
0000
0000
0000
0000
,
0000
0000
0000
0000
,
0000
0000
0000
0000
1000
0100
0010
0001
,
1000
0000
0001
0100
0001
0000
2000
0000
0000
0000
0002
0000
0000
0000
0020
0000
,
0000
3033
0000
0000
0000
0000
0000
0000
,
0001
0000
1000
0100
1000
0000
0002
0000
0000
0000
2000
0000
0000
0000
0200
0000
,
0000
0000
0000
3303
0000
0000
0000
0000
0000
0000
0000
0000
0000
0000
1000
0001
0000
0000
0000
0000
0000
0000
0000
0000
,
1000
0100
0010
0001
0100
0010
1000
0000
,
0001
0100
0010
1000
0100
0010
0001
0000
,
1000
0100
0010
0001
0100
1000
0100
0000
,
0001
0000
1001
0000
0100
0010
0110
0000
,
0001
0010
0100
1000
0010
0100
0001
0000
,
1000
0010
0100
0001
0010
0100
1000
0000
,
0001
0010
0100
1000
0010
0001
0010
0000
,
1000
0000
1001
0000
0010
0100
0110
0000
,
1000
0000
0000
0000
0010
0000
1000
0000
0000
0000
0010
0000
1000
0000
0100
0000
0010
0000
0001
0000
0100
0000
0020
0000
2000
0000
0030
0000
0000
0000
3001
0100
,
0002
0000
0000
0000
0103
0000
0000
0000
0202
0000
0000
0000
0300
0000
1003
0010
2000
0000
0000
0000
3010
0000
0000
0000
2020
0000
0000
0000
3030
0000
0000
0000
,
1000
0000
0100
1000
0000
0100
1000
0010
0100
0001
0010
0200
2000
0300
3010
0100
,
0001
0010
0100
1000
0001
0000
1000
0100
0010
0001
0100
0010
1000
0000
1001
0000
,
0001
0000
0000
0000
0010
0000
0001
0000
0000
0000
0010
0000
0001
0000
0100
0000
0010
0000
1000
0000
0100
0000
0020
0000
0002
0000
0000
0000
0030
0000
1003
0100
,
2000
0000
0000
0000
3100
0000
0000
0000
2200
0000
0000
0000
0300
0000
3001
0010
0002
0000
0000
0000
0013
0000
0000
0000
0022
0000
0000
0000
0033
0000
0000
0000
,
1000
0000
0100
0010
0000
0001
1000
0100
0010
0100
1000
0001
0100
0000
0000
0000
,
0001
0010
0100
1000
0001
0100
0010
1000
,
0001
0100
0010
0100
0001
0010
0100
1000
0010
0100
0010
1000
0100
0010
0001
0100
,
0010
0100
0001
0010
0100
1000
0010
0100
0010
1000
0100
0010
0001
0000
0000
0000
,
1000
0010
0100
0010
1000
0100
0010
0001
0100
0010
1000
0010
0100
0010
1000
0001
,
0010
0000
0001
0000
0011
0000
1000
0100
1000
0000
0010
0000
1010
0000
0000
0000
,
1000
0010
0100
0010
1000
0100
0010
0001
0100
0010
0100
0001
0010
0100
1000
0010
,
0100
0010
1000
0100
0010
0001
0100
0010
0100
0001
0010
0100
1000
0000
0000
0000
,
0001
0100
0010
0100
0001
0010
0100
1000
0010
0100
0001
0100
0010
0100
0001
1000
,
0010
0000
1000
0000
1010
0000
0100
0001
0100
0000
0001
0000
0101
0000
1000
0010
,
1000
0100
1000
0010
0100
0001
0010
0001
1000
0100
1000
0010
0100
0001
0010
0001
,
1000
0100
1000
0010
0100
0001
0010
0001
1000
0100
1000
0010
0100
0000
0000
0000
,
0001
0010
0001
0100
0010
1000
0100
1000
0001
0010
0001
0100
0010
1000
0100
1000
,
0001
0000
0100
0000
0101
0000
0010
1000
0010
0000
1000
0000
1010
0000
0000
0000
,
0001
0010
0001
0100
0010
1000
0100
1000
0001
0010
0001
0100
0010
1000
0100
1000
,
0001
0010
0001
0100
0010
1000
0100
1000
0001
0010
0001
0100
0010
0000
0000
0000
,
1000
0100
1000
0010
0100
0001
0010
0001
1000
0100
1000
0010
0100
0001
0010
0001
,
1000
0100
1000
0010
0100
0001
0010
0001
0100
0010
1000
0100
0010
0001
0010
0100
,
2000
0000
0010
3020
0000
2030
0000
0001
,
3001
0100
0010
0100
0002
0000
0100
0000
0103
0010
1000
0010
0200
0000
0010
0000
,
0320
0000
1000
2030
0000
3200
0000
0010
,
0310
0001
0010
0100
0020
0000
0001
0000
0031
1000
0100
1000
0002
0000
0100
0000
,
0203
0000
0010
0320
0000
2030
0000
3002
,
0000
0203
0000
0302
0023
0230
2300
3020
,
0230
0302
0000
0023
0000
0230
0000
1000
,
1300
0010
0100
0010
2000
0000
0001
0000
3001
0100
0010
0100
0002
0000
0010
0000
,
0023
0000
0000
0000
0032
0000
0000
0000
2003
0000
0000
0000
3100
0010
0002
0000
,
1000
0000
0000
0000
0013
0100
2000
0000
0002
0000
3000
0000
0003
0000
1000
0100
,
0010
0002
0000
0023
0000
0230
0000
1000
,
1300
0001
0010
0001
2000
0000
0010
0000
3010
0100
0001
0100
0020
0000
1000
0000
,
2030
0000
0010
3020
0000
0230
0000
0001
,
0302
0000
1000
2003
0000
3020
0000
1000
,
2030
3200
0320
0032
,
1003
0010
0100
0010
1000
0100
0010
0001
0100
0010
0100
0001
1000
0100
0010
0002
,
2000
0000
0000
0000
,
0000
0000
0000
0000
,
0000
0000
0000
0000
,
0000
0000
0000
3003
,
1000
0100
0010
0002
0000
2000
0000
0020
,
0000
3033
0000
0000
0000
0000
0000
0000
,
0001
0010
0100
2000
0000
0002
0000
0020
,
0000
3033
0000
0000
0000
0000
0000
0000
,
1000
0100
0001
0200
0000
2000
0000
0002
,
0000
3303
0000
0000
0000
0000
0000
0000
,
0001
0100
1000
0200
0000
0002
0000
2000
,
0000
0000
0000
0000
,
0000
0000
3303
0000
;

//---------------dance-single - TaroNuke----------------
#NOTES:
     dance-single:
     TaroNuke:
     Hard:
     8:
     0.493,0.652,0.246,0.520,0.033:
0000
0000
0000
0000
,
0000
0000
0000
0000
,
0000
0000
0000
0000
,
0000
0000
0000
0000
,
0000
0000
0000
0000
,
1000
0001
1000
0010
0000
0100
0000
0002
,
0000
0003
0000
0000
0000
0000
0000
0000
,
0001
1000
0001
0010
0000
0100
0000
0010
,
0000
0000
0000
0000
0000
1001
0000
0000
,
1000
0100
1000
0000
0001
0100
0001
0000
,
1000
0100
0010
0000
0100
0010
0001
0000
,
1000
0001
0100
0010
0000
0100
0000
0010
,
1000
0010
0100
0010
1000
0100
0010
0001
,
1000
0010
1000
0000
0001
0010
0001
0000
,
1000
0010
0100
0000
0001
0100
0010
0000
,
1000
0100
1000
0001
0000
0100
0000
0010
,
0000
1001
1001
0000
,
1100
0000
0000
0110
0000
0000
0012
0000
0000
0000
0000
0000
0000
0000
0000
0000
,
2003
0000
3002
0000
0203
0000
0320
0030
,
1010
0000
0000
0110
0000
0000
0201
0000
0000
0000
0000
0000
0000
0000
0000
0000
,
0302
0000
0023
0000
2030
0000
3020
0030
,
0011
0000
0000
0110
0000
0000
2100
0000
0000
0000
0000
0000
0000
0000
0000
0000
,
3020
0000
0230
0000
0302
0000
2003
3000
,
0101
0000
0000
0110
0000
0000
1020
0000
0000
0000
0000
0000
0000
0000
0000
0000
,
1030
0100
0010
0001
0100
0000
0010
0000
,
1000
0100
0010
0001
0100
0010
1000
0100
,
0010
0001
0100
0010
2000
0000
3000
0000
,
0001
0010
0100
1000
0010
0100
0001
0010
,
0100
1000
0010
0100
0001
0000
1001
0000
,
1000
0100
0001
0100
1000
0010
0100
0001
,
1000
0100
0001
0100
2000
0000
3000
0000
,
0001
0100
1000
0100
0001
0100
0010
1000
,
0001
0100
1000
0100
0001
0000
1001
0000
,
1000
0100
1000
0100
1000
0010
1000
0010
,
0100
0001
0100
0001
0020
0000
0030
0000
,
0001
0100
0001
0100
1000
0100
1000
0100
,
0001
0010
1000
0010
0001
0000
1001
0000
,
1000
0100
0001
0100
1000
0001
0010
1000
,
0010
0001
1000
0100
0002
M000
0003
0000
,
1000
0010
0001
1000
0100
0001
0100
1000
,
0001
0010
1000
0010
0001
0010
0100
1000
,
0002
0000
0203
0320
0000
2030
0000
3002
,
0000
0203
2300
3200
,
0302
0000
0203
0000
,
0320
0000
0032
0000
,
2003
0000
0000
0000
,
0000
0000
0000
3200
0302
0023
2030
3020
,
0032
0203
0000
0320
0000
0230
0000
0302
,
0000
0000
0000
0000
0000
0000
0013
0100
,
2000
0000
0000
0000
0000
0000
0000
0000
0000
0000
0000
0000
3001
0100
0002
0000
,
0000
0000
0000
0000
1003
0010
2000
0000
0000
0000
0000
0000
0000
0000
3100
0010
,
0001
0100
0000
0010
0000
1000
0000
0100
,
0000
1000
0000
0001
0000
0010
0000
0200
,
0000
0000
0000
2300
0000
0000
0000
0000
,
0000
0000
0000
0000
,
3001
0100
0010
0100
0001
1000
0010
1000
,
0001
0100
1000
0100
0001
0010
1000
0020
,
0002
0000
0000
0000
,
0000
0000
0000
0000
,
0033
0000
0000
0000
,
0000
0000
0000
0000
,
1000
0001
0100
0010
0000
1001
0000
0110
,
0000
0000
0000
0000
,
1000
0100
0010
0001
0000
1100
0000
0011
,
0000
0000
0000
0000
,
1000
0010
0100
0001
0000
1010
0000
0202
,
0000
0303
0000
0000
0000
0000
0000
0000
,
0001
0100
0010
1000
0000
0101
0000
2020
,
0000
0000
0000
0000
,
3030
0000
0000
0000
;

//---------------dance-single - TaroNuke----------------
#NOTES:
     dance-single:
     TaroNuke:
     Medium:
     5:
     0.308,0.394,0.095,0.274,0.019:
0000
0000
0000
0000
,
0000
0000
0000
0000
,
0000
0000
0000
0000
,
0000
0000
0000
0000
,
0000
0000
0000
0000
,
1000
0000
0000
0001
0000
0000
0000
2002
,
0000
3003
0000
0000
0000
0000
0000
0000
,
0001
0000
0000
1000
0000
0000
0000
1001
,
0000
0000
0000
0000
0000
1001
0000
0000
,
1000
0010
1000
0010
,
1000
0001
1000
0001
,
0100
0001
0100
0001
,
0010
0001
0010
0000
,
0001
0100
0010
1000
,
0100
1000
0010
0100
,
0001
1000
0001
1000
,
0010
0000
0000
0000
,
1000
0000
0000
1000
0000
0000
2000
0000
0000
0000
0000
0000
0000
0000
0000
0000
,
3002
0203
0320
2030
,
3001
0000
0000
0001
0000
0000
0002
0000
0000
0000
0000
0000
0000
0000
0000
0000
,
2003
3200
0320
0032
,
1003
0000
0000
0010
0000
0000
2000
0000
0000
0000
0000
0000
0000
0000
0000
0000
,
3020
0230
2300
3200
,
0301
0000
0000
0010
0000
0000
0002
0000
0000
0000
0000
0000
0000
0000
0000
0000
,
1003
0100
0010
0000
1001
0000
0000
0000
,
1000
0100
1000
0100
1000
0000
0000
0000
,
0001
0001
0001
0000
,
0001
0100
0001
0100
0001
0000
0000
0000
,
0010
0010
0010
0000
,
0100
0010
0100
0010
0100
0000
0000
0000
,
0010
0010
0010
0000
,
1000
0010
1000
0010
1000
0000
0000
0000
,
0010
0010
0010
0000
,
1000
0000
0000
0100
0000
0000
0000
0010
,
0000
0000
0000
0001
1000
0000
0000
0000
,
0001
0000
0000
0010
0000
0000
0000
0100
,
0000
0000
0000
1000
0001
0000
0000
0000
,
1000
0100
0000
2000
0000
3100
0000
2000
,
0000
3100
0000
1000
0100
0000
0010
0000
,
0001
0100
0000
0002
0000
0103
0000
0002
,
0000
0203
0000
0320
0000
0000
0000
0000
,
1030
0100
1000
0000
,
0001
0100
0001
0000
,
0100
0000
0100
0000
,
0010
0000
0010
0000
,
1000
0001
1000
0000
,
0001
1000
0001
0100
,
0010
0100
0001
1000
,
0100
0010
0001
1000
,
0001
0001
0001
0000
,
1000
1000
1000
0000
,
0010
0010
0010
0100
,
0001
0100
0010
1000
,
0010
0000
1010
0000
,
0100
0000
0101
0000
,
0001
1000
0001
1000
,
0001
1000
0001
1000
0001
1000
0001
1000
,
0020
0000
0000
0000
,
0000
0000
0000
0000
,
0000
0000
0000
0000
,
0030
0000
0000
0000
,
1000
0000
0000
0001
0000
0000
0000
1001
,
0000
0000
0000
0000
,
0100
0000
0000
0010
0000
0000
0000
0110
,
0000
0000
0000
0000
,
1000
0000
0000
0010
0000
0000
0000
2020
,
0000
3030
0000
0000
,
0001
0000
0000
0100
0000
0000
0000
0202
,
0000
0000
0000
0000
,
0000
0000
0303
0000
;

//---------------dance-single - TaroNuke----------------
#NOTES:
     dance-single:
     TaroNuke:
     Easy:
     3:
     0.185,0.296,0.038,0.085,0.000:
0000
0000
0000
0000
,
0000
0000
0000
0000
,
0000
0000
0000
0000
,
0000
0000
0000
0000
,
0000
0000
0000
0000
,
1000
0000
1000
0000
,
1000
0000
0000
0000
,
0001
0000
0001
0000
,
0001
0000
0000
0000
,
1000
0000
0100
0000
,
0001
0000
0010
0000
,
1000
0000
0010
0000
,
0001
0000
0100
0000
,
1000
0000
0100
0000
,
0001
0000
0010
0000
,
1000
0000
0001
0000
,
1001
0000
0000
0000
,
1000
0000
0002
0003
,
0100
0000
0010
0000
,
1000
0000
2000
3000
,
0001
0000
0001
0000
,
0100
0000
0200
0300
,
0010
0000
0010
0000
,
1000
0000
0002
0003
,
1000
0001
1000
0001
1000
0000
0000
0000
,
0001
0000
0010
0000
,
0100
0000
1000
0000
,
0001
0000
0010
0000
,
0100
0000
1000
0000
,
0001
0000
0100
0000
,
0010
0000
1000
0000
,
0001
0000
0100
0000
,
0010
0000
1000
0000
,
0001
0000
1000
0000
,
0010
0000
0100
0000
,
0001
0000
1000
0000
,
0010
0000
0100
0000
,
0001
0000
1000
0000
,
0100
0000
0010
0000
,
0001
0000
1000
0000
,
0100
0000
0010
0000
,
0001
0010
0001
0000
,
0001
0010
0001
0000
,
0001
1000
0001
0000
,
0001
1000
0001
0000
,
0001
0100
0001
0000
,
0001
0100
0001
0000
,
0001
1000
0001
1000
,
0001
0100
0001
0000
,
1000
0000
1000
0000
,
1000
0000
1000
0000
,
0010
0000
0100
0000
,
0010
0000
0100
0000
,
0001
0000
0001
0000
,
0001
0000
0001
0000
,
2000
0000
0000
0000
,
3002
0000
0000
0000
,
2000
0000
0000
0000
,
0000
0000
0000
0000
,
0000
0000
0000
0000
,
3003
0000
0000
0000
,
1000
0000
1000
0000
,
1000
0000
0000
0000
,
0001
0000
0001
0000
,
0001
0000
0000
0000
,
0100
0000
0100
0000
,
0100
0000
0000
0000
,
0110
0000
0000
0110
0000
0000
0000
0220
,
0000
0000
0000
0000
,
0000
0000
0330
0000
;
