#TITLE:SUPERGABBER;
#SUBTITLE:;
#ARTIST:Hakkuhbar;
#TITLETRANSLIT:;
#SUBTITLETRANSLIT:;
#ARTISTTRANSLIT:;
#CREDIT:;
#BANNER:SUPERGABBER.png;
#BACKGROUND:SUPERGABBER-bg.png;
#LYRICSPATH:SUPERGABBER.lrc;
#CDTITLE:;
#MUSIC:SUPERGABBER.mp3;
#OFFSET:-0.050;
#SAMPLESTART:29.360;
#SAMPLELENGTH:13.330;
#SELECTABLE:YES;
#DISPLAYBPM:180.000;
#BPMS:0.000=180.000,88.000=360.000,104.000=180.000,296.000=360.000,312.000=180.000;
#STOPS:;
#BGCHANGES:-1.000=SUPERGABBER.avi=1.000=0=0=0,
392.000=SUPERGABBER-bg.png=1.000=1=0=1,
99999=-nosongbg-=1.000=0=0=0 // don't automatically add -songbackground-
;

//---------------dance-single - ----------------
#NOTES:
     dance-single:
     :
     Hard:
     9:
     0.697,0.772,0.582,0.351,0.012: // measure 1
0000
0000
0000
0000
,  // measure 2
0000
0000
0000
0001
,  // measure 3
1001
0000
1000
0010
0100
0000
0001
0010
,  // measure 4
0100
0000
1000
0001
0000
0001
1000
0010
,  // measure 5
0100
0000
1001
0000
0010
0000
0100
0010
,  // measure 6
0002
0010
1000
0103
,  // measure 7
0110
0000
1001
0000
1010
0000
0001
0100
,  // measure 8
0001
0010
0000
0100
0010
0000
0001
1000
,  // measure 9
0100
0000
1000
0000
0001
0000
0100
0010
,  // measure 10
2000
0010
0001
3100
,  // measure 11
0011
0000
0001
0100
1000
0100
0001
0000
,  // measure 12
0010
0001
1000
0000
0110
0000
0001
1000
,  // measure 13
0100
0010
0100
0000
1000
0000
0001
0100
,  // measure 14
0010
0000
0100
0000
1001
0000
0010
0100
,  // measure 15
0010
0000
1000
0001
1000
0000
0001
0000
,  // measure 16
0010
0001
0100
0010
1000
0000
0001
0000
,  // measure 17
0010
0100
0010
0100
0010
0000
0001
1000
,  // measure 18
0001
1010
0101
0110
,  // measure 19
1002
1000
2000
3003
,  // measure 20
0210
0010
0020
0330
,  // measure 21
2001
0001
0001
0000
0002
0000
3003
0000
,  // measure 22
0120
0100
0100
0000
0200
0000
0330
0000
,  // measure 23
2002
0000
0000
0000
,  // measure 24
0000
0000
0000
0000
,  // measure 25
0000
0000
0000
0000
,  // measure 26
0000
0000
3003
0000
,  // measure 27
1002
0000
1003
0000
0001
0100
0010
2000
,  // measure 28
0100
0000
3100
0000
0100
0010
0001
0200
,  // measure 29
0001
0000
0301
0000
0100
0010
0100
0010
,  // measure 30
1000
0100
0010
0001
0100
0010
1000
0001
,  // measure 31
0021
0000
0031
0000
1000
0010
0100
0002
,  // measure 32
1000
0000
1003
0000
0001
0100
1000
0200
,  // measure 33
0010
0000
0310
0000
0100
0001
0100
0001
,  // measure 34
1000
0100
0010
0001
0100
0010
1000
0001
,  // measure 35
1001
0000
1001
0000
0001
0100
0010
1000
,  // measure 36
1100
0000
1100
0000
0100
0010
0001
0100
,  // measure 37
0101
0000
0101
0000
0001
0100
0010
1000
,  // measure 38
0001
0010
1000
0010
0001
0100
0010
1000
,  // measure 39
1100
0000
1001
0000
0001
0010
0100
0010
,  // measure 40
0011
0000
0101
0000
0010
1000
0100
1000
,  // measure 41
1001
0000
0110
0000
0010
1000
0100
0010
,  // measure 42
0001
0010
0001
1000
0100
1000
0010
0100
,  // measure 43
0001
0000
0100
0000
0001
0000
0000
0000
1000
0000
0100
0000
1000
0000
0000
0001
,  // measure 44
0010
0100
0010
0100
1000
0001
0100
0000
,  // measure 45
0010
0100
0001
0000
0010
0100
1000
0000
,  // measure 46
0010
0100
0001
1000
0100
0010
0001
0000
,  // measure 47
1001
0000
0110
0000
0001
0010
0100
2000
,  // measure 48
0000
3010
0100
0010
1000
0100
0010
0001
,  // measure 49
0100
0000
1001
0000
0010
1000
0001
0020
,  // measure 50
0000
0000
0031
0000
0100
0000
0001
0000
1000
0000
0000
1000
0100
0000
0010
0000
,  // measure 51
0001
0000
1100
0000
0001
0100
0010
0100
,  // measure 52
1000
0100
0010
0100
0001
0010
0100
0010
,  // measure 53
0001
0000
1001
0000
1000
0100
0010
0100
,  // measure 54
0001
0000
0100
0000
0010
0000
0001
0000
0010
0000
0001
1000
0001
0000
0100
0000
,  // measure 55
0001
0000
0100
0001
0100
0000
0001
0000
,  // measure 56
1000
0000
0100
1000
0100
0000
0010
0000
,  // measure 57
0100
0020
0000
0000
0031
0000
0001
0100
,  // measure 58
0010
0000
0100
0010
1000
0100
0010
0000
,  // measure 59
0100
1000
0001
0000
0100
0000
0010
0000
,  // measure 60
1000
0001
0100
0010
1000
0000
0001
0000
,  // measure 61
1000
0100
0010
0001
0200
0000
0010
0310
,  // measure 62
0000
0010
1000
0001
1000
0000
1001
0000
,  // measure 63
0001
0010
0100
0000
0010
0000
0001
0000
,  // measure 64
1000
0010
0100
0010
0000
0100
0001
1000
,  // measure 65
0100
0110
1001
0110
,  // measure 66
2002
3003
0220
0330
,  // measure 67
0010
1000
0010
1000
0001
0100
0001
0100
,  // measure 68
0001
0000
1000
0100
0010
0000
0100
0000
,  // measure 69
0010
0001
0100
0010
1000
0001
1000
0000
,  // measure 70
0010
0100
0110
1001
,  // measure 71
0012
1000
0200
0303
,  // measure 72
2010
0010
0010
0000
0002
0000
3003
0000
,  // measure 73
0120
0100
0100
0000
2000
0000
3030
0000
,  // measure 74
2100
0100
0100
0000
0002
0000
3003
0000
,  // measure 75
0220
0000
0000
0000
,  // measure 76
0000
0000
0000
0000
,  // measure 77
0000
0000
0000
0000
,  // measure 78
0000
0000
0330
0000
,  // measure 79
1001
0000
1001
0000
0001
0010
0100
0010
,  // measure 80
0011
0000
0011
0000
0001
0100
0010
1000
,  // measure 81
1010
0000
1010
0000
0010
1000
0100
0010
,  // measure 82
0001
0010
0001
0100
0001
0010
0001
1000
,  // measure 83
1001
0000
0101
0000
0010
1000
0100
0010
,  // measure 84
0011
0000
1001
0000
1000
0010
0100
0010
,  // measure 85
0110
0000
1001
0000
0001
0100
0010
1000
,  // measure 86
0001
1000
0010
1000
0100
1000
0010
0100
,  // measure 87
0110
0000
2001
0000
3100
0010
0001
0100
,  // measure 88
0101
0000
2001
0000
3010
1000
0100
0010
,  // measure 89
0110
0000
1002
0000
0103
1000
0100
0010
,  // measure 90
1000
1000
0100
0010
0100
0100
0010
0001
,  // measure 91
1001
0000
0210
0000
0301
0100
1000
0100
,  // measure 92
1001
0000
0102
0000
0013
0100
0010
0001
,  // measure 93
1100
0000
1002
0000
0103
0001
0100
0010
,  // measure 94
1000
0100
1000
0100
0001
0100
0001
0100
,  // measure 95
0220
0000
0000
0000
,  // measure 96
0000
0000
0000
0000
,  // measure 97
0000
0000
0000
0330
;

//---------------dance-single - ----------------
#NOTES:
     dance-single:
     :
     Beginner:
     3:
     0.172,0.231,0.104,0.016,0.000:
0000
0000
0000
0000
,
0000
0000
0000
0000
,
1000
0000
0000
0000
,
0001
0000
0100
0000
,
0001
0000
1000
0000
,
0100
0000
0000
0000
,
1000
0000
0000
0000
,
0001
0000
0100
0000
,
0001
0000
1000
0000
,
0001
0000
0000
0000
,
0100
0000
0000
0000
,
0010
0000
0000
0000
,
0100
0000
0010
0000
,
0100
0000
0010
0000
,
1000
0000
0000
0000
,
0001
0000
0000
0000
,
1000
0000
0001
0000
,
1000
0000
0000
0000
,
1001
0000
0000
0000
,
0110
0000
0000
0000
,
1001
0000
0000
0000
,
1001
0000
0000
0000
,
0110
0000
0000
0000
,
0000
0000
0000
0000
,
0000
0000
0000
0000
,
0000
0000
0000
0000
,
0100
0000
0000
0000
,
0010
0000
1000
0000
,
0001
0000
1000
0000
,
0100
0000
0010
0000
,
0001
0000
0000
0000
,
1000
0000
0001
0000
,
1000
0000
0001
0000
,
0100
0000
0010
0000
,
0100
0000
0000
0000
,
0010
0000
0000
0000
,
1000
0000
0001
0000
,
1000
0000
0100
0000
,
0010
0000
0000
0000
,
0100
0000
0000
0000
,
0010
0000
0001
0000
,
1000
0000
0001
0000
,
1001
0000
0000
0000
,
1000
0000
0000
0000
,
0001
0000
0001
0000
,
1000
1000
1000
0000
,
0001
0000
0100
0000
,
0010
0000
1000
0000
,
0100
0000
0010
0000
,
0001
0000
0000
0000
,
1000
0000
0001
0000
,
0100
0000
0001
0000
,
1000
0000
0100
0000
,
1000
0000
0001
0000
,
1001
0000
0000
0000
,
1000
0000
0000
0000
,
0001
0000
0100
0000
,
0001
0000
1000
0000
,
0001
0000
0000
0000
,
0100
0000
0000
0000
,
0010
0000
1000
0000
,
0100
0000
0010
0000
,
0100
0000
0000
0000
,
0010
0000
0000
0000
,
0001
0000
1000
0000
,
0001
0000
1000
0000
,
0001
0000
0000
0000
,
0100
0000
0000
0000
,
0010
0000
0100
0000
,
0010
0000
1000
0000
,
1001
0000
0000
0000
,
1001
0000
0000
0000
,
0110
0000
0000
0000
,
0110
0000
0000
0000
,
1001
0000
0000
0000
,
0000
0000
0000
0000
,
0000
0000
0000
0000
,
0000
0000
0000
0000
,
0001
0000
0000
0000
,
0100
0000
0010
0000
,
0100
0000
0010
0000
,
1000
0000
0001
0000
,
1000
0000
0000
0000
,
0001
0000
0010
0000
,
0100
0000
0010
0000
,
0001
0000
0001
0000
,
1000
0000
0001
0000
,
0100
0000
0100
0000
,
0010
0000
1000
0000
,
0001
0000
0001
0000
,
1000
0000
0100
0000
,
0010
0000
0010
0000
,
0100
0000
1000
0000
,
0001
0000
0001
0000
,
2002
0000
0000
0000
,
0000
0000
0000
0000
,
0000
0000
0000
3003
;

//---------------dance-single - ----------------
#NOTES:
     dance-single:
     :
     Easy:
     5:
     0.333,0.386,0.120,0.207,0.000:
0000
0000
0000
0000
,
0000
0000
0000
1000
,
0001
0000
0100
0000
,
0010
0100
0010
0000
,
1000
0100
0010
0001
,
0200
0000
0300
0000
,
0010
1000
0001
0000
,
1000
0001
0100
0000
,
0001
1000
0100
0010
,
0200
0000
0300
0000
,
0010
0001
1000
0100
,
0010
0100
1000
0000
,
0001
0100
0010
0100
,
0001
0000
1001
0000
,
1000
0010
0100
0000
,
0001
0010
0100
0000
,
0001
1000
0001
0100
,
0010
0000
1000
0000
,
2002
0000
3003
0000
,
2002
0000
3003
0000
,
0220
0000
0330
0000
,
0220
0000
0330
0000
,
1001
0000
0000
0000
,
0000
0000
0000
0000
,
0000
0000
0000
0000
,
0000
0000
0000
0000
,
0001
1000
0100
0000
,
1000
0001
0100
0000
,
0010
0100
0001
0010
,
0100
0010
0001
1000
,
0010
1000
0010
0000
,
0100
0001
0100
0000
,
0001
0010
0100
0010
,
0001
1000
0100
0010
,
0100
0100
0100
0000
,
0010
0010
0010
0000
,
0001
1000
0001
0100
,
0010
1000
0010
1000
,
0001
0001
0001
0000
,
1000
1000
1000
0000
,
0001
0100
1000
0100
,
0010
1000
0001
0010
,
0200
0000
0000
0000
,
0320
0000
0000
0000
,
0032
0000
2003
0000
,
0001
0001
0001
3001
,
1001
0000
0001
0100
,
0010
1000
0100
0010
,
0100
0000
0010
0000
,
0001
1000
0001
0000
,
1000
0000
0001
0000
,
0100
0010
1000
0100
,
0010
0000
0100
0000
,
0010
0001
1000
0000
,
1001
0000
0001
0000
,
0100
0100
0100
0000
,
0010
1000
0100
0010
,
0200
0000
0000
0300
,
0010
0000
0001
0010
,
0001
1000
0001
0000
,
1000
0010
0100
0010
,
2000
0000
0000
3000
,
0001
1000
0001
1000
,
0100
0010
0100
0000
,
0010
0001
1000
0001
,
0100
0000
0110
0000
,
0010
1000
0100
0000
,
0010
0001
0100
0000
,
0001
1000
0001
0100
,
0010
0010
1000
0001
,
0220
0000
0330
0000
,
0220
0000
0330
0000
,
2002
0000
3003
0000
,
2002
0000
3003
0000
,
1001
0000
0000
0000
,
0000
0000
0000
0000
,
0000
0000
0000
0000
,
0000
0000
0000
0000
,
1000
0000
0001
0100
,
0001
0000
0100
0010
,
0100
0000
0010
1000
,
0100
0010
0001
0100
,
0010
0000
0100
0010
,
1000
0000
0010
0100
,
0001
0000
1000
0100
,
0010
0001
0100
0010
,
1000
1000
0001
0100
,
0010
0010
1000
0001
,
0100
0100
0001
1000
,
0100
0001
0100
1000
,
0001
0001
0010
0100
,
0010
0010
0001
1000
,
0100
0100
1000
0010
,
0100
0001
0100
0010
,
2002
0000
0000
0000
,
0000
0000
0000
0000
,
0000
0000
0000
3003
;

//---------------dance-single - ----------------
#NOTES:
     dance-single:
     :
     Medium:
     7:
     0.523,0.617,0.351,0.319,0.000:
0000
0000
0000
0000
,
0000
0000
0000
0100
,
0010
1000
0001
1000
,
0100
0000
0010
0100
0000
0010
0100
0000
,
0010
0000
0001
0000
1000
0000
0010
0100
,
0020
0000
0000
1030
,
0001
0000
1000
0000
0001
0000
1000
0100
,
1000
0000
0010
0000
0100
0000
0001
1000
,
0001
1000
0100
0010
,
2002
0000
0000
3003
,
0001
0000
0100
0001
1000
0000
0100
1000
,
0001
0100
0010
1000
,
0100
0000
0010
0000
0100
0000
0010
0002
,
2000
0000
3003
0000
,
0001
0000
0100
0001
1000
0000
0010
0000
,
1000
0000
0001
1000
0100
0000
0010
0000
,
0100
0010
0100
0010
0100
0000
0010
0000
,
0001
1000
0010
0100
,
0220
0330
0110
0000
,
2002
3003
1001
0000
,
2020
3030
0101
0000
,
0022
0033
1100
0000
,
2002
0000
0000
0000
,
0000
0000
0000
0000
,
0000
0000
0000
0000
,
0000
0000
3003
0000
,
0001
0000
1000
0000
0001
0010
0001
0000
,
1000
0000
0001
0000
1000
0010
1000
0000
,
0001
0100
0010
1000
,
0100
0000
0010
0000
0100
0010
0100
0010
,
0001
0000
1000
0000
0010
0100
0001
0000
,
0010
0000
0100
0000
0010
0001
1000
0000
,
0010
0000
0100
0000
0010
1000
0001
0000
,
1000
0000
0100
0000
0010
0001
1000
0001
,
0100
0000
0110
0000
0001
1000
0001
0000
,
1000
0000
1001
0000
0001
0010
0001
0000
,
1000
0000
1100
0000
0010
0001
0100
0000
,
0010
1000
0010
0000
0100
0001
1000
0000
,
0001
0000
1001
0000
1000
0010
0100
0000
,
0010
0000
0110
0000
0100
0001
0010
0000
,
0100
0000
1100
0000
1000
0001
0100
0000
,
0001
0010
0001
1000
0100
0000
0001
0000
,
2000
0010
0001
0001
,
0010
0100
0001
3002
,
0010
0023
0100
0230
,
0010
0010
1000
1300
,
1001
0000
1001
0000
0001
0000
0100
0020
,
0000
1030
0100
0010
,
0001
0000
1000
0000
0001
0100
0001
2000
,
0000
0000
3001
0000
1000
0001
1000
0000
,
0010
0000
0100
0000
0001
0000
0010
0200
,
0000
1000
0010
1300
,
0001
0000
1000
0000
0001
0000
0100
0002
,
0000
0010
1000
0103
,
0010
1000
0100
1000
,
0010
0000
0100
0001
0100
0000
0001
0000
,
1000
0100
0000
1000
0100
0000
0010
0000
,
0001
1000
0220
0330
,
0010
1000
0001
0000
0010
0000
0001
0000
,
1000
0000
0100
1000
0001
0000
0010
0000
,
0001
1000
0001
1000
0001
0000
0100
0010
,
0100
0010
1000
0100
,
0010
0100
1000
0000
0010
0000
0100
0000
,
0001
0000
1000
0100
0000
0010
0001
0000
,
1000
0001
0100
0010
,
2002
0000
3003
0000
,
0001
0100
0001
1000
0100
0000
1000
0000
,
0001
0000
0010
0100
1000
0000
0010
0000
,
1000
0010
0100
0000
0001
0010
0100
0000
,
1002
0010
1000
0103
,
0220
0330
0110
0000
,
2002
3003
1001
0000
,
0220
0330
0110
0000
,
2002
3003
1001
0000
,
2002
0000
0000
0000
,
0000
0000
0000
0000
,
0000
0000
0000
0000
,
0000
0000
3003
0000
,
1001
0000
0100
0000
0001
1000
0100
0000
,
0010
0000
0100
0000
0010
0001
1000
0000
,
0010
0000
0100
0000
0001
0100
0010
1000
,
0100
0000
0010
0000
0100
0000
1000
0001
,
1000
0000
0100
0000
0010
0001
0100
0000
,
0010
0000
0100
0000
0010
1000
0001
0000
,
1000
0000
0100
0000
0010
0000
0001
1000
,
0001
0000
0100
0000
0010
1000
0001
0000
,
1001
0000
1001
0000
1000
0010
0100
0000
,
0110
0000
0110
0000
0010
1000
0001
0000
,
1001
0000
1001
0000
0001
0010
0100
0010
,
0001
1000
0001
0100
,
0110
0000
1001
0000
1000
0001
0010
0000
,
0110
0000
1001
0000
1000
0010
0100
0000
,
0110
0000
1001
0000
0001
0100
0010
0100
,
0001
1000
0100
0010
,
2002
0000
0000
0000
,
0000
0000
0000
0000
,
0000
0000
0000
3003
;
