#TITLE:Reaper;
#SUBTITLE:;
#ARTIST:Noise Lab;
#TITLETRANSLIT:;
#SUBTITLETRANSLIT:;
#ARTISTTRANSLIT:;
#GENRE:;
#CREDIT:;
#BANNER:bn.png;
#BACKGROUND:bg.png;
#LYRICSPATH:;
#CDTITLE:;
#MUSIC:Reaper.ogg;
#OFFSET:-0.009;
#SAMPLESTART:42.869;
#SAMPLELENGTH:12.000;
#SELECTABLE:YES;
#DISPLAYBPM:70.000:140.000;
#BPMS:0.000=69.990,24.000=139.980,120.000=69.990,120.167=279.960,120.500=139.980,121.500=559.920,123.250=139.980,124.000=559.920,125.250=139.980,129.000=559.920,132.000=69.990,134.000=139.980,135.000=559.920,137.250=139.980,138.000=559.920,139.500=139.980,143.000=559.920,146.000=69.990,148.167=279.960,148.500=139.980,149.500=559.920,151.250=139.980,152.000=559.920,153.250=139.980,157.000=559.920,160.000=69.990,162.000=139.980,163.000=559.920,165.250=139.980,166.000=559.920,167.500=139.980,180.000=559.920,180.500=139.980,188.000=559.920,188.500=139.980,189.000=559.920,189.500=139.980,190.000=69.990,192.000=139.980,194.000=559.920,194.500=139.980,240.000=69.990;
#STOPS:121.500=0.080
,121.750=0.080
,122.000=0.080
,122.250=0.080
,122.500=0.080
,122.750=0.080
,123.000=0.080
,124.000=0.080
,124.250=0.080
,124.500=0.080
,124.750=0.080
,125.000=0.080
,129.000=0.080
,129.250=0.080
,129.500=0.080
,129.750=0.080
,130.000=0.080
,130.250=0.080
,130.500=0.080
,130.750=0.080
,131.000=0.080
,131.250=0.080
,131.500=0.080
,131.750=0.080
,135.000=0.080
,135.250=0.080
,135.500=0.080
,135.750=0.080
,136.000=0.080
,136.250=0.080
,136.500=0.080
,136.750=0.080
,137.000=0.080
,138.000=0.080
,138.250=0.080
,138.500=0.080
,138.750=0.080
,139.000=0.080
,139.250=0.080
,143.000=0.080
,143.250=0.080
,143.500=0.080
,143.750=0.080
,144.000=0.080
,144.250=0.080
,144.500=0.080
,144.750=0.080
,145.000=0.080
,145.250=0.080
,145.500=0.080
,145.750=0.080
,149.500=0.080
,149.750=0.080
,150.000=0.080
,150.250=0.080
,150.500=0.080
,150.750=0.080
,151.000=0.080
,152.000=0.080
,152.250=0.080
,152.500=0.080
,152.750=0.080
,153.000=0.080
,157.000=0.080
,157.250=0.080
,157.500=0.080
,157.750=0.080
,158.000=0.080
,158.250=0.080
,158.500=0.080
,158.750=0.080
,159.000=0.080
,159.250=0.080
,159.500=0.080
,159.750=0.080
,163.000=0.080
,163.250=0.080
,163.500=0.080
,163.750=0.080
,164.000=0.080
,164.250=0.080
,164.500=0.080
,164.750=0.080
,165.000=0.080
,166.000=0.080
,166.250=0.080
,166.500=0.080
,166.750=0.080
,167.000=0.080
,167.250=0.080
,180.000=0.080
,180.250=0.080
,188.000=0.080
,188.250=0.080
,189.000=0.080
,189.250=0.080
,194.000=0.080
,194.250=0.080
;
#BGCHANGES:;
#FGCHANGES:0.000=animations/mods=1.000=0=0=1=====,
119.000=animations/s1=1.000=0=0=1=====,
171.500=animations/s2=1.000=0=0=1=====,
;
#KEYSOUNDS:;

//---------------dance-single - warpdr!ve----------------
#NOTES:
     dance-single:
     warpdr!ve:
     Hard:
     9:
     0.586,0.762,0.023,0.793,0.539:
0000
0000
0000
0000
,
0000
0000
0000
0000
,
2000
0000
0000
3000
0000
0000
0020
0000
0000
0030
0000
0200
0000
0000
0300
0001
,
2000
0000
0000
3200
0000
0000
0320
0000
0000
0032
0000
0000
2003
0000
0000
3000
,
0002
0000
0000
0003
0000
0000
0200
0000
0000
0300
0000
0002
0000
0000
0003
0100
,
0020
0000
0000
2030
0000
0000
3200
0000
0000
0320
0000
0000
0032
0000
4003
3040
,
1030
0000
0001
0000
0010
0100
0000
0100
1000
0000
0001
0000
0100
0010
0000
0010
,
1000
0000
0001
0000
0010
0100
0000
0100
0010
0000
0001
0000
0000
1000
0000
0000
,
0010
0000
0000
1000
0000
0000
0001
0010
,
0001
0000
1000
0000
0010
1000
0000
1000
0001
0000
0000
1000
0010
0000
0010
0000
,
0001
0000
0100
0000
0010
1000
0000
1000
0001
0000
0010
0000
0100
0010
0000
0010
,
0001
0000
1000
0000
0001
0100
0000
0100
0010
0000
1000
0000
0000
0001
0000
0000
,
0010
0000
0000
0001
0000
0000
1000
0010
,
0100
0000
0000
0000
0001
0000
4000
3400
,
0320
0000
0030
0010
0002
0000
1003
0000
0020
0000
0030
0010
0200
0000
0301
0000
,
2000
0000
3000
1000
0200
0000
0310
0000
0002
0000
0003
1000
0M1M
0000
0000
0000
,
2000
0000
3000
1000
0200
0000
0310
0000
0002
0000
0003
0001
0200
0000
0310
0000
,
2000
0000
3000
1000
0200
0000
1300
0000
0002
0000
0003
1000
0M1M
0000
0000
0000
,
0200
0000
0301
0000
2000
0100
301M
0100
0020
0000
0031
0000
2000
0010
310M
0010
,
0200
0000
0301
0000
2000
0100
301M
0100
0020
0000
0031
1000
0M1M
1000
0000
0001
,
0000
1000
0100
1000
0000
0010
0000
0100
0000
0001
1000
0001
0000
1000
0100
0010
,
0000
0100
0010
0001
0000
0010
0001
0010
0000
0000
0001
1000
0010
0010
0100
0000
,
0101
0002
1003
0200
,
0310
0000
0000
0000
0002
0000
0000
0000
0103
0000
0000
0010
2000
0000
0000
0000
,
3001
2000
3100
0020
,
0031
0000
0000
0000
2000
0000
0000
0000
3001
0000
0000
0100
0020
0000
0000
0000
,
1030
0200
0310
0002
,
1003
0000
0000
0000
0020
0000
0000
0000
0130
0000
0000
0001
2000
0000
0000
0000
,
3100
0000
0000
0000
,
0000
0000
0000
0000
,
200M
0M00
000M
3010
0000
0000
0100
0001
0100
0001
0100
0001
0100
0001
0000
0000
,
1000
0100
1000
0100
1000
0100
0010
0000
0001
0000
0100
0000
1000
0000
0100
0000
,
0002
0000
0003
0000
1000
0100
1000
0100
1000
0100
1000
0100
1000
0100
1000
0100
,
200M
0000
0000
3020
0000
0000
0130
0001
20M0
0000
3100
0000
0010
0001
0010
0001
,
0010
0001
0010
0001
0010
0001
0000
0000
1000
0010
1000
0010
1000
0010
4000
0000
,
3004
0000
0043
0000
0430
0000
0340
0000
0032
0000
0003
0000
0010
0001
0010
0001
,
0010
0001
0010
0001
0010
0001
0010
0001
M020
0000
0000
0032
0000
0000
0003
1000
,
0M20
000M
0M00
1030
0000
0000
0010
1000
0010
1000
0010
1000
0010
1000
0000
0000
,
0001
0010
0001
0010
0001
0010
0100
0000
1000
0000
0010
0000
0001
0000
0010
0000
,
2000
0000
3000
0000
0100
0010
0100
0010
0100
0010
0100
0010
0100
0010
0100
0010
,
0200
0000
0000
2300
0000
0000
3010
0100
0002
0000
1003
0000
0001
0010
0001
0010
,
0001
0010
0001
0010
0001
0010
0000
0000
0100
1000
0100
1000
0100
1000
0004
0000
,
4003
3040
0430
0304
1003
0000
0000
0000
,
0000
0000
0000
0000
,
0000
0000
0001
0000
1000
0000
0001
0000
0100
0000
0000
0110
0000
0000
0010
0000
,
1000
0001
1000
0000
0100
0000
0010
0000
0002
0000
0003
0000
4000
0000
3040
0000
,
0034
0000
0043
0000
4030
0000
3001
0000
0010
0000
0000
0011
0000
0000
0001
0000
,
1000
0100
1000
0000
0001
0010
0001
0000
M200
0000
0000
0000
0320
0000
0000
1030
,
0M02
0003
0000
0000
0000
0000
0020
0000
0030
0000
0000
0000
0002
0000
0000
0003
1000
0000
0010
0000
1000
0000
0000
0000
0002
0000
0000
0000
0203
0000
0000
0000
,
0310
0000
4000
3040
0034
0043
4030
3000
,
0000
0000
0000
0000
,
0000
0000
0000
0000
,
0002
0000
0203
0310
,
2000
0000
3000
0002
0000
0003
0000
0010
,
0002
0000
0000
2003
0000
0000
3020
0000
,
0000
0230
0000
0000
0302
0000
0003
0000
,
2000
0000
3100
0020
,
0000
0000
0030
0002
0000
0000
0003
1000
,
0020
0000
0000
2030
0000
0000
3002
0000
,
0000
0023
0000
0000
0230
0000
0000
0300
,
200M
3000
0100
0000
1000
0000
0001
0000
0200
0300
0010
0000
0100
0000
0001
0000
2000
3000
0000
0000
0100
0000
0000
0000
0020
0030
0000
0000
0001
0000
1000
0000
,
0020
0030
0000
0000
0000
0000
0000
0000
0200
0300
0000
0000
0000
0000
0000
0000
0002
0003
1000
0000
0100
0000
0010
0000
0200
0300
0000
0000
1000
0000
0000
0000
,
0002
0003
0100
0000
0010
0000
0100
0000
0002
0003
1000
0000
0100
0000
0010
0000
0200
0300
0000
0000
1000
0000
0000
0000
0002
0003
0000
0000
0100
0000
0010
0000
,
2000
3000
0000
0000
0000
0000
0000
0000
0200
0300
0000
0000
0000
0000
0000
0000
0020
0030
0001
0000
1000
0000
0001
0000
0200
0300
0000
0000
0010
0000
0000
0000
;

//---------------dance-single - warpdr!ve----------------
#NOTES:
     dance-single:
     warpdr!ve:
     Easy:
     4:
     0.210,0.245,0.008,0.239,0.000:
0000
0000
0000
0000
,
0000
0000
0000
0000
,
1000
0100
1000
0100
,
0010
0001
0010
0001
,
1000
0010
1000
0010
,
0100
0001
0100
0001
,
1000
0000
0100
0000
,
0010
0000
0001
0000
,
1000
0000
0010
0000
,
0100
0000
0001
0001
,
1000
0000
0100
0000
,
1000
0000
0001
0000
,
0100
0000
0010
0000
,
0100
0000
0001
1001
,
1000
0100
1000
0100
,
1000
0100
1000
0000
,
0001
0100
0001
0100
,
0001
0100
0001
0000
,
1000
0010
1000
0010
,
1000
0010
1000
0000
,
0001
0010
0001
0010
,
0001
0010
0000
0000
,
0000
0002
0003
0200
,
0300
0002
0003
2000
,
3000
0200
0300
2000
,
3000
0002
0003
0200
,
0300
0020
0030
2000
,
3000
0002
0003
0020
,
0030
0000
0000
0000
,
0000
0000
0000
0000
,
0001
0000
1000
1000
,
0010
0010
0100
0000
,
0001
1000
1000
1000
,
0200
0000
0310
0001
,
0001
0001
1000
1000
,
0100
0000
1000
0010
,
0010
0010
2000
0000
,
3001
0000
0010
0010
,
0001
0001
0100
0000
,
0010
0100
0100
0100
,
0002
0000
1003
0010
,
0010
0010
1000
1000
,
0001
0000
0000
0000
,
0000
0000
0000
0000
,
0000
0000
1000
0000
,
0001
0000
0100
0000
,
0001
0000
1000
0000
,
0100
0100
2000
0000
,
3001
0000
0100
0000
,
0010
0000
1000
0000
,
0000
0000
0000
0000
,
0000
0000
0000
0000
,
0002
0000
0203
0300
,
0020
0000
0000
1030
0000
0000
0000
0000
,
0200
0000
0000
0320
0000
0000
0230
0000
,
0000
2300
0000
0000
3001
0000
0000
0000
,
0200
0000
0300
0020
,
0000
0000
0000
2030
0000
0000
3000
0000
,
0020
0000
0000
0230
0000
0000
2300
0000
,
0000
3200
0000
0000
0320
0000
0000
0030
,
0001
0100
0010
1000
,
0010
0100
0001
0010
,
0001
0010
0100
1000
,
0001
0100
0010
1000
;

//---------------dance-single - warpdr!ve----------------
#NOTES:
     dance-single:
     warpdr!ve:
     Medium:
     7:
     0.381,0.467,0.023,0.531,0.081:
0000
0000
0000
0000
,
0000
0000
0000
0000
,
2000
0000
0000
3000
0000
0000
0020
0000
0000
0030
0000
0200
0000
0000
0300
0010
,
2000
0000
0000
3002
0000
0000
0023
0000
0000
0230
0000
0000
2300
0000
0000
3000
,
0002
0000
0000
0003
0000
0000
0200
0000
0000
0300
0000
0020
0000
0000
0030
0100
,
0002
0000
0000
2003
0000
0000
3200
0000
0000
0320
0000
0000
0032
0000
1003
0100
,
10M0
0001
0010
0000
0100
1000
0001
0000
,
0100
0010
0100
0000
0001
1000
0100
0000
,
1000
0001
0100
0000
0001
0100
0010
0000
,
1000
0100
0010
0000
0001
0010
0100
0000
,
0010
0001
1000
0010
0100
0000
0010
0000
,
1000
0100
0010
0001
0010
0000
0001
0000
,
1000
0001
0100
0010
0100
0000
0001
0000
,
1000
0100
1000
0001
0100
0000
0010
1000
,
0001
0000
0000
0001
0010
0000
0000
0000
0010
0000
0000
0010
0001
0000
0000
0000
,
0001
0000
0000
0001
0010
0000
0000
0000
0001
0000
0000
0000
1001
0000
0000
0000
,
1000
0000
0000
1000
0010
0000
0000
0000
0010
0000
0000
0010
1000
0000
0000
0000
,
1000
0000
0000
1000
0010
0000
0000
0000
0100
0000
0000
0000
1001
0000
0000
0000
,
0001
0010
0100
0000
0010
0100
1000
0000
,
0001
0100
0010
0000
1000
0000
1001
0000
,
0002
0203
0320
2030
,
3200
0320
0030
0000
,
0001
0200
0310
2000
,
3100
0020
0031
2000
,
3010
0200
0310
2000
,
3001
0020
0130
0020
,
0031
2000
3001
0200
,
0310
2000
3001
0020
,
0130
0000
0000
0000
,
0000
0000
0000
0000
,
2000
0000
3000
0010
1000
0010
1000
0000
,
0001
0010
0001
0000
0010
0000
0001
0000
,
2000
3000
0010
0100
0010
0100
0010
0100
,
002M
0000
0000
2000
0030
0000
0000
0000
3M02
0000
0003
0000
0010
0000
0100
0000
,
0010
0100
0010
0000
0001
1000
0001
0000
,
0100
0000
0010
0000
2000
3000
0100
0010
,
0100
0000
0010
0000
0100
0000
0010
0000
0M02
0000
0000
2000
0003
0000
0000
0000
,
302M
0000
0030
1000
0001
1000
0001
0000
,
0010
0100
0010
0000
0001
0000
1000
0000
,
0020
0030
0100
0001
0100
0001
0100
0001
,
M200
0000
0000
0020
0300
0000
0000
0000
203M
0000
3000
0000
0100
0000
1000
0000
,
0100
1000
0100
0000
0010
0001
0010
0000
,
0001
1000
0010
0000
,
0000
0000
0000
0000
,
0000
0000
0000
0000
0000
0000
0000
0000
1000
0000
0000
0010
0000
0000
0000
0000
,
0100
0100
0001
0000
0020
0000
0031
0000
,
1000
0000
0000
0000
0010
0000
0000
0000
0100
0000
0000
0010
0000
0000
0000
0000
,
1000
1000
0001
0001
M020
0000
0032
0000
,
1M03
0000
0000
1000
0000
0000
1000
0000
0010
0000
0010
0000
0200
0000
0000
0000
,
0302
0003
0010
0000
0100
0000
1000
0000
,
0000
0000
0000
0000
,
0000
0000
0000
0000
,
0002
0000
0203
0310
,
2000
0000
3000
0002
0000
0003
0000
0100
,
0020
0000
0000
2030
0000
0000
3200
0000
,
0000
0320
0000
0000
0032
0000
0003
0000
,
2000
0000
3010
0200
,
0000
0000
0300
0002
0000
0000
0003
1000
,
0020
0000
0000
0230
0000
0000
0302
0000
,
0000
2003
0000
0000
3200
0000
0000
0300
,
M010
0001
0010
0000
0001
1000
0001
0000
,
1000
0000
0010
0000
0100
0001
0100
0000
,
0001
1000
0001
0000
1000
0100
1000
0000
,
0010
0000
0100
0000
0001
1000
0001
1000
;

//---------------dance-single - warpdr!ve----------------
#NOTES:
     dance-single:
     warpdr!ve:
     Challenge:
     10:
     0.750,0.959,0.085,0.655,0.901:
0000
0000
0000
0000
,
0000
0000
0000
0000
,
2000
3010
0100
0010
1000
0001
0020
0130
1000
0000
0010
0000
0100
0000
0000
0002
,
2003
0000
3000
0200
0000
0300
0020
0000
0030
0002
0000
0003
2000
0000
3010
0000
,
0200
0301
1000
0010
1000
0100
0020
0031
1000
0000
0010
0000
0100
0000
0000
0002
,
2003
0000
3000
0200
0000
0300
2000
0000
3000
0002
0000
0003
0200
0000
0340
4030
,
3M01
0000
0010
0100
1000
0010
0100
0001
M010
0000
0001
1000
0010
1000
0001
0100
,
001M
0000
1000
0100
0010
0100
1000
0001
01M0
0000
0020
0130
0001
0200
0310
1000
,
0M02
0003
0010
0100
0010
0001
2000
3001
01M0
0000
0010
1000
0002
1003
0200
0310
,
M001
0000
0010
0100
1000
0010
0100
0001
M010
0000
0000
0001
0100
M0M0
0100
0000
,
1000
0000
0001
1000
0100
0010
0100
1000
00M1
0000
0100
0010
0100
0001
1000
0001
,
0M10
0000
0100
0010
0001
1000
0001
0100
M010
0000
0200
0301
1000
0002
0013
0100
,
200M
3000
0100
0010
0100
1000
0002
0103
M010
0000
0100
0001
2000
3001
0200
0310
,
100M
0100
1000
0100
0010
0001
0010
0001
1M00
0010
1000
0010
0400
0000
0304
0000
,
1003
0100
1000
0100
0010
0001
0010
0001
1000
0001
1000
0001
0010
0001
0010
0001
,
1000
0001
1000
0001
1000
0010
1000
0010
0100
0001
0100
0001
1000
0000
0000
0000
,
0001
0010
0001
0010
0100
1000
0100
1000
0001
1000
0001
1000
0100
1000
0100
1000
,
0001
1000
0001
1000
0010
1000
0010
1000
0001
0100
0001
0100
0010
0000
0000
0000
,
1000
0100
1000
0100
0010
0100
0010
0100
0010
0001
0010
0001
1000
0001
1000
0001
,
0100
0001
0100
0001
1000
0010
1000
0010
1000
0001
1000
0001
0100
0010
0000
1000
,
0000
0100
0010
0001
0000
1000
0000
0010
0000
0100
0001
1000
0000
0100
0010
0001
,
0000
1000
0010
0100
0000
0001
1000
0100
0000
0000
1000
0010
0100
0100
0001
0000
,
1001
4000
3100
0040
,
0130
0000
0000
0000
4000
0000
0000
0000
3001
0000
0000
0100
0040
0000
0000
0000
,
1030
0004
0013
0400
,
1300
0000
0000
0000
0004
0000
0000
0000
0103
0000
0000
0010
4000
0000
0000
0000
,
3100
0000
0040
0000
0130
0000
1000
0010
,
0100
0001
1000
0100
0010
0100
1000
0001
0100
0010
0100
0001
4000
0000
0000
0000
,
3001
0000
0000
0000
,
0000
0000
0000
0000
,
0MM0
0000
0000
0000
0000
0000
1000
0010
1000
0010
1000
0010
1000
0010
0000
0000
,
0100
0001
0100
0001
0100
0002
2003
3200
2300
3020
0230
0302
0023
0032
2003
3000
,
1010
0000
0000
0000
0010
0100
0010
0100
0010
0100
0010
0100
0010
0100
0010
0100
,
002M
0000
0000
2030
0000
0000
3001
0010
0M11
0000
0001
0000
1000
0100
1000
0100
,
1000
0100
1000
0100
1000
0100
0000
0000
1000
0001
1000
0001
1000
0001
4000
0000
,
3400
0000
0304
0000
0403
0000
1300
0000
1100
0000
0000
0000
0001
1000
0001
1000
,
0001
1000
0001
1000
0001
1000
0001
1000
0M20
0000
0000
0230
0000
0000
0300
0001
,
10M2
00M0
00M0
0103
0000
0000
0010
1000
0010
1000
0010
1000
0010
1000
0000
0000
,
0001
0010
0001
0010
0001
0020
0230
2300
3002
0203
0320
0230
0320
2030
3002
0003
,
1001
0000
0000
0000
1000
0100
1000
0100
1000
0100
1000
0100
1000
0100
1000
0100
,
002M
0000
0000
0032
0000
0000
0103
0010
1M10
0000
1000
0000
0001
0010
0001
0010
,
0001
0010
0001
0010
0001
0010
0000
0000
0100
1000
0100
1000
0100
1000
0004
0000
,
0403
4300
3400
0304
1003
0000
0000
0000
,
0000
0000
0000
0000
,
0000
0000
0MM0
0000
0000
0000
0000
0000
0001
0000
0000
0101
0000
0000
0100
0000
,
0010
1000
0001
0000
0020
0000
0032
0003
1001
0000
0000
0000
4000
0000
3040
0000
,
0034
0000
0043
0000
4030
0000
3001
0000
0010
0000
0000
0110
0000
0000
0100
0000
,
1000
0001
0100
0000
0010
1000
0001
0000
0M20
0000
0000
0000
0032
0000
0000
1003
,
0M20
0030
0000
0000
0000
0000
2000
0000
3000
0000
0000
0000
0002
0000
0000
0003
0010
0000
0100
0000
1000
0000
0000
0000
0002
0000
0000
0000
0203
0000
0300
0000
,
0101
0000
0004
0043
4030
3040
0034
0003
,
0000
0000
0000
0000
,
0000
0000
0000
0000
,
1000
0000
0001
0100
0010
0100
0000
0000
0001
0000
1000
0100
0000
0000
1000
0000
,
0000
0000
0001
0100
0010
1000
0000
0000
0100
0000
0010
0001
1000
0000
0000
0000
,
0010
0000
0100
0001
1000
0010
0000
0000
0100
0000
0000
0001
1000
0000
0100
0000
,
1000
0000
0001
0100
0010
1000
0000
0000
0100
0000
1000
0001
0100
0000
0000
0000
,
0001
0000
0010
0100
1000
0001
0000
0000
0010
0000
0001
1000
0010
0000
1000
0000
,
0001
0000
0010
0100
0010
0001
0000
0000
1000
0000
0010
0100
0001
0000
0010
0000
,
0200
0000
0000
2300
0000
0000
3002
0000
,
0000
0203
0000
0000
0320
0000
0000
0030
,
200M
3000
0100
0000
0010
0000
0001
0000
0200
0300
0010
0000
1000
0000
0001
0000
0200
0300
0000
0000
0010
0000
0000
0000
2000
3000
0000
0000
0001
0000
1000
0000
,
0020
0000
0000
0000
0130
0000
0002
0000
0000
0000
0000
0000
1003
0000
0000
0000
0002
0003
1000
0000
0100
0000
1000
0000
0200
0300
0000
0000
0010
0000
0000
0000
,
0002
0003
1000
0000
0010
0000
1000
0000
0002
0003
0100
0000
0010
0000
1000
0000
0200
0300
0000
0000
0010
0000
0000
0000
0200
0300
0000
0000
1000
0000
0001
0000
,
0200
0000
0000
0000
0310
0000
2000
0000
0000
0000
0000
0000
3100
0000
0000
0000
0020
0030
0001
0000
1000
0000
0001
0000
0200
0300
0000
0000
0010
0000
0000
0000
;

//---------------dance-single - No Mods----------------
#NOTES:
     dance-single:
     No Mods:
     Edit:
     10:
     -1.000,-1.000,-1.000,-1.000,-1.000:
0000
0000
0000
0000
,
0000
0000
0000
0000
,
2000
3010
0100
0010
1000
0001
0020
0130
1000
0000
0010
0000
0100
0000
0000
0002
,
2003
0000
3000
0200
0000
0300
0020
0000
0030
0002
0000
0003
2000
0000
3010
0000
,
0200
0301
1000
0010
1000
0100
0020
0031
1000
0000
0010
0000
0100
0000
0000
0002
,
2003
0000
3000
0200
0000
0300
2000
0000
3000
0002
0000
0003
0200
0000
0340
4030
,
3M01
0000
0010
0100
1000
0010
0100
0001
0010
0000
0001
1000
0010
1000
0001
0100
,
001M
0000
1000
0100
0010
0100
1000
0001
01M0
0000
0020
0130
0001
0200
0310
1000
,
0M02
0003
0010
0100
0010
0001
2000
3001
01M0
0000
0010
1000
0002
1003
0200
0310
,
M001
0000
0010
0100
1000
0010
0100
0001
M010
0000
0000
0001
0100
M0M0
0100
0000
,
1000
0000
0001
1000
0100
0010
0100
1000
00M1
0000
0100
0010
0100
0001
1000
0001
,
0M10
0000
0100
0010
0001
1000
0001
0100
M010
0000
0200
0301
1000
0002
0013
0100
,
200M
3000
0100
0010
0100
1000
0002
0103
M010
0000
0100
0001
2000
3001
0200
0310
,
100M
0100
1000
0100
0010
0001
0010
0001
1M00
0010
1000
0010
0400
0000
0304
0000
,
1003
0100
1000
0100
0010
0001
0010
0001
1000
0001
1000
0001
0010
0001
0010
0001
,
1000
0001
1000
0001
1000
0010
1000
0010
0100
0001
0100
0001
1000
0000
0000
0000
,
0001
0010
0001
0010
0100
1000
0100
1000
0001
1000
0001
1000
0100
1000
0100
1000
,
0001
1000
0001
1000
0010
1000
0010
1000
0001
0100
0001
0100
0010
0000
0000
0000
,
1000
0100
1000
0100
0010
0100
0010
0100
0010
0001
0010
0001
1000
0001
1000
0001
,
0100
0001
0100
0001
1000
0010
1000
0010
1000
0001
1000
0001
0100
0010
0000
1000
,
0000
0100
0010
0001
0000
1000
0000
0010
0000
0100
0001
1000
0000
0100
0010
0001
,
0000
1000
0010
0100
0000
0001
1000
0100
0000
0000
1000
0010
0100
0100
0001
0000
,
1001
4000
3100
0040
,
0130
0000
0000
0000
4000
0000
0000
0000
3001
0000
0000
0100
0040
0000
0000
0000
,
1030
0004
0013
0400
,
1300
0000
0000
0000
0004
0000
0000
0000
0103
0000
0000
0010
4000
0000
0000
0000
,
3100
0000
0040
0000
0130
0000
1000
0010
,
0100
0001
1000
0100
0010
0100
1000
0001
0100
0010
0100
0001
4000
0000
0000
0000
,
3001
0000
0000
0000
,
0000
0000
0000
0000
,
0MM0
0000
0000
0000
0000
0000
1000
0010
1000
0010
1000
0010
1000
0010
0000
0000
,
0100
0001
0100
0001
0100
0002
2003
3200
2300
3020
0230
0302
0023
0032
2003
3000
,
1010
0000
0000
0000
0010
0100
0010
0100
0010
0100
0010
0100
0010
0100
0010
0100
,
002M
0000
0000
2030
0000
0000
3001
0010
0M11
0000
0001
0000
1000
0100
1000
0100
,
1000
0100
1000
0100
1000
0100
0000
0000
1000
0001
1000
0001
1000
0001
4000
0000
,
3400
0000
0304
0000
0403
0000
1300
0000
1100
0000
0000
0000
0001
1000
0001
1000
,
0001
1000
0001
1000
0001
1000
0001
1000
0M20
0000
0000
0230
0000
0000
0300
0001
,
10M2
00M0
00M0
0103
0000
0000
0010
1000
0010
1000
0010
1000
0010
1000
0000
0000
,
0001
0010
0001
0010
0001
0020
0230
2300
3002
0203
0320
0230
0320
2030
3002
0003
,
1001
0000
0000
0000
1000
0100
1000
0100
1000
0100
1000
0100
1000
0100
1000
0100
,
002M
0000
0000
0032
0000
0000
0103
0010
1M10
0000
1000
0000
0001
0010
0001
0010
,
0001
0010
0001
0010
0001
0010
0000
0000
0100
1000
0100
1000
0100
1000
0004
0000
,
0403
4300
3400
0304
1003
0000
0000
0000
,
0000
0000
0000
0000
,
0000
0000
0MM0
0000
0000
0000
0000
0000
0001
0000
0000
0101
0000
0000
0100
0000
,
0010
1000
0001
0000
0020
0000
0032
0003
1001
0000
0000
0000
4000
0000
3040
0000
,
0034
0000
0043
0000
4030
0000
3001
0000
0010
0000
0000
0110
0000
0000
0100
0000
,
1000
0001
0100
0000
0010
1000
0001
0000
0M20
0000
0000
0000
0032
0000
0000
1003
,
0M20
0030
0000
0000
0000
0000
2000
0000
3000
0000
0000
0000
0002
0000
0000
0003
0010
0000
0100
0000
1000
0000
0000
0000
0002
0000
0000
0000
0203
0000
0300
0000
,
0101
0000
0004
0043
4030
3040
0034
0003
,
0000
0000
0000
0000
,
0000
0000
0000
0000
,
1000
0000
0001
0100
0010
0100
0000
0000
0001
0000
1000
0100
0000
0000
1000
0000
,
0000
0000
0001
0100
0010
1000
0000
0000
0100
0000
0010
0001
1000
0000
0000
0000
,
0010
0000
0100
0001
1000
0010
0000
0000
0100
0000
0000
0001
1000
0000
0100
0000
,
1000
0000
0001
0100
0010
1000
0000
0000
0100
0000
1000
0001
0100
0000
0000
0000
,
0001
0000
0010
0100
1000
0001
0000
0000
0010
0000
0001
1000
0010
0000
1000
0000
,
0001
0000
0010
0100
0010
0001
0000
0000
1000
0000
0010
0100
0001
0000
0010
0000
,
0200
0000
0000
2300
0000
0000
3002
0000
,
0000
0203
0000
0000
0320
0000
0000
0030
,
200M
3000
0100
0000
0010
0000
0001
0000
0200
0300
0010
0000
1000
0000
0001
0000
0200
0300
0000
0000
0010
0000
0000
0000
2000
3000
0000
0000
0001
0000
1000
0000
,
0020
0000
0000
0000
0130
0000
0002
0000
0000
0000
0000
0000
1003
0000
0000
0000
0002
0003
1000
0000
0100
0000
1000
0000
0200
0300
0000
0000
0010
0000
0000
0000
,
0002
0003
1000
0000
0010
0000
1000
0000
0002
0003
0100
0000
0010
0000
1000
0000
0200
0300
0000
0000
0010
0000
0000
0000
0200
0300
0000
0000
1000
0000
0001
0000
,
0200
0000
0000
0000
0310
0000
2000
0000
0000
0000
0000
0000
3100
0000
0000
0000
0020
0030
0001
0000
1000
0000
0001
0000
0200
0300
0000
0000
0010
0000
0000
0000
;
