#VERSION:0.81;
#TITLE:Reach for the Stars;
#SUBTITLE:(Sonic Colors opening theme);
#ARTIST:Jean Paul & Alexander Makhlouf;
#TITLETRANSLIT:;
#SUBTITLETRANSLIT:;
#ARTISTTRANSLIT:;
#GENRE:;
#ORIGIN:;
#CREDIT:;
#BANNER:[Qualifier Singles] - Reach for the Stars.png;
#BACKGROUND:[Qualifier Singles] - Reach for the Stars-bg.png;
#PREVIEWVID:;
#JACKET:[Qualifier Singles] - Reach for the Stars-jacket.png;
#CDIMAGE:;
#DISCIMAGE:;
#LYRICSPATH:[Qualifier Singles] - Reach for the Stars.lrc;
#CDTITLE:;
#MUSIC:[Qualifier Singles] - Reach for the Stars.ogg;
#OFFSET:2.088000;
#SAMPLESTART:61.509392;
#SAMPLELENGTH:18.916252;
#SELECTABLE:YES;
#BPMS:0.000=203.000;
#STOPS:;
#DELAYS:;
#WARPS:;
#TIMESIGNATURES:0.000=4=4;
#TICKCOUNTS:0.000=4;
#COMBOS:0.000=1;
#SPEEDS:0.000=1.000=0.000=0;
#SCROLLS:0.000=1.000;
#FAKES:;
#LABELS:0.000=Song Start;
#BGCHANGES:1.000=[Qualifier Singles] - Reach for the Stars.avi=1.000=0=0=0=StretchNoLoop====,
99999=-nosongbg-=1.000=0=0=0 // don't automatically add -songbackground-
;
#KEYSOUNDS:;
#ATTACKS:
;

//---------------dance-single - ----------------
#NOTEDATA:;
#CHARTNAME:;
#STEPSTYPE:dance-single;
#DESCRIPTION:;
#CHARTSTYLE:;
#DIFFICULTY:Beginner;
#METER:2;
#RADARVALUES:0.234735,0.242572,0.124796,0.124796,0.000000,134.000000,12.000000,12.000000,0.000000,0.000000,0.000000,0.000000,0.000000,0.234735,0.242572,0.124796,0.124796,0.000000,134.000000,12.000000,12.000000,0.000000,0.000000,0.000000,0.000000,0.000000;
#CREDIT:;
#NOTES:
// measure 0
0000
0000
0000
0000
,  // measure 1
0000
0000
0000
0000
,  // measure 2
1000
0000
0000
0000
,  // measure 3
0001
0000
0000
0000
,  // measure 4
0100
0000
0000
0000
,  // measure 5
0010
0000
0000
0000
,  // measure 6
1000
0000
1000
0000
,  // measure 7
0001
0000
0001
0000
,  // measure 8
1000
0000
0000
0000
,  // measure 9
0001
0000
0000
0000
,  // measure 10
0100
0000
0100
0000
,  // measure 11
0010
0000
0010
0000
,  // measure 12
0110
0000
0000
0000
,  // measure 13
2002
0000
3003
0000
,  // measure 14
1000
0000
1000
0000
,  // measure 15
0001
0000
0001
0000
,  // measure 16
1000
0000
0001
0000
,  // measure 17
1000
0000
0001
0000
,  // measure 18
0100
0000
0100
0000
,  // measure 19
0010
0000
0010
0000
,  // measure 20
0100
0000
0010
0000
,  // measure 21
0100
0000
0010
0000
,  // measure 22
1000
1000
1000
0000
,  // measure 23
0001
0001
0001
0000
,  // measure 24
1000
0000
0001
0000
,  // measure 25
1000
0001
1000
0000
,  // measure 26
0100
0100
0100
0000
,  // measure 27
0010
0010
0010
0000
,  // measure 28
0100
0000
0010
0000
,  // measure 29
0100
0010
0100
0000
,  // measure 30
1000
0000
0100
0000
,  // measure 31
1000
0000
0100
0000
,  // measure 32
0001
0000
0100
0000
,  // measure 33
0001
0000
0100
0000
,  // measure 34
1000
0000
0010
0000
,  // measure 35
1000
0000
0010
0000
,  // measure 36
0001
0000
0010
0000
,  // measure 37
0002
0000
0003
0000
,  // measure 38
1001
0000
0000
0000
,  // measure 39
1001
0000
0000
0000
,  // measure 40
0110
0000
0000
0000
,  // measure 41
0110
0000
0000
0000
,  // measure 42
1001
0000
0000
0000
,  // measure 43
0110
0000
0000
0000
,  // measure 44
1001
0000
0000
0000
,  // measure 45
0110
0000
0000
0000
,  // measure 46
1000
0000
0100
0000
,  // measure 47
0010
0000
0001
0000
,  // measure 48
1000
0000
0010
0000
,  // measure 49
0100
0000
0001
0000
,  // measure 50
0100
0000
0010
0000
,  // measure 51
1000
0000
0001
0000
,  // measure 52
0100
0000
0001
0000
,  // measure 53
0020
0000
0030
0000
,  // measure 54
1000
0000
0001
0000
,  // measure 55
1000
1000
1000
0000
,  // measure 56
0001
0000
1000
0000
,  // measure 57
0001
0001
0001
0000
,  // measure 58
1000
0000
0100
0000
,  // measure 59
1000
0000
0001
0000
,  // measure 60
0010
0000
0001
0000
,  // measure 61
1000
0000
0010
0000
,  // measure 62
0100
0000
0010
0000
,  // measure 63
0100
0100
0100
0000
,  // measure 64
0010
0000
0100
0000
,  // measure 65
0010
0010
0010
0000
,  // measure 66
1000
0000
0010
0000
,  // measure 67
0100
0000
0001
0000
,  // measure 68
1001
0000
0000
0000
,  // measure 69
0110
0000
0000
0000
,  // measure 70
2000
0000
0000
0000
,  // measure 71
0002
0000
3000
0000
,  // measure 72
2000
0000
0003
0000
,  // measure 73
0002
0000
3003
0000
,  // measure 74
0020
0000
0000
0000
,  // measure 75
0200
0000
0030
0000
,  // measure 76
0020
0000
0300
0000
,  // measure 77
0200
0000
0000
0330
;

//---------------dance-single - ----------------
#NOTEDATA:;
#CHARTNAME:;
#STEPSTYPE:dance-single;
#DESCRIPTION:;
#CHARTSTYLE:;
#DIFFICULTY:Easy;
#METER:4;
#RADARVALUES:0.307533,0.323429,0.155995,0.259991,0.000000,167.000000,15.000000,25.000000,0.000000,0.000000,0.000000,0.000000,0.000000,0.307533,0.323429,0.155995,0.259991,0.000000,167.000000,15.000000,25.000000,0.000000,0.000000,0.000000,0.000000,0.000000;
#CREDIT:vincentw;
#NOTES:
0000
0000
0000
0000
,
0000
0000
0000
0000
,
1000
0000
0001
0000
,
1000
0000
0001
0000
,
0100
0000
0010
0000
,
0100
0000
0010
0000
,
1000
0000
0100
0000
,
0010
0000
0001
0000
,
0200
0000
0300
2002
,
0000
0000
0000
3003
,
1000
0000
0010
0000
,
0100
0000
0001
0000
,
0101
0000
0000
2020
,
0000
0000
0000
3030
,
0001
0001
0001
0000
,
1000
1000
1000
0000
,
0010
0100
0010
0100
,
0010
0100
0010
0000
,
0100
0100
0100
0000
,
0010
0010
0010
0000
,
0001
1000
0001
1000
,
0001
1000
0001
0000
,
1000
0100
1000
0100
,
0010
0001
0010
0001
,
0100
0010
0100
0010
,
0100
0010
0100
0000
,
1000
0010
1000
0010
,
0100
0001
0100
0001
,
1000
0001
1000
0001
,
1000
0001
1000
0000
,
0000
0000
1000
0000
1000
0000
0000
2000
,
0000
0000
3001
0000
,
0000
0000
0001
0000
0001
0000
0000
0002
,
0000
0000
1003
0000
,
0000
0000
0100
0000
0100
0000
0000
0200
,
0000
0000
0000
0310
,
0110
0000
1001
0000
,
0110
0000
1001
0000
,
1000
0000
0000
1000
0000
0000
1000
0000
,
0001
0000
0000
0001
0000
0000
0001
0000
,
2002
0000
0000
0000
0000
3003
0000
0000
,
0220
0000
0000
0000
0000
0330
0000
0000
,
0000
1000
0001
0100
,
0010
0000
1000
0000
,
0002
0000
0000
0000
,
2000
0000
3003
0000
,
0100
0000
0000
0100
0000
0000
0100
0000
,
0010
0000
0000
0010
0000
0000
0010
0000
,
0220
0000
0000
0000
0000
0330
0000
0000
,
2002
0000
0000
0000
0000
3003
0000
0000
,
0000
0100
0010
1000
,
0001
0000
0010
0000
,
1001
0000
0000
0000
0000
0000
0000
0220
,
0000
0000
0000
0000
0000
0000
0000
0330
,
0000
1000
0000
1000
,
0000
1000
0000
1000
,
0000
0001
0000
0001
,
0000
0001
0000
0001
,
0000
0100
0000
0100
,
0000
0010
0000
0010
,
1000
0000
0100
0000
,
0010
0000
0001
0000
,
0000
0100
0000
0100
,
0000
0010
0000
0010
,
0000
1000
0000
1000
,
0000
0001
0000
0001
,
0000
0100
0000
0001
,
0000
0020
0000
0030
,
2002
0000
0000
0000
3003
0000
0000
0220
,
0000
0000
0000
0330
,
0000
1000
0000
0010
,
0000
0100
0000
0001
,
0000
0010
0000
0100
,
0000
1000
0000
0001
,
0000
0100
0000
0010
,
0000
1000
0000
0001
,
0000
0010
0000
0001
,
0000
1000
0000
0100
;

//---------------dance-single - ----------------
#NOTEDATA:;
#CHARTNAME:;
#STEPSTYPE:dance-single;
#DESCRIPTION:;
#CHARTSTYLE:;
#DIFFICULTY:Medium;
#METER:7;
#RADARVALUES:0.525926,0.607405,0.103997,0.509583,0.000000,295.000000,10.000000,49.000000,0.000000,0.000000,0.000000,0.000000,0.000000,0.525926,0.607405,0.103997,0.509583,0.000000,295.000000,10.000000,49.000000,0.000000,0.000000,0.000000,0.000000,0.000000;
#CREDIT:;
#NOTES:
0000
0000
0000
0000
,
0000
0000
0000
0000
,
1000
0000
0001
1000
0000
0000
0010
1000
,
0000
0000
0001
0100
0000
0010
1000
0001
,
0100
0000
0001
0010
0000
0000
0100
1000
,
0000
0000
0010
0100
0000
0001
1000
0001
,
2000
0100
3200
0010
,
0320
0001
0032
1000
,
2003
0000
0000
0000
0000
3001
2000
0002
,
0000
0000
0000
3003
,
0002
0010
0023
0100
,
0230
1000
2300
3001
,
1001
0000
0000
0000
0000
0100
0010
0220
,
0000
0000
0000
0330
,
0001
1000
0010
0000
,
1000
0100
0000
0001
0000
0100
0000
0020
,
0000
0001
0000
0001
0000
0100
0000
0100
,
0000
1000
0000
1000
0000
0100
0000
0130
,
0001
1000
0100
0000
,
0001
0010
0000
1000
0000
0010
0000
0100
,
0000
1000
0002
1000
0000
0010
0000
0010
,
0000
1000
0000
1000
0000
0100
0000
0103
,
0101
0000
0100
0000
0001
0100
0000
0002
,
0000
0000
0003
1000
0000
0010
0000
2020
,
0000
0000
0000
0000
3030
0000
0001
0002
,
0000
1000
0000
0100
0000
0010
0000
0103
,
0000
2000
3200
0302
,
0023
0000
0032
0000
0203
0000
2300
3010
,
0000
0200
0002
0000
0000
0000
0000
0303
,
0000
0020
0030
1000
0100
0010
0001
1000
,
0000
0000
1000
0000
0010
0100
0000
0001
,
0000
0000
1000
0000
0010
0100
0000
0001
,
0000
0000
1000
0000
0001
0010
0000
0100
,
0000
0000
1000
0000
0001
0010
0000
0100
,
0000
0000
0100
0000
1000
0001
0000
0020
,
0000
0001
0000
1000
0030
0001
1000
0000
,
0022
0000
0000
0033
0202
0000
0000
0303
,
2000
0000
0000
3000
0020
0000
0000
0030
,
0100
0000
0000
1001
0000
0000
0010
0000
,
1000
0000
0000
0110
0000
0000
0001
0000
,
1000
0100
0010
0100
,
1000
0001
0010
0001
,
0000
0100
0001
0010
,
1100
0000
0000
0000
0010
0000
0001
2000
,
0010
3000
0100
0000
0001
0000
0010
0000
,
0100
0000
1000
0000
0010
0000
0100
0001
,
1000
0000
0010
0100
0001
0000
0010
0000
,
0100
0000
1000
0001
0100
0000
1000
0000
,
0100
0010
0100
0010
0000
1000
0100
1000
,
0000
0001
0010
0001
0000
1000
0010
1000
,
0001
0100
1000
0100
,
0002
0000
1003
0000
0010
0000
0001
0010
,
0000
0100
0000
0001
0000
1000
0000
1001
,
0000
0100
0010
0100
0000
0010
0100
0010
,
0100
0000
0001
0010
0000
0100
0000
0010
,
0000
0001
0000
0200
0000
0000
0000
0300
,
0000
0000
0010
1000
0000
0001
0000
1000
,
0000
0010
0000
0002
0000
0000
0000
0003
,
0000
0000
0010
0100
0000
0010
0000
1000
,
0000
0001
0001
0010
,
0200
0000
2000
0300
,
0020
0000
3000
0200
0000
0000
0330
0000
,
0000
0000
0100
0001
0000
1000
0000
0001
,
0000
0100
0000
2000
0000
0000
0000
3000
,
0000
0000
0100
0010
0000
1000
0000
0001
,
0000
0010
0000
2000
0000
0000
0000
3000
,
0000
0000
0010
0000
0100
1000
0000
0010
,
0000
0100
0100
0001
,
2000
0000
0000
0000
3000
0001
0020
0200
,
0000
0000
0330
0001
,
1000
0000
0001
1000
0000
0000
0010
1000
,
0000
0000
0001
0100
0000
0010
1000
0001
,
0100
0000
0001
0010
0000
0000
0100
1000
,
0000
0000
0010
0100
0000
0001
1000
0001
,
1000
0000
0100
0010
0000
0000
1000
0100
,
0000
0000
0010
0001
0000
1000
0100
0010
,
0001
0000
0010
1000
0000
0000
0010
0100
,
0000
0000
1000
0001
0000
0100
0010
0100
;

//---------------dance-single - ----------------
#NOTEDATA:;
#CHARTNAME:;
#STEPSTYPE:dance-single;
#DESCRIPTION:;
#CHARTSTYLE:;
#DIFFICULTY:Hard;
#METER:9;
#RADARVALUES:0.742833,0.688392,0.696777,0.270391,0.020799,407.000000,67.000000,26.000000,0.000000,0.000000,0.000000,0.000000,0.000000,0.742833,0.688392,0.696777,0.270391,0.020799,407.000000,67.000000,26.000000,0.000000,0.000000,0.000000,0.000000,0.000000;
#CREDIT:;
#NOTES:
0000
0000
0000
0000
,
0000
0000
0000
0000
,
0010
1000
0001
1000
0000
0010
0100
0010
,
0000
1000
0001
1000
0000
0001
0100
0001
,
1000
0010
0100
0010
0000
1000
0010
1000
,
0000
0100
0010
0100
0000
1000
0001
0100
,
0201
0301
1020
1030
,
0012
0013
2100
3100
,
1002
0000
1003
0000
0010
0100
0001
2000
,
0001
0010
0001
3100
,
1000
0100
0001
0000
0001
0100
1000
0000
,
1000
0010
0001
0000
0001
0010
1000
0000
,
1000
0010
0100
0001
0010
0100
2000
0002
,
0000
0000
0000
3003
,
0010
0100
0001
0000
1001
0000
1000
0001
,
0100
0001
0000
1010
0000
0011
0000
0101
,
0000
0100
0001
0100
0000
0001
0000
0100
,
1000
0100
0010
0100
0000
0001
0100
0010
,
1000
0100
0001
0000
0110
0000
0001
0010
,
0100
0010
0000
1100
0000
0110
0000
1001
,
0000
1000
0001
1000
0000
0001
0000
1001
,
0000
0010
0001
0010
1000
0001
0100
1000
,
0100
0010
0001
0000
0010
0001
1000
0010
,
0000
0100
0001
1000
0000
0011
0000
2200
,
0000
0000
0000
0000
3300
0000
0001
1000
,
0000
0010
0100
0001
0010
0100
1000
0010
,
0100
0101
1010
1001
,
0110
0000
0011
0000
1001
0000
1000
0010
,
0000
1000
0100
0010
0000
1001
0000
0110
,
0000
0011
0000
0001
0100
0010
1000
0100
,
0010
0000
0011
0000
1000
0010
0000
0110
,
0000
1000
0010
1000
0001
0010
0001
0010
,
0000
0000
1010
0000
0100
1000
0000
1001
,
0000
0100
1000
0100
0010
0001
0010
0001
,
0000
0000
0011
0000
1000
0100
0000
1001
,
0000
0100
0010
0100
0001
1000
0100
0010
,
0002
0000
0203
0000
2300
0000
3020
0000
,
0032
0000
0000
0000
0020
0000
0000
0033
,
0011
0000
0000
1010
0000
0000
1001
0000
,
1100
0000
0000
0101
0000
0000
0110
0000
,
0100
0010
0100
0000
0001
1000
0001
0000
,
0010
0100
0010
0100
0000
0100
0001
0000
,
1100
0101
0011
1010
,
2002
0000
3003
0000
0110
0000
0001
2000
,
0100
0100
0010
0010
,
0001
3000
0001
1000
0000
1000
0010
0100
,
0001
0000
1000
0100
0000
0100
1000
0000
,
0010
0000
0100
0001
0000
0001
0100
0000
,
1000
0010
1000
0010
0000
0100
0001
0100
,
0000
0001
1000
0001
0000
0010
0100
0010
,
0001
1010
1001
1100
,
0220
0000
0330
0000
0100
0000
0010
0001
,
0000
1000
0010
1000
0000
0010
0100
0010
,
0000
0000
0010
0000
0000
0000
0010
0000
0000
0000
1000
0000
0001
1000
0001
1000
,
0001
0000
1000
0001
0000
0110
0000
1001
,
0000
0110
0000
1001
0000
1000
0100
0010
,
0001
0000
0100
0010
0000
1001
0000
0110
,
0000
1001
0000
0110
0000
0001
0010
0100
,
1000
0000
0010
1000
0001
0010
0100
1000
,
0000
0001
0100
0000
0001
0010
0001
0000
,
1000
0100
1000
0100
0010
0001
0010
0001
,
0100
0000
0001
0000
0100
0000
0002
0000
0000
0000
0003
0000
0100
0010
0100
0010
,
0100
0000
0010
0100
0000
0101
0000
0011
,
0000
1010
0000
1100
0000
1000
0001
0100
,
0010
0000
1000
0001
0000
0011
0000
0101
,
0000
1100
0000
1010
0000
0010
1000
0001
,
1000
0000
1000
0000
0010
0100
0000
0001
,
0000
0001
0100
0000
0010
0000
1000
0000
,
2020
0000
0000
3030
0000
0100
0001
0202
,
0000
0000
0000
0303
0101
0000
1001
0000
,
0010
1000
0001
1000
0000
0010
0100
0010
,
0000
1000
0001
1000
0000
0001
0100
0001
,
1000
0010
0100
0010
0000
1000
0010
1000
,
0000
0100
0010
0100
0000
1000
0001
0100
,
0010
1000
0100
1000
0000
0100
0010
0100
,
0000
0010
0001
0010
0000
0001
1000
0001
,
0100
0010
1000
0001
0000
0010
0001
0100
,
0000
0001
0100
1000
0100
0001
0010
1000
;

//---------------dance-single - ----------------
#NOTEDATA:;
#CHARTNAME:;
#STEPSTYPE:dance-single;
#DESCRIPTION:;
#CHARTSTYLE:;
#DIFFICULTY:Challenge;
#METER:10;
#RADARVALUES:0.897342,1.000000,0.821573,0.322389,0.057198,494.000000,79.000000,31.000000,0.000000,0.000000,0.000000,0.000000,0.000000,0.897342,1.000000,0.821573,0.322389,0.057198,494.000000,79.000000,31.000000,0.000000,0.000000,0.000000,0.000000,0.000000;
#CREDIT:;
#NOTES:
0000
0000
0000
0000
,
0000
0000
0000
0000
,
0010
1000
0001
1000
0100
1000
0000
0110
,
0000
0001
1000
0001
0010
0001
0100
0001
,
1000
0010
0100
0010
0001
0010
0000
1010
,
0000
0100
0001
0100
0010
0100
1000
0100
,
0001
0010
0001
0010
0100
1000
0100
1000
,
0010
1000
0010
1000
0001
0100
0001
0100
,
0010
0100
0010
0100
0001
1000
0001
2000
,
0001
0010
0001
3100
,
1000
0100
0001
0100
1000
0100
0001
0100
,
1000
0010
0001
0010
1000
0010
0001
0010
,
1000
0000
0010
0000
0100
0000
0001
0000
0010
0000
0100
0000
2000
0000
0002
3000
,
0000
0003
2000
3000
0002
0000
2000
0003
0000
3000
0002
0003
2000
3000
0002
0003
,
1000
0001
1010
0000
0101
1000
0010
0100
,
0001
1001
0000
0011
0000
1100
0000
0110
,
0000
1000
0010
0100
0001
0010
0100
0001
,
1000
0010
0100
1000
0001
0100
0010
1000
,
0001
0100
1001
0000
1100
0001
0010
0001
,
1000
1010
0000
0101
0000
0011
0000
0110
,
0000
0000
2200
3300
0000
0000
0022
0033
0000
0000
0220
0330
0000
0000
2002
3003
,
0000
0000
2020
0000
0000
3030
0101
0000
0100
0000
0010
0000
1000
0001
1000
0001
,
1000
0110
0000
0110
0000
1001
0000
1001
,
0000
1000
0100
1000
0100
0010
0001
0010
,
0001
0010
1000
0010
0000
0101
0000
0101
,
0000
0010
0100
0001
0010
0100
1000
0010
,
0100
0101
0000
1010
0000
1001
0000
0110
,
0000
0001
0010
0001
1000
0100
1000
0001
,
0000
1000
0100
0010
0000
1001
0000
0110
,
0000
0000
0010
0000
0100
0000
0001
0000
0100
0000
0010
0001
0100
0001
0100
0001
,
0010
0000
0011
0000
1000
0010
0000
0110
,
0000
1000
0010
1000
0001
0010
0001
0010
,
0100
0000
1010
0000
0100
1000
0000
1001
,
0000
0100
1000
0100
0010
1000
0010
1000
,
0010
0000
0011
0000
1000
0100
0000
1001
,
0000
0001
0010
1000
0010
0001
0100
0001
,
0020
0031
2000
3010
0200
1300
0002
0103
,
0020
0000
0000
0000
0002
0000
0000
0033
,
1010
0000
1000
0001
0010
0000
0100
1000
,
0001
0010
0000
0010
0000
0010
0100
0000
,
0011
0000
0010
0001
1000
0000
1000
0010
,
0100
0001
0000
0001
0000
0001
0101
0000
,
1100
0000
0001
1000
0100
0000
0010
0001
,
1000
0100
0000
0100
0000
0100
0010
0000
,
1100
0000
0100
1000
0001
0000
0001
0100
,
0010
0000
1000
0000
0000
0000
1000
0000
0000
0000
1000
0000
0001
0010
0001
0010
,
0001
1000
0100
1000
0000
0010
1000
0001
,
0000
0100
0001
0010
0000
1000
0010
0100
,
0010
0001
1000
0010
0000
0100
0001
1000
,
0000
0001
0010
1000
0000
0001
0100
1000
,
0001
0100
0010
1000
0000
0100
0010
1000
,
0000
0010
0001
0100
0000
0010
1000
0001
,
0010
0100
0001
0100
1000
0010
1000
1010
,
0000
0000
0011
0000
0000
0000
0100
0000
1000
0000
0010
0000
1000
0100
0010
0001
,
1000
0010
0100
0110
0000
0001
1000
1001
,
0000
0100
1000
1100
0000
0010
0001
0011
,
0100
0010
0100
0101
0000
1000
0010
1010
,
0000
0010
0001
0011
0000
1000
0100
0110
,
0001
1000
0010
0110
0000
0001
0010
0101
,
0000
0010
1000
1010
0000
0100
1000
0001
,
0020
0031
1000
0010
0200
1300
0100
0010
,
2000
0000
3001
0000
0010
0000
0200
0000
0301
0000
1000
0000
0100
0010
1000
0001
,
0010
0000
0011
0110
0000
1100
0001
1100
,
0000
1010
0001
1010
0000
0110
1000
0110
,
0001
0011
0010
0101
0000
1001
0100
1001
,
0010
0011
0100
1100
1000
1010
0101
0110
,
1001
0000
1000
0001
0010
0100
0000
1000
,
0001
0010
0000
0010
0000
0010
0100
0000
,
0110
0010
0100
1000
0001
1000
0100
0022
,
0000
0000
0000
0033
1100
0000
1001
0000
,
0011
1000
0001
0010
0000
1000
0001
0010
,
0000
1000
0100
0001
0000
1000
0010
0001
,
0010
1000
0001
0010
0000
1000
0001
0010
,
0000
1000
0001
0100
0000
0001
0010
0001
,
0100
0001
1000
0100
0000
0001
1000
0100
,
0000
0001
0010
1000
0000
0001
0100
1000
,
0100
0001
1000
0100
0000
0001
1000
0100
,
0000
0001
1000
0010
0000
1000
0100
1000
;
