#VERSION:0.81;
#TITLE:Rat Twist;
#SUBTITLE:;
#ARTIST:PIXL;
#TITLETRANSLIT:;
#SUBTITLETRANSLIT:;
#ARTISTTRANSLIT:;
#GENRE:;
#ORIGIN:;
#CREDIT:;
#BANNER:[Qualifier Singles] - Rat Twist-bn.png;
#BACKGROUND:[Qualifier Singles] - Rat Twist-bg.png;
#PREVIEWVID:;
#JACKET:[Qualifier Singles] - Rat Twist-jacket.png;
#CDIMAGE:;
#DISCIMAGE:;
#LYRICSPATH:;
#CDTITLE:cdtitle.png;
#MUSIC:[Qualifier Singles] - Rat Twist.ogg;
#OFFSET:0.000;
#SAMPLESTART:46.869;
#SAMPLELENGTH:15.000;
#SELECTABLE:YES;
#DISPLAYBPM:128.000;
#BPMS:0.000=128.000,
99.500=192.000,
100.000=128.000,
124.500=160.000,
125.500=128.000,
126.000=160.000,
127.000=128.000,
127.500=160.000,
128.500=128.000,
129.000=160.000,
129.500=128.000,
131.500=192.000,
132.000=128.000,
167.500=192.000,
170.500=128.000,
175.500=192.000,
178.500=128.000,
183.500=192.000,
186.500=128.000,
199.500=192.000,
202.500=128.000,
207.500=192.000,
210.500=128.000,
215.500=192.000,
219.000=128.000,
240.000=160.000,
244.000=128.000,
256.000=160.000,
260.000=128.000;
#STOPS:99.500=0.026,
99.667=0.027,
99.833=0.025,
124.500=0.047,
125.000=0.047,
126.000=0.047,
126.500=0.046,
127.500=0.047,
128.000=0.047,
129.000=0.047,
131.500=0.026,
131.667=0.027,
131.833=0.025,
167.500=0.078,
168.000=0.078,
168.500=0.078,
169.000=0.079,
169.500=0.078,
170.000=0.077,
175.500=0.078,
176.000=0.079,
176.500=0.078,
177.000=0.079,
177.500=0.077,
178.000=0.078,
183.500=0.078,
184.000=0.079,
184.500=0.078,
185.000=0.078,
185.500=0.078,
186.000=0.078,
199.500=0.078,
200.000=0.079,
200.500=0.077,
201.000=0.079,
201.500=0.078,
202.000=0.078,
207.500=0.078,
208.000=0.078,
208.500=0.078,
209.000=0.078,
209.500=0.078,
210.000=0.078,
215.500=0.078,
216.000=0.079,
216.500=0.078,
217.000=0.079,
217.500=0.077,
218.000=0.078,
218.500=0.079,
240.000=0.047,
240.500=0.047,
241.000=0.047,
241.500=0.046,
242.000=0.047,
242.500=0.047,
243.000=0.047,
243.500=0.046,
256.000=0.047,
256.500=0.047,
257.000=0.047,
257.500=0.047,
258.000=0.047,
258.500=0.047,
259.000=0.047,
259.500=0.047;
#DELAYS:;
#WARPS:;
#TIMESIGNATURES:0.000=4=4;
#TICKCOUNTS:0.000=4;
#COMBOS:0.000=1;
#SPEEDS:0.000=1.000=0.000=0;
#SCROLLS:0.000=1.000;
#FAKES:;
#LABELS:0.000=Song Start;
#BGCHANGES:;
#KEYSOUNDS:;
#ATTACKS:
;

//---------------dance-single - ----------------
#NOTEDATA:;
#CHARTNAME:;
#STEPSTYPE:dance-single;
#DESCRIPTION:;
#CHARTSTYLE:;
#DIFFICULTY:Hard;
#METER:8;
#RADARVALUES:0.479,0.459,0.055,0.290,0.106,384.000,7.000,37.000,0.000,0.000,2.000,0.000,0.000,0.479,0.459,0.055,0.290,0.106,384.000,7.000,37.000,0.000,0.000,2.000,0.000,0.000;
#CREDIT:;
#DISPLAYBPM:128.000;
#NOTES:
0000
0000
0000
0000
,
0000
0000
0000
0000
,
0000
0000
0000
0000
,
0000
0000
0000
0000
,
0002
0000
0100
0000
1003
0000
0010
1000
,
0002
0100
1003
0100
,
2000
0000
0010
0000
3001
0000
0100
0001
,
0011
1100
0022
0033
,
1000
0000
0010
0000
0001
0000
0100
1000
,
0001
0000
0010
0000
1000
0000
0100
0001
,
1000
0000
0010
0000
0001
0000
0100
1000
,
0100
0001
0010
0001
0100
0001
0010
1000
,
0001
0000
0010
0000
1000
0000
0100
0001
,
1000
0000
0010
0000
0001
0000
0100
1000
,
0001
0000
0010
0000
1000
0000
0100
0001
,
0100
1000
0010
1000
0100
1000
0010
0001
,
1000
0010
0000
1000
0100
0001
0000
0001
,
0100
1000
0000
1000
0010
0100
0000
0100
,
0000
0100
0000
0001
0010
1000
0000
1000
,
0010
0001
0000
0001
0100
0010
0000
0010
,
0000
0010
0000
1000
0100
0010
0000
0010
,
0100
1000
0000
0010
0100
0001
1000
0001
,
0100
0001
0010
0001
0100
0001
0010
0001
,
1000
0010
0100
0001
1000
0010
0100
0001
,
0020
0000
0000
0000
0030
0000
0000
0004
,
1003
0000
0000
0010
0100
0000
1000
0000
0100
0000
0001
0000
0020
0000
0000
0000
,
0032
0000
0000
0100
0000
0000
1000
0000
0023
0000
0000
1000
0000
0000
0000
0000
,
0031
0000
0000
1000
0010
0000
0001
0000
0010
0000
0100
0000
0002
0000
0000
0000
,
2003
0000
0000
0100
0000
0000
0001
0000
3020
0000
0000
0000
0032
0000
0000
0000
,
1003
0000
0000
0100
0010
0000
0100
0000
0001
0000
1000
0000
0100
0000
0000
0000
,
2000
0000
0000
0010
0000
0000
0100
0000
3002
0000
0000
0010
0000
0000
0103
0000
,
0001
0010
0010
1000
0100
0100
0001
0010
,
0010
0000
0001
0000
0100
0000
0100
0001
0100
0000
0010
0000
1000
0000
4000
0000
,
3001
0000
0000
0010
0001
0000
0100
0000
1000
0000
0010
0000
0001
0000
1000
0000
,
0020
0000
0000
0100
0000
0000
0001
0000
2030
0000
0000
0100
0000
0000
0000
0000
,
3001
0000
0000
0010
1000
0000
0010
0000
0001
0000
0100
0000
1000
0000
0010
0000
,
0002
0000
0000
0100
0000
0000
1000
0000
0023
0000
0000
1000
0000
0000
0100
0000
,
0031
0000
0000
1000
0010
0000
0100
0000
1000
0000
0100
0000
0001
0000
1000
0000
,
0200
0000
0000
0001
0000
0000
1000
0000
0320
0000
0000
0001
0000
0000
0130
0000
,
1000
0010
0000
0100
0001
0000
0010
0001
,
1000
0000
0010
0000
0100
0001
0100
0010
,
2000
0000
3001
0010
0100
1000
0001
0100
,
0010
0000
0001
0000
1000
0000
0100
0000
0010
0000
0100
0001
0100
0000
0010
0000
,
2000
0000
3001
0010
1000
0001
0010
0001
,
0100
0000
1000
0000
0001
0000
0100
0000
0010
0000
1000
0001
1000
0100
0010
0000
,
0002
0000
0103
1000
0010
0001
1000
0010
,
0001
0000
0100
0000
0001
0000
0010
0000
1000
0000
0001
1000
0001
0000
0010
0000
,
0100
0000
1100
1000
0001
0000
0101
0000
,
0200
0000
0000
0010
0000
0000
0010
0000
0320
0000
0000
1000
0000
0000
1000
0000
,
2030
0000
3001
0010
1000
0010
0100
1000
,
0010
0000
0001
0000
0100
0000
1000
0000
0001
0000
0100
0010
0100
0000
0010
0000
,
2000
0000
3001
0010
1000
0100
0010
0001
,
0100
0000
1000
0000
0010
0000
0001
0000
0010
0000
1000
0001
1000
0100
0010
0000
,
0002
0000
1003
0010
0001
0100
0010
1000
,
0100
0001
0010
1000
0100
0010
0001
0100
,
1000
1010
0001
0011
,
0020
0000
0000
0230
0000
0000
0000
0000
,
2300
0000
0010
0000
3001
0000
0100
0001
,
2000
0000
0100
0000
3001
0000
0010
0001
,
2000
0000
0100
0000
3010
0000
0001
0100
,
0001
0010
1000
0100
0001
0010
1000
0100
,
0002
0000
0010
0000
1003
0000
0100
1000
,
0002
0000
0100
0000
1003
0000
0010
1000
,
0002
0000
0010
0000
0103
0000
1000
0010
,
1000
0100
0001
0010
1000
0100
0001
0010
,
1000
0000
0000
0000
;

//---------------dance-single - ----------------
#NOTEDATA:;
#CHARTNAME:;
#STEPSTYPE:dance-single;
#DESCRIPTION:;
#CHARTSTYLE:;
#DIFFICULTY:Medium;
#METER:7;
#RADARVALUES:0.412,0.382,0.157,0.227,0.000,319.000,20.000,29.000,0.000,0.000,0.000,0.000,0.000,0.412,0.382,0.157,0.227,0.000,319.000,20.000,29.000,0.000,0.000,0.000,0.000,0.000;
#CREDIT:;
#DISPLAYBPM:128.000;
#NOTES:
// measure 0
0000
0000
0000
0000
,  // measure 1
0000
0000
0000
0000
,  // measure 2
0000
0000
0000
0000
,  // measure 3
0000
0000
0000
0000
,  // measure 4
0002
0000
0100
0000
1000
0000
0103
0001
,  // measure 5
2000
0100
0001
3100
,  // measure 6
0002
0000
0010
0000
1000
0000
0013
0001
,  // measure 7
0101
1010
2002
3003
,  // measure 8
0001
0000
0100
0000
1000
0000
0010
0010
,  // measure 9
0001
0000
0100
0000
1000
0000
0010
0010
,  // measure 10
0001
0000
0100
0000
1000
0000
0010
0010
,  // measure 11
0001
0101
1000
1100
,  // measure 12
0001
0000
0010
0000
1000
0000
0100
0100
,  // measure 13
0001
0000
0010
0000
1000
0000
0100
0100
,  // measure 14
0001
0000
0010
0000
1000
0000
0100
0100
,  // measure 15
0001
0011
1000
1010
,  // measure 16
0010
0000
0000
0100
0001
1000
0000
0100
,  // measure 17
0000
0001
0000
0010
0000
1000
0000
0001
,  // measure 18
0100
0000
0000
0010
1000
0001
0000
0010
,  // measure 19
0000
1000
0000
0100
0000
0001
0000
1000
,  // measure 20
0001
0000
0000
1000
0010
0100
0000
0001
,  // measure 21
0000
0100
0000
1000
0000
0010
0000
0001
,  // measure 22
0100
0001
0010
0100
,  // measure 23
1000
0100
0010
0001
1000
0100
0010
0001
,  // measure 24
0200
0000
0000
0000
0300
0000
0000
0010
,  // measure 25
1000
0000
0001
0010
1000
0000
0200
0000
,  // measure 26
0302
0000
1003
0100
0020
0000
0130
1000
,  // measure 27
0001
0000
0100
1000
0010
0000
0002
0000
,  // measure 28
0203
0000
0310
1000
0002
0000
0023
0000
,  // measure 29
0130
0000
1000
0010
0001
0000
0200
0000
,  // measure 30
2300
0000
3001
0100
0020
0000
0031
0010
,  // measure 31
1000
0100
0000
0001
0100
0000
1000
0010
,  // measure 32
0000
0001
0010
0000
1000
0010
0100
0001
,  // measure 33
1000
0000
0100
0010
0001
0000
0200
0000
,  // measure 34
0320
0000
0031
0010
2000
0000
3001
0010
,  // measure 35
0100
0000
1000
0001
0100
0000
0020
0000
,  // measure 36
0032
0000
0013
1000
0200
0000
0310
0001
,  // measure 37
1000
0000
0001
0100
0010
0000
0002
0000
,  // measure 38
0023
0000
1030
0001
0200
0000
0310
1000
,  // measure 39
0001
0010
0000
0100
1000
0000
0001
1000
,  // measure 40
0010
0000
1010
0000
0100
0001
0100
0010
,  // measure 41
1000
0000
0001
0010
0100
0010
0011
0000
,  // measure 42
1000
0000
0001
0100
1000
0100
0001
0000
,  // measure 43
1010
0000
0100
0001
0010
0001
0101
0000
,  // measure 44
0100
0000
0001
0010
1000
0010
0001
1000
,  // measure 45
1100
0000
1000
0010
0100
0010
1010
0000
,  // measure 46
0001
0000
1000
0100
0001
0100
1000
0010
,  // measure 47
0100
0101
0010
1010
,  // measure 48
2000
0000
3002
0000
,  // measure 49
1003
0000
0100
0010
0010
0000
0011
0000
,  // measure 50
1000
0000
0001
0100
0100
1000
0100
0001
,  // measure 51
1000
0000
0001
0010
0010
0000
0110
0000
,  // measure 52
0100
0000
1000
0010
0010
0001
0010
1000
,  // measure 53
0001
0000
1000
0100
0100
1000
1010
0000
,  // measure 54
0001
0100
1000
0100
0001
0100
0010
0000
,  // measure 55
1000
1100
0001
0011
,  // measure 56
2000
0000
0000
3002
0000
0000
0000
0000
,  // measure 57
1003
0000
0010
0000
0001
0000
0100
0100
,  // measure 58
1000
0000
0010
0000
0001
0000
0100
0100
,  // measure 59
1000
0000
0010
0000
0001
0000
0100
0100
,  // measure 60
1000
0001
1000
0010
1000
0001
1000
0010
,  // measure 61
1000
0000
0100
0000
0001
0000
0010
0010
,  // measure 62
1000
0000
0100
0000
0001
0000
0010
0010
,  // measure 63
1000
0000
0100
0000
0001
0000
0010
0010
,  // measure 64
1000
0001
1000
0100
1000
0001
1000
0100
,  // measure 65
0010
0000
0000
0000
;

//---------------dance-single - ----------------
#NOTEDATA:;
#CHARTNAME:;
#STEPSTYPE:dance-single;
#DESCRIPTION:;
#CHARTSTYLE:;
#DIFFICULTY:Easy;
#METER:4;
#RADARVALUES:0.297,0.306,0.055,0.314,0.000,218.000,7.000,40.000,0.000,0.000,0.000,0.000,0.000,0.297,0.306,0.055,0.314,0.000,218.000,7.000,40.000,0.000,0.000,0.000,0.000,0.000;
#CREDIT:;
#DISPLAYBPM:128.000;
#NOTES:
0000
0000
0000
0000
,
0000
0000
0000
0000
,
0000
0000
0000
0000
,
0000
0000
0000
0000
,
0001
0100
0010
1000
,
1000
0100
0010
0001
,
0001
0100
0010
1000
,
0100
0010
2002
3003
,
1000
0010
0001
0100
,
1000
0001
0100
0001
,
1000
0100
0001
0010
,
1000
0100
0010
0001
,
0001
0100
1000
0010
,
0001
1000
0010
1000
,
0001
0010
1000
0100
,
0001
0010
0100
1000
,
2000
0000
3020
0000
,
0230
0000
0301
1000
,
0002
0000
0023
0000
,
0230
0000
1300
0001
,
0200
0000
2300
0000
,
3020
0000
0031
1000
,
0001
0100
0001
0100
,
0010
1000
0010
1000
,
0002
0000
0003
0000
,
1000
0000
0000
0001
0100
0000
0010
0000
,
2000
3200
0302
0203
,
1300
0000
0000
0010
0100
0000
0001
0000
,
0020
2030
3020
0032
,
0103
0000
0000
0010
1000
0000
0100
0000
,
0002
0203
2300
3020
,
0130
0000
0000
0101
0000
0000
0010
0000
,
0000
1010
0000
0000
1000
0000
0001
0000
,
0001
0000
0000
0010
0100
0000
1000
0000
,
0020
0032
0203
2300
,
3010
0000
0000
0100
0001
0000
0010
0000
,
2000
3200
0302
0023
,
0130
0000
0000
1000
0010
0000
0001
0000
,
0200
2300
3020
0230
,
0301
0000
0000
0010
0000
0000
0100
0000
,
1000
0000
0001
0100
,
0010
0000
1000
0100
,
1000
0010
0001
0100
,
1000
0000
0001
0100
,
0001
0010
1000
0100
,
0001
1000
0100
0001
,
0100
1000
0010
0100
,
0101
0000
1010
0000
,
0002
0000
2003
0000
,
3001
0010
1000
0100
,
0001
0001
1000
1000
,
0010
1000
0100
0001
,
0010
0010
1000
1000
,
0100
0001
0010
1000
,
0100
0100
0010
0010
,
0011
0000
1100
0000
,
0002
0000
2003
0000
,
3001
0010
1000
0100
,
0001
0010
0100
0010
,
0001
0100
1000
0010
,
0001
0100
0010
1000
,
1000
0100
0001
0010
,
1000
0100
0010
0100
,
1000
0010
0001
0100
,
1000
0010
0100
0001
,
1000
0000
0000
0000
;
