#TITLE:Quo Vadis;
#SUBTITLE:;
#ARTIST:M2U;
#TITLETRANSLIT:;
#SUBTITLETRANSLIT:;
#ARTISTTRANSLIT:;
#GENRE:;
#CREDIT:;
#BANNER:[Qualifier Singles] - Quo Vadis-bn.png;
#BACKGROUND:[Qualifier Singles] - Quo Vadis-bg.png;
#LYRICSPATH:;
#CDTITLE:;
#MUSIC:[Qualifier Singles] - Quo Vadis.mp3;
#OFFSET:-0.055;
#SAMPLESTART:115.545;
#SAMPLELENGTH:12.000;
#SELECTABLE:YES;
#BPMS:0.000=160.000;
#STOPS:;
#BGCHANGES:;
#KEYSOUNDS:;

//---------------dance-single - ----------------
#NOTES:
     dance-single:
     :
     Challenge:
     11:
     0.861,0.966,0.148,0.183,0.735:
0000
0000
0000
0000
,
0000
0000
0000
0000
,
0000
0000
0000
0000
,
0000
0000
0000
0000
,
0000
0000
0000
0000
,
1001
0001
0000
0100
0000
0100
0010
0000
,
1100
0000
1000
0001
1000
0000
0001
0000
0000
0000
0001
0000
0100
0000
0000
0000
,
0101
0000
0001
0100
0010
0000
0010
0000
0000
0000
0010
0000
0100
0000
0000
0000
,
0110
0000
0100
0010
1000
0010
0100
0010
1000
0010
0100
0001
0100
0000
0000
0000
,
0001
0000
0000
0000
0000
0000
0000
0000
0000
0000
0000
0000
0010
0000
0000
0100
0000
0000
0010
0000
0000
0100
0000
0000
0010
0000
0000
0000
0000
0000
0001
0000
0000
0000
0000
0000
1000
0000
0000
0000
0000
0000
0010
0000
0000
0000
0010
0000
,
0100
0000
0000
0010
1000
0001
0010
0100
0010
0100
1000
0100
0010
0001
1000
0010
,
1000
0000
0001
0010
0001
0010
0100
1000
0010
0000
1000
0010
1000
0100
0010
0001
,
0100
0001
0010
0100
1000
0000
1010
0000
,
1000
0000
0000
0000
0000
0000
0001
0000
0000
0000
0000
0000
0000
0000
0000
0000
0000
0000
0001
0000
0010
0000
0000
0000
0100
0000
0000
0000
0000
0000
0000
0000
0000
0000
0000
0000
1000
0000
0000
0010
0000
0000
0100
0000
0000
0001
0000
0000
,
0010
0000
0001
0000
0100
0000
0010
0000
2000
0000
0000
0000
3010
0000
0100
0010
,
0100
0000
0000
0001
0000
0000
0000
0000
1000
0001
0000
0000
0010
0000
0000
0100
0000
0000
0010
0000
0000
0001
0000
0000
,
1000
0000
0000
0010
1000
0010
0100
0001
0020
0000
0000
0000
0130
0000
0000
0000
,
0100
0000
0000
0000
0000
0000
0010
0000
0000
0000
0000
0000
0000
0000
0000
0000
0001
0000
1000
0000
0000
0000
0000
0000
0002
0000
0000
0000
0000
0000
0000
0000
0000
0000
0000
0000
0103
0000
0000
0010
0000
0000
1000
0000
0000
0010
0000
0000
,
0100
0000
0010
0000
0100
0000
0001
0000
0020
0000
0000
0000
0130
0000
0010
0100
,
0010
0000
0000
0001
0000
0000
0000
0000
0010
0100
0000
0000
1000
0000
0000
0010
0000
0000
0100
0000
0000
1000
0000
0000
,
0200
0000
0000
0000
0000
0000
0000
0000
0300
0000
0010
1000
0001
0000
0000
0000
,
0001
0000
0000
0000
0000
0000
0100
0000
0000
0000
0000
0000
0000
0000
0000
0000
0010
0000
0100
0000
0000
0000
0000
0000
0002
0000
0000
0000
0000
0000
0000
0000
0000
0000
0000
0000
1003
0000
0000
0010
0000
0000
0100
0000
0000
0001
0000
0000
,
0010
0000
0100
0000
0010
0000
0001
0000
0200
0000
0000
0000
1300
0000
0000
1000
,
0100
0010
0100
0001
0010
0100
1000
0001
,
0100
0000
0001
0010
0100
0010
0100
1000
0020
0000
0000
0000
0130
0000
0000
0000
,
0100
0000
0000
0000
0000
0000
0010
0000
0000
0000
0000
0000
0000
0000
0000
0000
1000
0000
0001
0000
0000
0000
0000
0000
0020
0000
0000
0000
0000
0000
0000
0000
0000
0000
0000
0000
0031
0000
0000
1000
0000
0000
0010
0000
0000
1000
0000
0000
,
0001
0000
1000
0000
0100
0000
0010
0000
0001
0000
0000
0000
0011
0000
0000
0001
,
0100
0010
1000
0100
0001
0100
0010
0001
,
0100
0000
0110
0000
0100
0001
1001
0000
,
1000
0000
0000
0000
0000
0000
0011
0000
0000
0010
0000
0100
1000
0000
0000
0001
0000
0000
0100
0000
0000
0010
0000
0100
,
0001
0000
0000
0000
0000
0000
0001
0000
0000
0100
0000
0000
0001
0000
0000
0010
0000
0000
0001
0000
0100
0000
0001
0000
1000
0000
0000
0000
0000
0000
0001
0000
0000
0100
0000
0000
0010
0000
0000
1000
0000
0000
0010
0000
0000
1000
0000
0000
,
0100
0000
0010
0000
0100
0010
0100
1000
0010
0000
0010
0100
0001
1000
0001
0010
,
0100
0000
0000
0000
0000
0000
0010
0000
0000
0000
0000
0000
0001
0000
0000
1000
0000
0000
0100
0000
0000
0010
0000
0000
0001
0000
0000
0000
0000
0000
0001
0000
0010
0000
0100
0000
1000
0000
0000
0000
0000
0000
0001
0000
0000
0010
0000
0000
,
0100
0000
0000
0000
0000
0000
0010
0000
0000
0000
0000
0000
0000
0000
0000
0000
0100
0000
1000
0000
0000
0000
0001
0000
1000
0000
0000
0000
0000
0000
0010
0000
0000
0000
1000
0000
0010
0000
0000
0000
0000
0000
1000
0000
0000
0010
0000
0000
,
0100
0000
0000
0000
0000
0000
0100
0000
0000
0010
0000
0000
1000
0000
0000
0100
0000
0000
1000
0000
0000
0010
0000
0000
0100
0000
0010
0000
0000
0000
1000
0000
0000
0100
0000
0000
0010
0000
0000
0001
0000
0000
0010
0000
0000
0100
0000
0000
,
1000
0000
0000
0000
0000
0000
0000
0000
0000
0010
0000
0000
0100
0000
0000
0010
0000
0000
1000
0000
0000
0001
0000
0000
0010
0000
0000
0000
0000
0000
0001
0000
0000
1000
0000
0000
0010
0000
0100
0000
0010
0000
0100
0000
0000
0001
0000
0000
,
1000
0000
0000
0000
0000
0000
0100
0000
0000
0010
0000
0000
0001
0000
0010
0000
0001
0000
0010
0000
0000
0100
0000
0000
1000
0000
0000
0000
0000
0000
0001
0000
0000
0000
0000
0000
0110
0000
0000
0000
0000
0000
0000
0000
0000
0000
0000
0000
,
1000
0000
0001
0000
0100
0000
0010
0000
1000
0100
2000
0000
0000
3000
1000
0010
,
0100
0000
0001
0000
1000
0000
0001
0000
0010
0100
0020
0000
0000
0030
0001
0010
,
0001
0000
0000
0010
0000
0000
0100
0000
0000
0001
0000
0000
0100
1000
0000
0100
0000
0000
0010
0000
0000
0100
0000
0000
,
2000
0000
0000
0000
3100
0000
0010
0000
0001
1000
0010
1000
0001
0000
0000
0000
,
0101
0000
0001
0000
1000
0000
0100
0000
0010
0001
0020
0000
0000
0030
0001
0100
,
0010
0000
0000
0000
0000
0000
0100
0000
0000
0000
0000
0000
0010
0000
0000
0000
0000
0000
0100
0000
0000
0000
0000
0000
0001
0000
0000
1000
0000
0000
0200
0000
0000
0000
0000
0000
0000
0000
0000
0300
0000
0000
0010
0000
0000
0000
0001
0000
,
0010
0000
0000
0100
0000
0000
0001
0000
0000
0100
0000
0000
1000
0100
0000
0010
0000
0000
0001
0000
0000
0100
0000
0000
,
0001
0000
0000
0000
0000
0000
1000
0000
0000
0000
0000
0000
0010
0000
0000
0000
0000
0000
0100
0000
0000
0000
0000
0000
0010
0000
0100
0000
0000
0000
0001
0000
0000
0010
0000
0000
0100
0000
0000
0000
0000
0000
1000
0000
0000
0000
0000
0000
,
0010
0000
0100
0000
1000
0000
0100
0000
0010
1000
0020
0000
0000
0030
1000
0010
,
0100
0000
1000
0000
0100
0000
0001
0000
0010
0100
0020
0000
0000
0030
0001
0100
,
0001
0000
0000
1000
0000
0000
0010
0000
0000
0100
0000
0100
0001
0000
0000
0010
0000
0000
0100
0000
0000
1000
0000
0000
,
0200
0000
0000
0000
0310
0000
0001
0000
0010
0100
1000
0100
0010
0000
0000
0000
,
1001
0000
0010
0000
0100
0000
0010
0000
0100
0010
0200
0000
0000
0300
0010
0100
,
0001
0000
0010
0000
0100
0000
0010
0000
0001
1000
0002
0000
0000
0003
1000
0010
,
0100
0010
0000
1000
0000
0000
0001
0000
0000
0010
0000
0001
0010
0000
0000
0100
0000
0000
1000
0000
0000
0100
0000
0000
,
0010
0000
0001
0000
1000
0000
0010
0000
0100
0000
0000
0000
0110
0000
0010
1000
,
0010
0000
0000
0100
0000
0010
0100
0000
,
1000
0000
0000
0100
0000
0100
0010
0000
,
0100
0000
0000
0001
0000
0010
0100
0000
,
0010
0000
0000
0100
0000
0100
1000
0000
,
1010
1000
0000
0001
0000
0001
0010
0000
,
0110
0000
0100
0010
0001
0000
1000
0000
0000
0000
0001
0000
0010
0000
0000
0000
,
1100
0000
1000
0010
1000
0000
0010
0000
0000
0000
0010
0000
0100
0000
0000
0000
,
0101
0000
0001
0010
0001
0100
0001
1000
0001
0010
0100
0010
0001
0000
0000
0000
,
1000
0000
0000
0000
0010
0000
0000
0000
0010
0100
0000
0000
0000
0000
0100
0000
,
0010
0000
1000
0001
0010
0000
0100
0000
1100
0000
0000
0000
0100
0000
0000
0000
,
1000
0000
0000
0000
0100
0000
0000
0100
0010
0000
0000
0000
0000
0000
0010
0000
,
0100
0000
1000
0100
0010
0000
0010
0001
1000
0000
0010
1000
0001
0100
0010
1000
,
0001
0000
0010
0001
0010
0001
0100
0010
1000
0000
0010
0100
0001
0000
0010
0001
,
0010
0100
1000
0010
0100
0000
0001
0000
1000
0100
0010
0001
0100
0010
1000
0100
,
0010
0000
0001
1000
0010
1000
0100
0010
0001
0000
0000
0000
0100
0000
0010
0000
,
0010
1000
0001
1000
0100
0010
1001
0000
,
0110
0000
0000
0000
0000
0000
0100
0000
0000
0000
0000
0000
0010
0000
0000
0100
0000
0000
0001
0000
0000
1000
0000
0000
0100
0000
0000
0000
0000
0000
0010
0000
0000
0000
0000
0000
0010
0000
0000
0000
0000
0000
0100
0000
0000
0000
0010
0000
,
0100
0000
0000
0000
1000
0000
0100
0000
0000
0000
0000
0000
1000
0000
0000
0010
0000
0000
0100
0000
0000
0001
0000
0000
0010
0000
0000
0000
0000
0000
0001
0000
0000
0000
0010
0000
0100
0000
1000
0000
0000
0000
0010
0000
0000
0000
0000
0000
,
0010
0000
0100
0000
0001
1000
0010
0100
0001
0000
1000
0001
0010
0001
0100
0010
,
1000
0000
0010
1000
0010
0100
0001
0010
0001
0000
1000
0000
0010
0100
0010
1000
,
0001
0000
0000
0000
0000
0000
0010
0000
0000
0000
0000
0000
0010
0000
0000
0100
0000
0000
1000
0000
0000
0100
0000
0000
0010
0000
0000
0000
0000
0000
0010
0000
0000
0000
0000
0000
0100
0000
0000
0000
0000
0000
0000
0000
0000
0000
0010
0000
,
0001
0000
0000
0000
0000
0000
1000
0000
0000
0010
0000
0000
1000
0000
0000
0010
0000
0000
0100
0000
0000
0010
0000
0000
0100
0000
0000
0000
0000
0000
0010
0000
0000
0000
0100
0000
0001
0000
0000
0000
0000
0000
0000
0000
0000
0000
0000
0000
,
0010
0000
0010
0100
1000
0010
0100
0001
0010
0100
1000
0010
0100
0001
0010
0100
,
1000
0020
0000
0030
,
0100
0000
0010
0000
1000
0000
0001
0000
0010
0100
0020
0000
0000
0030
0010
0100
,
1000
0000
0100
0000
0010
0000
0001
0000
0100
0001
0200
0000
0000
0300
0010
0100
,
0010
0000
0000
0100
0000
0000
1000
0000
0000
0100
0000
0100
0001
0000
0000
0010
0000
0000
0100
0000
0000
1000
0000
0000
,
0100
0000
0000
0000
0010
0000
0001
0000
0010
0001
0100
0010
1000
0000
0000
0000
,
1000
0000
0010
0000
0100
0000
0001
0000
0100
0001
0200
0000
0000
0300
0001
0100
,
0001
0000
0010
0000
0100
0000
0010
0000
0001
1000
0002
0000
0000
0003
0010
0100
,
1000
0000
0000
0100
0000
0000
0010
0000
0000
0100
0000
1000
0001
0000
0000
0100
0000
0000
0010
0000
0000
1000
0000
0000
,
0001
0000
0000
0000
0000
0000
0100
0000
0000
0000
0000
0000
0010
0000
0000
0000
0000
0000
1000
0000
0000
0000
1000
0000
0100
0000
0000
0000
0000
0000
0010
0000
0000
0001
0000
0000
0010
0000
0000
0000
0000
0000
0100
0000
0000
0000
0000
0000
,
1000
0000
0010
0000
1000
0000
0001
0000
0010
0100
0020
0000
0000
0030
0100
0010
,
0100
0000
1000
0000
0100
0000
0010
0000
0001
0100
0010
0000
0000
0000
0010
1000
,
0001
0000
0000
1000
0000
0000
0100
0000
0000
0010
0000
0010
0100
0000
0000
1000
0000
0000
0010
0000
0000
0100
0000
0000
,
0020
0000
0000
0000
0130
0000
0000
0000
0001
0100
0010
0100
0001
0000
0000
0000
,
0010
0000
0001
0000
0100
0000
0010
0000
0100
0010
0100
0000
0000
0000
0010
1000
,
0001
0000
0010
0000
0001
0000
1000
0000
0010
1000
0100
0000
0000
0000
1000
0100
,
0010
0000
0000
0100
0000
0000
0010
0000
0000
0001
0000
0001
0010
0000
0000
0100
0000
0000
1000
0000
0000
0100
0000
0000
,
0010
0000
0000
0000
0000
0000
0001
0000
0000
0010
0000
0000
0100
0000
0000
0010
0000
0000
0100
0000
0000
1000
0000
0000
0010
0000
0000
0000
0000
0000
0000
0000
0000
0000
0000
0000
0100
0000
0000
0000
0000
0000
0000
0000
0000
0000
0100
0000
,
0010
0000
0000
0100
0000
0000
0010
0000
0000
1000
0000
1000
0100
0000
0000
0010
0000
0000
0100
0000
0000
1000
0000
0000
,
0001
0100
0010
1000
0100
0000
0101
0000
;

//---------------dance-single - ----------------
#NOTES:
     dance-single:
     :
     Hard:
     8:
     0.547,0.533,0.394,0.014,0.000:
0000
0000
0000
0000
,
0000
0000
0000
0000
,
0000
0000
0000
0000
,
0000
0000
0000
0000
,
0000
0000
0000
0000
,
1000
1000
0000
0010
0000
0000
0010
0000
,
0100
0100
0000
1000
0000
0000
1000
0000
,
0100
0100
0000
0001
0000
0000
0001
0000
,
0010
0010
0000
0010
0000
0000
0010
0000
,
0011
0000
0001
0100
0101
0000
0100
0000
,
1001
0000
1010
0000
0011
0000
0010
0001
,
0011
0000
0001
0010
1100
0000
0110
0000
,
0001
0100
0010
1000
0010
0000
0000
0000
,
0100
0010
0100
0001
1000
0000
0100
0000
,
0010
0001
0010
0001
0010
0000
0100
0000
,
0010
0001
1000
0010
0001
0010
0100
0010
,
1000
0000
0100
0010
0011
0000
0100
0000
,
0001
1000
0010
1000
0100
0000
1000
0000
,
0010
0100
0001
0100
0001
0000
0010
0000
,
0100
1000
0100
0001
0100
0010
0100
0010
,
0002
0000
0003
0000
,
1000
0001
0010
0100
1000
0000
1010
0000
,
0010
0100
0001
1000
0010
0000
0100
0000
,
0010
0100
0010
1000
0001
0010
0100
0010
,
0001
0000
0010
0100
0010
0000
0110
0000
,
0001
0100
0001
0100
0010
0000
0100
0000
,
0010
1000
0010
1000
0100
0000
1000
0000
,
0001
1000
0100
0010
0001
1000
0010
0100
,
0010
0000
0100
0000
0010
0100
0110
0000
,
0001
0000
0010
0001
0001
0100
0010
1000
,
1000
0100
0000
0100
0001
0000
0101
0000
,
0010
0000
0001
0010
0011
0000
0001
0000
,
1010
0000
1000
0010
1010
0000
0110
0000
,
0101
0000
0001
0010
0011
0000
0010
0000
,
0110
0000
0100
0010
0110
0000
0001
0000
,
1001
0000
1000
0010
1010
0000
0010
0000
,
0101
0011
1001
0110
,
0100
0010
0100
0001
1000
0000
1000
0000
,
0001
1000
0100
0010
0001
0000
0001
0000
,
0010
0100
0010
1000
0010
0100
0010
0001
,
1000
0010
0100
0010
0110
0000
1001
0000
,
1000
0001
0100
1000
0100
0000
0100
0000
,
0001
1000
0001
0100
0001
0000
0001
0000
,
1000
0010
0100
0010
0001
0010
0100
0010
,
1000
0010
0100
0010
0001
0010
0110
0000
,
0100
0001
1000
0001
1000
0000
1000
0000
,
0001
0010
0100
0010
0100
0000
0100
0000
,
0010
0100
0010
0001
1000
0010
0100
0010
,
0110
0000
0010
0100
1001
0000
0101
0000
,
0001
0000
0010
0001
0100
0000
0100
0000
,
0010
0000
1000
0010
0100
0000
0100
0000
,
0001
0000
0001
0010
0001
0000
0001
0000
,
1000
0010
0100
0001
0100
0000
0011
0000
,
0010
0000
0000
0001
0000
0000
0001
0000
,
0100
0000
0000
0010
0000
0000
0010
0000
,
0100
0000
0000
0001
0000
0000
0001
0000
,
0010
0000
0000
0100
0000
0000
0100
0000
,
1000
1000
0000
0010
0000
0010
0100
0000
,
0010
0010
0000
0100
0000
0100
0010
0000
,
1000
1000
0000
0001
0000
0001
0010
0000
,
0010
0100
0100
0010
0100
0100
0010
0000
,
0001
0100
1000
0000
1000
0100
0001
0000
,
0001
0010
0100
0000
0100
0010
0001
0000
,
1000
0100
0001
0000
0001
0100
1000
0000
,
1000
0100
0010
0000
0010
0100
1000
0000
,
1000
0010
0000
0000
0010
0100
0000
0000
,
0100
0001
0000
0000
0001
0100
0000
0000
,
0100
1000
0000
0000
1000
0100
0000
0000
,
0100
0010
0100
0001
0101
0000
1001
0000
,
1000
0100
0000
0000
1100
0000
1100
0000
,
0100
0010
0000
0000
0011
0000
0011
0000
,
0001
0100
0000
0000
0110
0000
0110
0000
,
0010
1000
0000
0000
1001
0000
1010
0000
,
1000
0100
0000
0000
0110
0000
0011
0000
,
0001
0100
0000
0000
0110
0000
1001
0000
,
0001
1000
0000
0000
1010
0000
1100
0000
,
1000
0200
0000
0300
,
0010
0000
0100
1000
0100
0000
0010
0000
,
0001
0000
1000
0001
0100
0000
0100
0000
,
0100
0010
0100
1000
0100
0001
0010
0100
,
1000
0000
0010
0100
0101
0000
0110
0000
,
0010
0000
1000
0001
0010
0000
0010
0000
,
0100
0000
0100
1000
0010
0000
0010
0000
,
0100
0010
0100
1000
0100
0001
0100
0010
,
1000
0100
0010
0001
0001
0010
0100
1000
,
0010
0000
0100
0010
0100
0000
0100
0000
,
0010
0000
1000
0001
1000
0000
1000
0000
,
0001
0000
0010
0100
1000
0100
0010
0001
,
1000
0000
0010
0100
0010
0000
0110
0000
,
0001
0000
1000
0001
0100
0000
0100
0000
,
0010
0000
0010
1000
0100
0000
0100
0000
,
0010
0001
0100
0010
0001
0010
0100
0010
,
1000
0000
1000
0001
1001
0000
1010
0000
,
1000
0100
0010
0100
0001
0100
0010
0100
,
0010
0001
0100
0010
1000
0000
1001
0000
;

//---------------dance-single - ----------------
#NOTES:
     dance-single:
     :
     Medium:
     5:
     0.345,0.367,0.070,0.007,0.000:
0000
0000
0000
0000
,
0000
0000
0000
0000
,
0000
0000
0000
0000
,
0000
0000
0000
0000
,
0000
0000
0000
0000
,
1000
0010
0000
0100
0000
0000
0001
0000
,
0100
0001
0000
0100
0000
0000
0010
0000
,
1000
0010
0000
0100
0000
0000
0001
0000
,
1000
0100
0000
0010
0000
0000
0001
0000
,
0010
0000
0100
0010
,
0001
0000
0011
0000
0011
0000
0001
1000
,
0010
0100
0010
0100
,
0001
0000
0000
0000
,
1000
0000
0000
0001
0010
0000
0000
0000
,
0100
0000
0000
0100
1000
0000
0000
0000
,
1000
0000
0000
0010
0100
0000
0100
0000
,
0010
0000
1000
0010
1000
0000
0000
0000
,
0001
0000
0000
0010
0100
0000
0000
0000
,
1000
0000
0000
1000
0100
0000
0000
0000
,
0010
0000
0000
0010
0001
0000
0010
0000
,
0100
0010
0000
0100
0010
0000
0110
0000
,
0010
0000
0000
0001
1000
0000
0000
0000
,
0010
0000
0000
1000
0100
0000
0000
0000
,
0010
0000
0000
0100
0010
0000
0100
0000
,
1000
0000
0001
0100
0001
0000
0010
0000
,
0100
0000
0000
0100
1000
0000
0000
0000
,
1000
0000
0000
0010
1000
0000
0000
0000
,
1000
0000
0000
0100
0010
0000
0000
0000
,
0010
0011
0001
0011
,
0010
0000
0000
0010
0001
0000
0001
0000
,
1000
0000
0000
1000
0100
0000
0100
0000
,
0010
0000
0000
0001
1000
0000
1000
0000
,
0010
0000
0000
0100
0010
0000
0010
0000
,
1000
0000
0000
1000
0001
0000
0001
0000
,
0010
0000
0000
0010
0100
0000
0100
0000
,
0010
0000
0000
0010
0001
0000
0001
0000
,
1000
1010
0010
1010
,
1000
0000
0000
0010
0100
0000
0000
0000
,
0010
0000
0000
0100
0001
0000
0000
0000
,
0010
0000
0000
0100
0010
0000
0001
0000
,
1000
0000
0010
0100
0010
0000
0010
0000
,
0100
0000
0000
0100
0010
0000
0000
0000
,
1000
0000
0000
1000
0001
0000
0000
0000
,
0001
0000
0000
0010
0100
0000
0100
0000
,
1000
0000
0100
0000
0010
0001
0010
0000
,
0100
0000
0000
0100
0010
0000
0000
0000
,
0001
0000
0000
0001
1000
0000
1000
0000
,
0010
0000
0000
0010
0100
0000
0000
0000
,
0100
0000
0001
0100
0001
0000
0100
0000
,
0010
0000
0000
0010
0100
0000
0000
0000
,
0010
0000
0000
1000
0100
0000
0000
0000
,
0100
0000
0000
0010
0001
0000
1000
0000
,
0010
0000
0000
1001
,
1000
0000
0000
1000
0000
0000
1000
0000
,
0010
0000
0000
0010
0000
0000
0010
0000
,
0100
0000
0000
0100
0000
0000
0100
0000
,
0001
0000
0000
0001
0000
0000
0001
0000
,
0010
0000
0100
0010
0000
0000
0010
0000
,
0001
0000
1000
0010
0000
0000
0010
0000
,
0100
0000
0100
0010
0000
0000
0100
0000
,
0001
0000
1000
0100
0000
0000
0100
0000
,
0010
0001
0010
0000
0001
0000
0000
0000
,
0010
0000
0100
0010
0100
0000
0010
0000
,
0001
0000
1000
0010
1000
0000
0010
0000
,
0100
0000
0100
0010
0100
0000
0010
0000
,
1000
0001
1000
0000
0001
0000
1000
0000
,
0001
0010
0100
0000
0010
0000
0100
0000
,
1000
0000
0010
0100
0010
0000
0100
0000
,
0001
0010
0100
1001
,
1000
0000
0000
1000
0100
0000
0100
0000
,
0010
0000
0000
0010
0001
0000
0001
0000
,
0100
0000
0000
0010
0100
0000
0100
0000
,
0001
0000
0000
0001
0100
0000
0100
0000
,
0010
0000
0000
1000
0100
0000
0100
0000
,
0010
0000
0000
0010
0001
0000
0001
0000
,
1000
0000
0000
0010
0100
0000
0100
0000
,
0001
0020
0000
0030
,
0001
0000
0000
1000
0010
0000
0000
0000
,
0100
0000
0000
0001
0010
0000
0000
0000
,
0001
0000
0000
0100
1000
0000
0000
0000
,
0100
0100
0010
0010
,
1000
0000
0000
1000
0100
0000
0000
0000
,
0010
0000
0000
0001
0010
0000
0000
0000
,
0001
0000
0000
1000
0010
0000
0100
0000
,
0001
0010
0001
1000
,
0010
0000
0000
0100
0010
0000
0000
0000
,
1000
0000
0000
1000
0100
0000
0000
0000
,
0010
0000
0000
0010
0100
0000
0000
0000
,
0010
0000
0000
0001
0100
0000
0000
0000
,
0010
0000
0000
0010
1000
0000
0000
0000
,
1000
0000
0000
1000
0100
0000
0000
0000
,
0010
0001
0100
0010
,
1000
1000
0010
0010
,
0100
0100
0001
0010
,
0100
0010
0001
0011
;

//---------------dance-single - ----------------
#NOTES:
     dance-single:
     :
     Easy:
     3:
     0.237,0.267,0.007,0.000,0.000:
0000
0000
0000
0000
,
0000
0000
0000
0000
,
0000
0000
0000
0000
,
0000
0000
0000
0000
,
0000
0000
0000
0000
,
1000
0000
0000
0010
0000
0000
0000
0000
,
0100
0000
0000
0010
0000
0000
0000
0000
,
1000
0000
0000
0001
0000
0000
0000
0000
,
0010
0000
0000
0001
0000
0000
0000
0000
,
0010
0000
0010
0000
,
0001
0100
0001
0000
,
1000
0010
1000
0100
,
0010
0010
0010
0000
,
0001
0000
0100
0000
,
0010
0010
0100
0000
,
0100
0000
0010
0000
,
1000
1000
0001
0000
,
0010
0000
0100
0000
,
0010
0010
0001
0000
,
0100
0000
0010
0000
,
1000
0010
0100
0001
,
0010
0000
0100
0000
,
1000
0010
1000
0000
,
0001
0000
0010
0000
,
0100
0010
0100
0000
,
0010
0000
0001
0000
,
1000
0100
0010
0000
,
0001
0000
1000
0000
,
0010
0100
0010
0100
,
0001
0000
1000
1000
,
0100
0000
0100
0100
,
0010
0000
0010
0010
,
0001
0000
1000
1000
,
0010
0000
0010
0010
,
0100
0000
0100
0100
,
0001
0000
0001
0001
,
1000
0100
0010
0001
,
1000
0000
0001
0000
,
0010
0000
0100
0000
,
0010
0000
0001
0000
,
1000
0010
0100
0010
,
1000
0000
0100
0000
,
0010
0000
0001
0000
,
1000
0001
0010
0100
,
1000
0010
0100
0001
,
1000
0000
0001
0000
,
0010
0000
0100
0000
,
0010
0000
0001
0000
,
0010
0001
1000
0010
,
0100
0000
0010
0000
,
1000
0000
0001
0000
,
0010
0100
0010
0100
,
0001
0000
0001
1000
,
0010
0000
0000
0010
0000
0000
0000
0000
,
0100
0000
0000
0100
0000
0000
0000
0000
,
0001
0000
0000
0001
0000
0000
0000
0000
,
1000
0000
0000
1000
0000
0000
0000
0000
,
0100
0000
0000
0010
0000
0000
0000
0000
,
0001
0000
0000
1000
0000
0000
0000
0000
,
0010
0000
0000
1000
0000
0000
0000
0000
,
1000
0000
0000
0100
0000
0000
0010
0000
,
0001
0000
0100
0000
,
0010
0000
1000
0000
,
0001
0000
0010
0000
,
0100
0000
1000
0000
,
0001
0001
0001
0001
,
0100
0100
0010
0010
,
0100
0100
0001
0001
,
1000
0010
0100
0000
,
0001
0000
0100
0000
,
0010
0000
0010
0000
,
0100
0000
0001
0000
,
1000
0000
0100
0000
,
0100
0000
0010
0000
,
0001
0000
0010
0000
,
0010
0000
0001
0000
,
0100
0000
0000
0000
,
0010
0000
1000
0000
,
0010
0000
0100
0000
,
0001
0000
0010
0000
,
0001
0100
0010
1000
,
0100
0000
0010
0000
,
0001
0000
1000
0000
,
0010
0000
0100
0000
,
0001
0100
0010
1000
,
0010
0000
0100
0000
,
0010
0000
1000
0000
,
0100
0000
0010
0000
,
0001
0010
0001
0100
,
0010
0000
1000
0000
,
0001
0000
0100
0000
,
0010
1000
0010
0100
,
0010
1000
0001
1000
,
0010
1000
0100
1000
,
0010
0010
0100
0110
;

//---------------dance-single - ----------------
#NOTES:
     dance-single:
     :
     Beginner:
     1:
     0.174,0.133,0.063,0.000,0.000:
0000
0000
0000
0000
,
0000
0000
0000
0000
,
0000
0000
0000
0000
,
0000
0000
0000
0000
,
0000
0000
0000
0000
,
1000
0000
0000
0000
,
0001
0000
0000
0000
,
1000
0000
0000
0000
,
0001
0000
0000
0000
,
1001
0000
0000
0000
,
1010
0000
0000
0000
,
1001
0000
0000
0000
,
0011
0000
0000
0000
,
0001
0000
1000
0000
,
0100
0000
0010
0000
,
0001
0000
0100
0000
,
1000
0000
0100
0000
,
0001
0000
1000
0000
,
0100
0000
0010
0000
,
0001
0000
1000
0000
,
0100
0000
0010
0000
,
0001
0000
0100
0000
,
0010
0000
1000
0000
,
0100
0000
0010
0000
,
0100
0000
0001
0000
,
0100
0000
0010
0000
,
0001
0000
1000
0000
,
0010
0000
0100
0000
,
1000
0000
0100
0000
,
0010
0000
0100
0000
,
0001
0000
1000
0000
,
0001
0000
0100
0000
,
0001
0000
0010
0000
,
0001
0000
1000
0000
,
0100
0000
1000
0000
,
0010
0000
1000
0000
,
0001
0000
1000
0000
,
0010
0000
0100
0000
,
0001
0000
0100
0000
,
1000
0000
0100
0000
,
0001
0000
1000
0000
,
0001
0000
0010
0000
,
0100
0000
1000
0000
,
1000
0000
0100
0000
,
0010
0000
0001
0000
,
1000
0000
0010
0000
,
0100
0000
0001
0000
,
1000
0000
0010
0000
,
0001
0000
1000
0000
,
0100
0000
0001
0000
,
1000
0000
0001
0000
,
0010
0000
0100
0000
,
1000
0000
0001
0000
,
0100
0000
0000
0000
,
0010
0000
0000
0000
,
0100
0000
0000
0000
,
0010
0000
0000
0000
,
1010
0000
0000
0000
,
0101
0000
0000
0000
,
1001
0000
0000
0000
,
0110
0000
0000
0000
,
0100
0000
0010
0000
,
0010
0000
1000
0000
,
0010
0000
0100
0000
,
0010
0000
1000
0000
,
0001
0000
0100
0000
,
0001
0000
0010
0000
,
0001
0000
0100
0000
,
0010
0000
1000
0000
,
0100
0000
0010
0000
,
0100
0000
0001
0000
,
0100
0000
0010
0000
,
0001
0000
1000
0000
,
0010
0000
0100
0000
,
0010
0000
0001
0000
,
0010
0000
0100
0000
,
0010
0000
0000
0000
,
1000
0000
0100
0000
,
1000
0000
0001
0000
,
0100
0000
0001
0000
,
0010
0000
0100
0000
,
1000
0000
0100
0000
,
0010
0000
0001
0000
,
0100
0000
0100
0000
,
0010
0000
0010
0000
,
1000
0000
1000
0000
,
0001
0000
0001
0000
,
0100
0000
0001
0000
,
0100
0000
0010
0000
,
1000
0000
0001
0000
,
1000
0000
0010
0000
,
0100
0000
0001
0000
,
0010
0000
0001
0000
,
0100
0000
0010
0000
,
0100
0000
0001
0011
;
