#TITLE:Provoke;
#SUBTITLE:;
#ARTIST:void;
#TITLETRANSLIT:;
#SUBTITLETRANSLIT:;
#ARTISTTRANSLIT:;
#GENRE:;
#CREDIT:;
#BANNER:provoke_bn.png;
#BACKGROUND:provoke_bg.png;
#LYRICSPATH:;
#CDTITLE:!gameoson.png;
#MUSIC:Provoke.mp3;
#OFFSET:-0.080;
#SAMPLESTART:21.741;
#SAMPLELENGTH:10.847;
#SELECTABLE:YES;
#BPMS:0.000=177.000
;
#STOPS:
;
#BGCHANGES:;
#KEYSOUNDS:;
#ATTACKS:;

//---------------dance-single - ----------------
#NOTES:
     dance-single:
     :
     Challenge:
     9:
     0.736,0.844,0.190,0.744,0.145,510.000,23.000,90.000,0.000,0.000,0.000,0.736,0.844,0.190,0.744,0.145,510.000,23.000,90.000,0.000,0.000,0.000:
0000
0000
0000
0000
,
0000
0000
0000
0000
,
0000
0000
0000
0000
,
0000
0000
0000
0000
,
0002
0000
1003
0002
0000
1003
0100
0000
,
2000
0000
3001
2000
0000
3001
0200
0301
,
0020
0000
0031
0020
0000
0031
1000
0000
,
0020
0000
1030
0020
0000
0130
0002
1003
,
0001
0000
1000
0100
0000
0100
1000
0000
,
1000
0000
0001
0100
0000
0100
0001
0000
,
0001
0000
1000
0010
0000
0010
1000
0000
,
1000
0000
0001
0010
0000
0010
0001
0000
,
0100
0000
0000
0100
0000
0000
0010
0000
0000
0000
1000
0000
0001
0000
0000
0000
,
1000
0000
0100
0010
0000
0100
0010
0000
,
0001
0000
0100
0010
0000
0100
0010
0000
,
1000
0000
1000
0001
0010
0000
0110
0000
,
1001
0000
0001
1000
0010
1000
0001
0010
,
0000
0001
0010
0001
0100
0010
1000
0100
,
0000
1000
0100
0010
0100
1000
0010
0100
,
0000
0010
0100
0001
1000
0100
0010
0001
,
0000
0010
0001
0100
0010
1000
0001
0100
,
0000
0001
0100
0010
1000
0100
0010
0001
,
0000
0010
0001
1000
0001
0100
0010
0100
,
0000
0000
0010
0000
0100
0000
0001
0000
1000
0000
1000
0000
0010
1000
0010
1000
,
0001
0100
0001
0100
0010
1000
0100
0010
,
0000
0100
0010
0000
0110
0000
0100
1000
,
0010
0100
0010
0100
0001
1000
0001
0010
,
0000
0001
0010
0000
0011
0000
0001
0100
,
0010
1000
0010
1000
0001
0010
0001
0100
,
0000
0001
0100
0000
0101
0000
0001
1000
,
0100
0010
0100
0010
0001
0100
0010
1000
,
0000
0000
0001
0000
0010
0000
0100
0000
1000
0000
0001
0100
0001
0100
0001
0000
,
1000
0010
1000
0000
0010
1000
0100
0010
,
0000
1001
0000
0001
0100
0010
1000
0100
,
0000
1001
0000
1000
0100
0010
0001
0100
,
0000
1001
0000
0001
1000
0100
1000
0010
,
0000
0110
0000
0100
0001
0010
0100
1000
,
0000
1001
0000
0001
1000
0100
1000
0010
,
0100
0000
0100
0000
0100
0010
0100
0010
,
1000
0000
0000
1000
0000
0000
1000
0000
0001
0100
0001
0100
0010
0000
0000
0000
,
1002
0000
0000
0023
0000
0000
0230
0000
,
0000
2300
0000
0000
3002
0000
0023
0000
,
0032
0000
0000
0203
0000
0000
2300
0000
,
0000
3200
0000
0000
0320
0000
2030
0000
,
3002
0000
0203
0000
0302
0000
0023
0230
,
0000
2300
0000
3020
0230
0000
0302
0000
,
2003
0000
3200
0000
0302
0000
0203
2300
,
0000
3002
0000
0203
0320
0000
1030
0000
,
0001
0000
1000
0000
0010
0000
1000
0100
0000
0100
1000
0000
0001
0000
0000
1000
,
0000
1000
0010
0000
1000
0000
0000
0001
0000
0001
0100
0000
0001
0000
1000
0001
,
0000
0000
0001
0000
1000
0000
0000
0010
0000
0010
0100
0000
0000
0010
1000
0000
,
0001
0000
0000
0000
0010
0000
0000
0100
1000
0001
1000
0001
1000
0000
0000
0000
,
0002
0000
0000
0000
2003
0000
0000
0000
3001
1000
0001
0000
2000
0000
0000
0000
,
3200
0000
0000
0000
0310
0100
0010
0100
0010
0000
0002
0000
2003
0000
0000
0000
,
3020
0000
0000
0000
0130
0010
0100
0010
0200
0000
0000
0000
0310
1000
0010
1000
,
0001
0000
0001
1000
0010
0000
0110
0000
,
1001
0000
0001
0000
1000
0100
1000
0010
,
0000
1001
0000
0001
0100
0010
1000
0100
,
0000
1001
0000
1000
0100
1000
0001
0010
,
0000
1001
0000
0001
1000
0010
1000
0100
,
0000
0110
0000
0010
0001
0100
0010
1000
,
0000
1001
0000
0001
0100
0001
0010
0100
,
0000
0110
0000
0010
0100
1000
0001
0100
,
0001
0000
1001
0000
0000
0000
1000
0000
0001
0000
0010
0100
0010
0100
0010
0000
,
0002
0000
0103
0020
0000
0130
2000
0000
,
3100
0020
0000
0130
0002
0103
0020
0000
,
2030
0000
3100
0020
0000
0130
0002
0000
,
0103
0020
0000
0031
0200
0310
2000
0000
,
3200
0000
0320
0000
0032
1003
0020
0230
,
0000
0320
1030
0002
0023
0000
0032
1003
,
0200
0000
2300
0000
3020
0031
0020
2030
,
0000
0000
3200
0000
0310
0000
0002
0000
2003
0000
3010
0000
0100
0001
0100
0001
,
2000
0000
0001
0000
0001
0000
3002
0203
,
0000
0001
0001
0000
0320
1000
1030
0000
,
0002
0000
1000
0000
1000
0000
2003
3200
,
0000
1000
1000
0000
0320
0001
0031
0000
,
2000
0000
3001
0100
0020
0100
0130
0001
,
2000
0000
3100
0010
0002
1000
1003
0010
,
0100
0001
0010
0100
1000
0010
0100
0001
,
1000
0000
0000
1000
0000
0000
1000
0000
0001
0100
0001
0100
0010
0000
0000
0000
,
1001
0000
1000
0000
0001
1000
0010
0000
,
1000
0000
0001
0000
1000
0001
0010
0000
,
0100
0000
1000
0000
0100
1000
0010
0000
,
0100
0000
0001
0000
0100
0001
0010
0000
,
0001
0000
0100
0000
0010
1000
0100
0000
,
1000
0000
0100
0000
0010
0001
0100
0000
,
0010
0000
1000
0000
0010
0100
0001
0000
,
1000
0000
1000
0001
0010
0000
0110
0000
,
2002
0000
0000
3003
;

//---------------dance-single - ----------------
#NOTES:
     dance-single:
     :
     Hard:
     8:
     0.637,0.660,0.066,0.794,0.012,435.000,8.000,96.000,0.000,0.000,0.000,0.637,0.660,0.066,0.794,0.012,435.000,8.000,96.000,0.000,0.000,0.000:
0000
0000
0000
0000
,
0000
0000
0000
0000
,
0000
0000
0000
0000
,
0000
0000
0000
0000
,
0002
0000
0000
2003
0000
0000
3001
0000
,
2000
0000
0000
3002
0000
0000
2003
0000
,
3200
0000
0000
0320
0000
0000
0130
0000
,
0020
0000
0000
0230
0000
0000
0320
0000
,
0031
0000
1000
0100
0000
1000
0100
0000
,
1000
0000
0001
0100
0000
0001
0100
0000
,
0001
0000
0010
0001
0000
0010
0001
0000
,
1000
0000
0010
1000
0000
0010
1000
0000
,
0001
0000
0000
0001
0000
0000
1000
0000
0000
0000
0010
0000
1000
0000
0000
0000
,
0001
0000
0010
0100
0000
0100
0010
0000
,
0001
0000
1000
0010
0000
0010
1000
0000
,
0100
0000
0100
0010
0100
0000
0110
0000
,
1001
0000
0001
0000
0010
0001
1000
0010
,
0000
1000
0000
0010
1000
0001
0010
0001
,
0000
0010
0000
0001
0010
0100
1000
0001
,
0000
1000
0000
0001
1000
0010
0100
0001
,
0000
0100
0000
0001
0100
0010
1000
0001
,
0000
1000
0000
0001
0010
0100
0010
0001
,
0000
0010
0000
0001
1000
0010
0100
0010
,
0000
0100
0000
0010
1000
0100
1000
0000
,
0001
0100
0001
0000
0001
0100
0010
1000
,
0000
0010
1000
0000
1000
0000
0010
1000
,
0001
0010
0001
0000
0001
0010
0100
1000
,
0000
0100
1000
0000
1000
0000
0010
1000
,
0100
0010
0100
0000
0100
0010
0001
0100
,
0000
0001
0100
0000
0100
0000
0001
0100
,
0010
1000
0010
0000
0010
1000
0001
0010
,
0000
0001
0010
0100
1000
0001
0100
0010
,
1000
0001
1000
0000
1000
0001
0010
0001
,
0000
1000
0000
0001
0100
0010
0100
0001
,
0000
1000
0000
0001
0010
0100
0010
0001
,
0000
1000
0000
0001
0100
0010
1000
0100
,
0000
0010
0000
0100
1000
0010
0100
0001
,
0000
1000
0000
0001
0100
0001
1000
0100
,
0010
0000
0100
0000
0010
0100
0010
0100
,
1000
0000
0000
0001
0000
0000
1000
0000
0001
0000
1000
0000
0010
0000
0000
0000
,
0210
0000
0000
0320
0000
0000
0230
0000
,
0000
0302
0000
0000
2003
0000
3200
0000
,
2300
0000
0000
3002
0000
0000
2003
0000
,
0000
3020
0000
0000
0230
0000
0302
0000
,
2003
0000
3200
0000
2300
0000
3020
0230
,
0000
0302
0000
0023
0230
0000
0320
0000
,
0032
0000
0203
0000
0320
0000
2030
3200
,
0000
0320
0000
0230
2300
0000
3001
0000
,
0200
0000
0001
0000
0301
0000
0200
0320
,
1000
1030
0020
0130
,
0002
0000
1000
0000
1003
0000
0002
0023
,
0100
0130
0020
0031
,
2000
3100
0200
0301
,
0002
0013
0020
1030
,
2000
0001
0001
3001
,
0100
0000
0100
0010
0100
0000
0110
0000
,
1001
0000
1000
0000
0001
0010
0001
1000
,
0000
0001
0000
1000
0010
0100
0010
1000
,
0000
0001
0000
1000
0100
0010
0100
1000
,
0000
0001
0000
1000
0010
0100
0001
0010
,
0000
0100
0000
0010
0001
0100
0010
1000
,
0000
0001
0000
1000
0100
0010
0001
0100
,
0000
0010
0000
0100
0001
0010
0100
1000
,
0001
0100
0000
0020
0000
1030
0001
0100
,
0002
0000
1003
0200
0000
1300
0020
0000
,
1030
0200
0000
1300
0002
0000
0023
0000
,
0032
0000
0103
0020
0000
1030
0002
0000
,
0013
0200
0000
0310
0002
0000
0203
0000
,
0320
0000
2030
0000
3002
0000
0023
0230
,
0000
0320
0000
0032
2003
0000
3020
0000
,
0230
0000
0302
0000
0023
0000
0230
2300
,
0000
3020
0000
0230
0302
0000
0013
0100
,
2000
0000
0001
0000
0001
0000
3002
0203
,
0001
0001
0320
1000
,
0230
0000
0001
0000
0001
0000
0320
2030
,
0100
0100
3002
0010
,
2003
0000
3001
0100
0020
0000
1030
0001
,
0020
0000
0130
0010
0002
0000
1003
0010
,
0100
0001
1000
0100
1000
0001
0100
0001
,
1000
0000
0000
0001
0000
0000
1000
0000
0001
0000
1000
0000
0010
0000
0000
0000
,
1001
0000
1000
0000
1000
0001
0010
0000
,
0001
0000
0001
0000
0001
1000
0010
0000
,
0100
0000
0100
0000
0100
0010
1000
0000
,
0100
0000
0100
0000
0100
0010
0001
0000
,
1000
0000
1000
0000
1000
0010
0100
0000
,
0001
0000
0001
0000
0001
0010
0100
0000
,
1000
0000
1000
0000
1000
0001
0100
0000
,
0010
0000
0010
0100
0010
0000
0110
0000
,
2002
0000
0000
3003
;

//---------------dance-single - ----------------
#NOTES:
     dance-single:
     :
     Medium:
     6:
     0.511,0.514,0.083,0.579,0.000,353.000,10.000,70.000,0.000,0.000,0.000,0.511,0.514,0.083,0.579,0.000,353.000,10.000,70.000,0.000,0.000,0.000:
0000
0000
0000
0000
,
0000
0000
0000
0000
,
0000
0000
0000
0000
,
0000
0000
0000
0000
,
0001
0000
0000
0001
0000
0000
0000
0000
,
0001
0000
0000
0001
0000
0000
0100
0000
,
0010
0000
0000
0010
0000
0000
0000
0000
,
0010
0000
0000
0010
0000
0000
1000
0000
,
0001
0000
0000
0100
0000
0000
0001
0000
,
1000
0000
0000
0100
0000
0000
1000
0000
,
0001
0000
0000
0010
0000
0000
0001
0000
,
1000
0000
0000
0010
0000
0000
1000
0000
,
0001
0000
0000
0100
0000
0000
0010
0000
,
1000
0000
0000
0100
0000
0000
0010
0000
,
0001
0000
0000
1000
0000
0000
0010
0000
,
0100
0100
0100
0110
,
1001
0000
0001
0000
1000
0000
0001
0010
,
0000
0001
0010
0000
0001
0000
1000
0010
,
0000
1000
0010
0000
1000
0000
0100
0010
,
0000
0100
0010
0000
0001
0000
1000
0001
,
0000
1000
0001
0000
0100
0000
0010
1000
,
0000
0010
1000
0000
0001
0000
0010
0100
,
0000
0010
0100
0000
1000
0000
0001
0100
,
0010
0000
1010
0000
0010
0000
0100
0001
,
1000
0010
1000
0000
0010
0000
1000
0001
,
0000
1000
0001
0000
1000
0000
0100
0000
,
0010
0001
0010
0000
0001
0000
0100
0010
,
0000
0100
0010
0000
1000
0000
0001
0000
,
0010
0100
0010
0000
0001
0000
1000
0010
,
0000
1000
0010
0000
1000
0000
0100
0000
,
1000
0001
1000
0000
0001
0000
0100
0010
,
1000
0001
0000
1000
0100
0010
0001
0000
,
1000
0001
1000
0000
0001
0000
0100
0010
,
0000
0010
1000
0000
0001
0000
1000
0100
,
0000
0100
1000
0000
0010
0000
1000
0001
,
0000
0001
0010
0000
0001
0000
0100
0010
,
0000
1000
0001
0000
1000
0000
0001
0010
,
0000
0010
0001
0000
0100
0000
0010
1000
,
0001
0000
1000
0000
0001
1000
0001
1000
,
0100
0000
0100
0000
0010
0001
1000
0000
,
2001
0000
0000
3020
0000
0000
2030
0000
,
3000
0002
0000
0000
2003
0000
3200
0000
,
2300
0000
0000
3002
0000
0000
2003
0000
,
0000
3020
0000
0000
0230
0000
0302
0000
,
2003
0000
3002
0000
2003
0000
0000
3200
,
0000
0320
0032
0203
,
0320
0000
2030
0000
3002
0000
0000
2003
,
0000
3200
0320
0031
,
2000
0000
0001
0000
0001
0000
3001
2000
,
0001
0001
3002
1003
,
0020
0000
0100
0000
0100
0000
0130
0020
,
0100
0100
0230
0310
,
2000
3100
0200
0310
,
0020
0031
0002
1003
,
2000
0001
0001
3001
,
0100
0100
0100
0110
,
1001
0000
0001
0000
1000
0000
0010
0100
,
0000
0100
0001
0000
0010
0000
0100
1000
,
0000
1000
0100
0000
0010
0000
0001
1000
,
0000
1000
0010
0000
0100
0000
0001
0010
,
0000
0100
1000
0000
0001
0000
1000
0010
,
0000
0010
1000
0000
0001
0000
0100
0001
,
0000
1000
0010
0000
1000
0000
0001
0000
,
1000
0100
0010
0002
0000
1003
0001
1000
,
0002
0000
0000
0203
0000
0000
0320
0000
,
0000
0230
0000
0000
0302
0000
0023
0000
,
0230
0000
0000
2300
0000
0000
3020
0000
,
0000
0230
0000
0000
0320
0000
2030
0000
,
3002
0000
0023
0000
0230
0000
0000
0320
,
0000
0032
2003
3020
,
0230
0000
0302
0000
0023
0000
0000
0230
,
0000
2300
3002
0103
,
2001
0000
0010
0000
0000
0000
3010
0200
,
0000
0010
0320
1000
,
2030
0000
0100
0000
0000
0000
3100
0020
,
0000
0001
0032
0100
,
0103
0000
0010
1000
0000
0010
1000
0000
,
0100
0000
0010
0001
0000
0010
0001
0000
,
1000
0000
0001
1000
0000
0001
1000
0000
,
0100
0000
0100
0000
0010
0001
1000
0000
,
1001
0000
1000
0000
0000
0001
1000
0000
,
0001
0000
0100
0000
0000
0001
0100
0000
,
0010
0000
1000
0000
0000
0010
1000
0000
,
0001
0000
0010
0000
0000
0001
0010
0000
,
0100
0000
1000
0000
0000
0100
1000
0000
,
0001
0000
0100
0000
0000
0001
0100
0000
,
0010
0000
0100
0000
0000
0001
1000
0000
,
0100
0100
0100
0110
,
2002
0000
0000
3003
;

//---------------dance-single - ----------------
#NOTES:
     dance-single:
     :
     Easy:
     4:
     0.308,0.293,0.074,0.182,0.000,230.000,9.000,22.000,0.000,0.000,0.000,0.308,0.293,0.074,0.182,0.000,230.000,9.000,22.000,0.000,0.000,0.000:
0000
0000
0000
0000
,
0000
0000
0000
0000
,
0000
0000
0000
0000
,
0000
0000
0000
0000
,
0001
0000
0001
0000
,
1000
0000
1000
0000
,
0001
0000
0001
0000
,
0010
0000
0010
0000
,
1001
0000
0001
0000
,
0100
0000
0100
0000
,
0010
0000
0010
0000
,
1000
0000
1000
0000
,
0002
0000
1000
0000
,
0100
0000
0100
0000
,
0010
0000
0010
0000
,
1003
0001
1000
0110
,
1001
0001
0000
0100
,
0010
1000
0000
0100
,
0010
0001
0000
0100
,
0010
1000
0000
0100
,
1000
0010
0000
0100
,
0001
0010
0000
0100
,
1000
0010
0000
0100
,
0001
1000
0001
1000
,
0001
0010
0000
0001
,
0010
0001
0100
0010
,
1000
0100
0000
1000
,
0100
1000
0010
0100
,
0001
1000
0000
0001
,
1000
0010
1000
0100
,
0010
0001
0000
0010
,
0001
0100
0010
1000
,
0001
0100
0000
0001
,
0010
0100
0000
1000
,
0010
0100
0000
0001
,
0010
0100
0000
1000
,
0010
1000
0000
0010
,
0100
0001
0000
0010
,
0100
1000
0100
1000
,
0001
0000
0100
0010
,
2001
0000
0000
0000
,
3002
0000
0000
0000
,
0203
0000
0000
0000
,
0320
0000
0000
0000
,
2030
0000
0000
0000
,
3200
0000
0000
0000
,
0320
0000
0000
0000
,
0032
0000
0000
1003
,
0002
0000
0000
0103
,
0200
0000
0320
0000
,
2030
0000
0000
3100
,
0200
0000
0320
0000
,
0032
0000
0203
0000
,
0320
0000
2030
0000
,
3002
0000
0000
0000
,
1003
0001
1000
0110
,
1001
0001
0000
0010
,
0001
0100
0000
0010
,
1000
0100
0000
0010
,
0001
0100
0000
0001
,
0010
0001
0000
1000
,
0010
0100
0000
0001
,
1000
0001
0000
0100
,
0010
1000
0001
0010
,
0001
0000
0100
0000
,
0010
0000
1000
0100
,
0010
0000
0001
0000
,
1000
0000
0001
0010
,
0001
0100
0010
0000
,
0100
0000
0010
1000
,
0001
0010
0001
0000
,
0100
0000
0010
1000
,
0001
1000
0000
0001
,
1000
0010
1000
0100
,
0010
0001
0000
0010
,
0001
0100
0010
1000
,
0001
0000
0100
0010
,
1000
0000
0100
0010
,
0001
1000
0001
1000
,
0001
0000
0100
0010
,
1001
1000
0000
1000
,
0001
0100
0000
0100
,
0001
0010
0000
0010
,
0001
1000
0000
1000
,
0010
0100
0000
0010
,
0100
0001
0000
0001
,
0010
0100
0000
0010
,
0001
1000
0001
0110
,
2002
0000
0000
3003
;

//---------------dance-single - ----------------
#NOTES:
     dance-single:
     :
     Beginner:
     2:
     0.145,0.145,0.041,0.000,0.000,118.000,5.000,0.000,0.000,0.000,0.000,0.145,0.145,0.041,0.000,0.000,118.000,5.000,0.000,0.000,0.000,0.000: // measure 0
0000
0000
0000
0000
,  // measure 1
0000
0000
0000
0000
,  // measure 2
0000
0000
0000
0000
,  // measure 3
0000
0000
0000
0000
,  // measure 4
0001
0000
0000
0000
,  // measure 5
0001
0000
0000
0000
,  // measure 6
1000
0000
0000
0000
,  // measure 7
1000
0000
0000
0000
,  // measure 8
0010
0000
0000
0000
,  // measure 9
1000
0000
0000
0000
,  // measure 10
0001
0000
0000
0000
,  // measure 11
0010
0000
0000
0000
,  // measure 12
0100
0000
0000
0000
,  // measure 13
0100
0000
0000
0000
,  // measure 14
0100
0000
0000
0000
,  // measure 15
0100
0000
0000
1001
,  // measure 16
0000
0000
0001
0000
,  // measure 17
0001
0000
0001
0000
,  // measure 18
0000
0000
1000
0000
,  // measure 19
1000
0000
1000
0000
,  // measure 20
0000
0000
0010
0000
,  // measure 21
0010
0000
0010
0000
,  // measure 22
0000
0000
0100
0000
,  // measure 23
0100
0000
0100
0000
,  // measure 24
0001
0000
1000
0000
,  // measure 25
0001
0000
0000
0000
,  // measure 26
1000
0000
0001
0000
,  // measure 27
1000
0000
0000
0000
,  // measure 28
0100
0000
0010
0000
,  // measure 29
0100
0000
0000
0000
,  // measure 30
0010
0000
0100
0000
,  // measure 31
0010
0000
0000
0000
,  // measure 32
0001
0000
0100
0000
,  // measure 33
0100
0000
0000
0000
,  // measure 34
0010
0000
1000
0000
,  // measure 35
1000
0000
0000
0000
,  // measure 36
0001
0000
0010
0000
,  // measure 37
0010
0000
0000
0000
,  // measure 38
0100
0000
1000
0000
,  // measure 39
1000
0000
0001
0000
,  // measure 40
1001
0000
0000
0000
,  // measure 41
0000
0000
0000
0000
,  // measure 42
0100
0000
0000
0000
,  // measure 43
0000
0000
0000
0000
,  // measure 44
0010
0000
0000
0000
,  // measure 45
0000
0000
0000
0000
,  // measure 46
0100
0000
0000
0000
,  // measure 47
0000
0000
0000
0000
,  // measure 48
0001
0000
0000
0000
,  // measure 49
0100
0000
0010
0000
,  // measure 50
1000
0000
0000
0000
,  // measure 51
0100
0000
0010
0000
,  // measure 52
0001
0000
1000
0000
,  // measure 53
0001
0000
1000
0000
,  // measure 54
0001
0000
0000
0000
,  // measure 55
0100
0000
0000
1001
,  // measure 56
0000
0000
1000
0000
,  // measure 57
1000
0000
0001
0000
,  // measure 58
0001
0000
0100
0000
,  // measure 59
0100
0000
0010
0000
,  // measure 60
0010
0000
1000
0000
,  // measure 61
1000
0000
0100
0000
,  // measure 62
0100
0000
0010
0000
,  // measure 63
0010
0000
0001
0000
,  // measure 64
1000
0000
0000
0000
,  // measure 65
1000
0000
0001
0000
,  // measure 66
0100
0000
0000
0000
,  // measure 67
0100
0000
0010
0000
,  // measure 68
1000
0000
0001
0000
,  // measure 69
1000
0000
0010
0000
,  // measure 70
1000
0000
0100
0000
,  // measure 71
0010
0000
0001
0000
,  // measure 72
1000
0000
0000
0000
,  // measure 73
0001
0000
0010
0000
,  // measure 74
0001
0000
0000
0000
,  // measure 75
1000
0000
0010
0000
,  // measure 76
1000
0000
0100
0000
,  // measure 77
0010
0000
0001
0000
,  // measure 78
1000
0000
0000
0000
,  // measure 79
0001
0000
1000
0000
,  // measure 80
1001
0000
0000
0000
,  // measure 81
1000
0000
0000
0000
,  // measure 82
0001
0000
0000
0000
,  // measure 83
1000
0000
0000
0000
,  // measure 84
0010
0000
0000
0000
,  // measure 85
0100
0000
0000
0000
,  // measure 86
0010
0000
0000
0000
,  // measure 87
0100
0000
0000
1001
;
