#TITLE:NIL;
#SUBTITLE:;
#ARTIST:Nelo;
#TITLETRANSLIT:;
#SUBTITLETRANSLIT:;
#ARTISTTRANSLIT:;
#GENRE:;
#CREDIT:;
#BANNER:;
#BACKGROUND:;
#LYRICSPATH:;
#CDTITLE:;
#MUSIC:NIL - Nelo.mp3;
#OFFSET:-11.060001;
#SAMPLESTART:39.835510;
#SAMPLELENGTH:9.795921;
#SELECTABLE:YES;
#BPMS:0.000000=196.000000
;
#STOPS:
;
#BGCHANGES:;
#KEYSOUNDS:;
#ATTACKS:;

//---------------dance-single - ----------------
#NOTES:
     dance-single:
     :
     Beginner:
     2:
     0.176883,0.214123,0.010233,0.000000,0.000000,120.000000,1.000000,0.000000,0.000000,0.000000,0.000000,0.176883,0.214123,0.010233,0.000000,0.000000,120.000000,1.000000,0.000000,0.000000,0.000000,0.000000:
0010
0000
0010
0000
,
0010
0000
0000
0000
,
0100
0000
0100
0000
,
0100
0000
0000
0000
,
0001
0000
0001
0000
,
0001
0000
0000
0000
,
1000
0000
1000
0000
,
1000
0000
0000
0000
,
0100
0000
0000
0000
,
0100
0000
0100
0000
,
0100
0000
0000
0000
,
0010
0000
0010
0000
,
0010
0000
0000
0000
,
0001
0000
1000
0000
,
0001
0000
0000
0000
,
0100
0000
0010
0000
,
0110
0000
0000
0000
,
0100
0000
0000
0000
,
0001
0000
0000
0000
,
1000
0000
0000
0000
,
0100
0000
0000
0000
,
0010
0000
0000
0000
,
0001
0000
1000
0000
,
0001
0000
1000
1000
,
0000
1000
0000
1000
,
0000
1000
0000
0001
,
0000
1000
0000
1000
,
0000
0001
0000
0001
,
0000
0100
0000
0100
,
0100
0000
0100
0000
,
0000
0010
0000
0010
,
0000
0010
0000
0000
,
0000
0100
0000
0100
,
0000
0001
0000
0100
,
0000
0001
0000
0001
,
0000
0100
0000
0100
,
0000
0010
0000
1000
,
0000
0001
0001
0000
,
0000
0001
0000
1000
,
0000
0001
0000
1000
,
0000
0010
0000
0100
,
0000
0010
0000
0000
,
0100
0000
0000
0000
,
0100
0000
0000
0000
,
0010
0000
0000
0000
,
0010
0000
0000
0000
,
0000
0100
0000
0100
,
0000
0001
0000
0100
,
0000
0001
0000
0001
,
0000
1000
0000
0001
,
0000
1000
0000
1000
,
0000
0010
0000
1000
,
0000
0100
0000
0010
,
0000
0001
0001
0001
,
0000
1000
0000
0001
,
0000
1000
0000
0001
,
0000
0100
0000
0010
,
0000
0100
0000
0010
,
0000
1000
0000
0100
,
0000
0010
0000
0001
,
0000
1000
0000
0010
,
0000
0100
0100
0000
,
0100
0000
0000
0000
,
0010
0000
0000
0000
,
0100
0000
0010
0000
,
0100
0000
0000
0000
,
0001
0000
0000
1000
,
0000
0000
0001
0000
,
0010
0000
0100
0000
,
0010
0010
0010
0010
;

//---------------dance-single - ----------------
#NOTES:
     dance-single:
     :
     Easy:
     5:
     0.375694,0.321185,0.051165,0.153494,0.000000,237.000000,5.000000,15.000000,0.000000,0.000000,0.000000,0.375694,0.321185,0.051165,0.153494,0.000000,237.000000,5.000000,15.000000,0.000000,0.000000,0.000000:
0010
0100
0010
0100
,
0001
1000
0001
1000
,
0000
0100
0010
0001
,
0100
0010
1000
0001
,
0000
0010
0001
1000
,
0010
0100
0001
1000
,
0000
0001
0010
0100
,
1000
0000
0001
0000
0100
0000
0000
0100
,
0000
0010
0100
0010
,
1000
0001
1000
0001
,
0010
0001
0010
0001
,
1000
0100
1000
0000
,
0010
0100
0100
0100
,
0001
1000
1000
1000
,
0100
0010
0010
0010
,
0001
0100
0100
0000
,
0020
0000
2030
0000
,
3200
0000
0320
0000
,
0032
0000
2003
0000
,
3020
0000
0230
0001
,
0301
0000
0000
0010
0000
0000
0100
0000
,
0000
1000
0000
0000
0010
0000
0100
0000
,
0020
0000
2030
0000
,
3002
0000
0000
0000
0013
0000
0000
0010
,
0000
0100
1000
0100
,
1000
0001
1000
0001
,
0100
0001
0100
0010
,
0100
0000
0010
0000
1000
0000
0000
0001
,
0000
1000
0100
0010
,
0001
1000
0010
0100
,
0000
1001
0000
0110
,
0000
0000
1001
0000
0000
0000
0000
0010
,
0000
0100
0001
0100
,
0001
1000
0001
1000
,
0100
1000
0100
0010
,
0100
0000
0010
0000
0001
0000
0000
1000
,
0000
0001
0010
0100
,
1000
0000
0010
0000
0100
0000
0000
1002
,
0000
0010
1000
0010
,
0203
1000
0010
1000
,
0320
1000
0100
1000
,
0130
0110
0000
0000
,
0010
0000
0000
0100
0000
0000
0001
0000
,
0000
1000
0000
0000
0100
0000
0000
0010
,
0000
0100
1000
0000
,
0001
0000
0000
0100
0000
0100
0000
0100
,
0000
0010
1000
0010
,
1000
0100
0001
0100
,
0010
0001
0010
0001
,
0100
1000
0100
0010
,
1000
0100
1000
0100
,
1000
0010
0001
0010
,
0100
0001
0100
0001
,
1000
0000
0000
0000
0002
0000
0000
1003
,
0000
0010
0100
0010
,
0100
0001
0010
0001
,
1000
0001
1000
0001
,
1000
0010
0100
0010
,
1000
0010
1000
0010
,
0001
0010
0100
0001
,
1000
0100
0010
0010
,
0100
0000
0100
0000
1000
0000
0000
0001
,
0000
1000
0010
0100
,
0001
0010
0100
0000
,
0010
0000
0001
0100
,
1000
0100
0001
0000
,
0010
0000
0000
0100
0000
0000
1000
0000
,
0000
0010
0000
0000
0100
0000
0000
0001
,
0000
1000
0001
0010
,
0100
1000
0010
0100
;

//---------------dance-single - ----------------
#NOTES:
     dance-single:
     :
     Medium:
     7:
     0.459019,0.500517,0.337686,0.112562,0.000000,270.000000,33.000000,11.000000,0.000000,0.000000,0.000000,0.459019,0.500517,0.337686,0.112562,0.000000,270.000000,33.000000,11.000000,0.000000,0.000000,0.000000:
0010
1000
0100
1000
,
0001
0000
0100
0000
0010
0000
0010
1000
,
0000
0100
0010
0100
,
1000
0000
0001
0000
0010
0001
0000
0001
,
0000
0100
0010
0100
,
0001
0000
1000
0000
0100
0000
0010
0100
,
0000
0100
1000
0010
,
0100
0000
0001
0000
1000
0001
0000
1001
,
0000
0100
0010
0100
,
1000
0000
0010
0000
0100
0001
0000
1000
,
0000
0001
0010
0100
,
1000
0000
0010
0000
0100
0001
0000
1000
,
0000
1001
1100
1001
,
0101
0000
1001
0000
1100
0000
1000
0001
,
0000
0011
1001
1010
,
1001
0000
0011
0000
0001
1000
0000
0020
,
0000
0100
1000
0100
,
2030
0100
0001
0100
,
3002
0010
0100
0010
,
2003
0100
0001
3100
,
1100
0000
0000
1001
0000
0000
0011
0000
,
0000
0101
0000
0000
0110
0000
0010
0000
,
2000
0000
3002
0000
,
2003
0000
0000
0000
3001
0000
0001
1000
,
0000
0010
0100
0001
,
0010
0000
0001
0000
1000
0000
1000
0100
,
0000
0000
0010
0000
0001
1000
0000
0001
,
0000
0000
0100
0000
0010
1000
0000
0010
,
0000
0100
0001
0100
,
0010
0000
1000
0000
0100
0000
0010
0100
,
0000
0110
0000
0011
,
0000
0000
1100
0000
1000
0000
1000
0001
,
0000
0000
0100
0000
0010
0100
0000
0001
,
0000
0000
1000
0000
0100
0010
0000
0100
,
0000
0000
1000
0000
0001
0100
0000
0001
,
0000
0000
0010
0000
0001
1000
0000
0010
,
0000
0100
0001
0100
,
0010
0000
1000
0000
0001
1000
0001
2000
,
0000
0010
0100
0010
,
3002
0010
1000
0010
,
0203
1000
0010
0001
,
0310
0110
0000
0000
,
0110
0000
0000
1010
0000
0000
0101
0000
,
0000
1001
0000
0000
0100
0010
0000
0110
,
0000
0100
1000
0001
,
0100
0000
0100
0010
0000
0110
0000
0110
,
0000
0100
0001
0010
,
0100
0000
1000
0000
0100
0000
0010
0001
,
0000
0100
0010
0100
,
0001
0000
1000
0000
0100
0000
0010
0100
,
0000
1000
0010
0001
,
1000
0000
0100
0000
0001
0000
0001
1000
,
0000
0100
0010
0100
,
2000
0000
0000
0000
3001
1000
0001
1000
,
0000
0001
0100
0010
,
1000
0000
0100
0000
0010
0001
0000
0010
,
0000
0100
1000
0010
,
0100
0000
1000
0000
0100
0001
0000
0100
,
0000
0010
1000
0001
,
0010
0000
0100
0000
1000
0000
0010
1000
,
0000
0001
0010
1000
,
0001
0000
0100
0000
1000
0000
0001
0100
,
0000
0010
1000
0100
,
1000
0000
0001
0000
0010
0000
0010
0001
,
0000
0100
0010
1000
,
0100
0010
0100
0110
,
0110
0000
0000
1001
0000
0000
0011
0000
,
0000
1100
0000
0000
1000
0000
1000
0001
,
0000
0100
0010
1000
,
0100
0000
0010
0000
0001
1000
0001
1000
;

//---------------dance-single - ----------------
#NOTES:
     dance-single:
     :
     Hard:
     8:
     0.651982,0.536268,0.470713,0.102329,0.010233,390.000000,46.000000,10.000000,0.000000,0.000000,0.000000,0.651982,0.536268,0.470713,0.102329,0.010233,390.000000,46.000000,10.000000,0.000000,0.000000,0.000000:
// measure 0
0010
1000
0100
0010
,  // measure 1
0100
0000
1000
0000
0001
0000
0100
0010
,  // measure 2
0100
0001
1000
0100
,  // measure 3
0010
0000
0001
0000
0010
0100
0000
0010
,  // measure 4
0001
1000
0010
0100
,  // measure 5
1000
0000
0100
0000
0001
0000
1000
0100
,  // measure 6
1000
0010
0100
0001
,  // measure 7
0010
0000
0100
0000
1000
0001
0000
1001
,  // measure 8
0000
0000
0010
1000
0100
1000
0000
0001
,  // measure 9
0000
0100
0010
0100
0001
0000
1000
0100
,  // measure 10
0000
0100
1000
0010
0100
0001
0010
0001
,  // measure 11
1000
0010
0100
0001
0010
0100
1000
0001
,  // measure 12
0000
1001
0011
1100
,  // measure 13
1001
0000
0101
0000
0110
0000
0010
0100
,  // measure 14
0000
0110
1010
0101
,  // measure 15
0011
0000
1100
0000
1000
0001
0000
0012
,  // measure 16
0000
0000
1000
0000
0100
0000
0010
0003
,  // measure 17
2000
0100
0001
0010
,  // measure 18
3002
0100
1000
0010
,  // measure 19
0203
1000
0010
0301
,  // measure 20
0011
0000
0000
1100
0000
0000
0011
0000
,  // measure 21
0000
1100
0000
1000
0001
0100
0010
0000
,  // measure 22
2000
0000
3020
0000
,  // measure 23
0230
0000
0000
0000
0301
1000
0001
1001
,  // measure 24
0000
0000
1000
0100
1000
0100
1000
0001
,  // measure 25
0000
0001
0100
0001
0100
0001
0010
0001
,  // measure 26
0000
0001
1000
0001
1000
0001
1000
0010
,  // measure 27
0000
0010
1000
0010
1000
0010
0100
0010
,  // measure 28
0000
0010
0100
0010
0000
0010
1000
0000
,  // measure 29
1100
0000
0011
0000
0001
1000
0010
0100
,  // measure 30
0000
0110
1000
1010
,  // measure 31
0100
0000
0101
0000
0001
0010
0100
1000
,  // measure 32
0000
1000
0100
1000
0100
1000
0100
0010
,  // measure 33
0000
0010
0001
0010
0001
0010
0001
1000
,  // measure 34
0000
1000
0010
1000
0010
1000
0010
0100
,  // measure 35
0000
0100
0001
0100
0001
1000
0001
0010
,  // measure 36
0000
0010
0000
0100
1000
0100
0010
0001
,  // measure 37
0000
0001
1000
0010
0100
0001
1000
2001
,  // measure 38
0000
0100
0001
3010
,  // measure 39
0102
0010
1000
0103
,  // measure 40
0021
1000
0100
0031
,  // measure 41
1001
0000
0000
0110
0000
0000
0010
0100
0010
0100
0000
0000
,  // measure 42
0101
0000
1000
0100
0000
0010
0001
0000
,  // measure 43
1000
0010
0000
0100
0001
0001
0000
1001
,  // measure 44
0000
0000
1000
0100
0001
0100
1000
0010
,  // measure 45
0001
0010
1000
0001
0000
0010
0000
0110
,  // measure 46
0000
0000
0100
1000
0010
1000
0001
0010
,  // measure 47
0100
0010
0001
1000
0010
0100
0001
1001
,  // measure 48
0000
0000
1000
0100
0010
0100
1000
0010
,  // measure 49
0100
0001
0010
0100
1000
0001
0100
0110
,  // measure 50
0000
0000
0010
0100
0001
1000
0100
0001
,  // measure 51
0100
1000
0010
0100
0001
0010
0100
1100
,  // measure 52
0000
0000
1000
0100
0001
0100
0010
0001
,  // measure 53
1000
0010
0100
0001
1000
0001
1000
1001
,  // measure 54
0000
0000
0100
0010
0001
1000
0010
0100
,  // measure 55
0001
0100
0010
1000
0001
0010
0100
1000
,  // measure 56
0000
0000
1000
0100
0001
0100
1000
0010
,  // measure 57
0100
0001
0100
0010
1000
0001
0010
0100
,  // measure 58
0000
0000
0100
1000
0010
0100
1000
0100
,  // measure 59
0010
0001
0010
1000
0100
0001
0100
0010
,  // measure 60
0000
0011
0110
1100
,  // measure 61
1001
0000
0101
0000
1010
0000
0010
0110
,  // measure 62
0000
0000
0100
0000
0010
1000
0100
1000
,  // measure 63
0000
1000
0001
0000
0010
0000
0001
1000
,  // measure 64
0000
1000
0100
1000
0001
0100
0010
0100
,  // measure 65
0001
1000
0100
0000
0010
0000
0110
0000
,  // measure 66
1100
0000
1000
0001
0000
0100
0010
0000
,  // measure 67
1000
0001
0000
0010
0100
1000
0001
1001
,  // measure 68
0000
0000
0010
0100
1000
0100
0001
0010
,  // measure 69
0100
1000
0010
0100
0001
0010
0100
1001
;
