#TITLE:NEW Astronomas;
#SUBTITLE:;
#ARTIST:Memme;
#TITLETRANSLIT:;
#SUBTITLETRANSLIT:;
#ARTISTTRANSLIT:;
#GENRE:;
#CREDIT:;
#BANNER:[Qualifier Singles] - NEW Astronomas.png;
#BACKGROUND:[Qualifier Singles] - NEW Astronomas-bg.png;
#LYRICSPATH:;
#CDTITLE:[Qualifier Singles] - NEW Astronomas-cdtitle.png;
#MUSIC:[Qualifier Singles] - NEW Astronomas.mp3;
#OFFSET:-0.101;
#SAMPLESTART:37.601;
#SAMPLELENGTH:12.000;
#SELECTABLE:YES;
#DISPLAYBPM:160.000;
#BPMS:0.000=160.000
;
#STOPS:
;
#BGCHANGES:;
#KEYSOUNDS:;
#ATTACKS:;

//---------------dance-single - ----------------
#NOTES:
     dance-single:
     :
     Beginner:
     2:
     0.111,0.127,0.070,0.000,0.000,91.000,9.000,0.000,0.000,0.000,0.000,0.111,0.127,0.070,0.000,0.000,91.000,9.000,0.000,0.000,0.000,0.000: // measure 0
0000
0000
0000
0000
,  // measure 1
0000
0000
0000
0000
,  // measure 2
0000
0000
0000
0000
,  // measure 3
0000
0000
0000
0000
,  // measure 4
0000
0000
0000
0000
,  // measure 5
1000
0000
0000
0000
,  // measure 6
0001
0000
0000
0000
,  // measure 7
0100
0000
0100
0000
,  // measure 8
0010
0000
0000
0000
,  // measure 9
0000
1000
0000
0000
,  // measure 10
0001
0000
0000
0000
,  // measure 11
0010
0000
0000
0000
,  // measure 12
0100
0000
0000
0000
,  // measure 13
0001
0000
0000
0000
,  // measure 14
1000
0000
0000
0000
,  // measure 15
0001
0000
1000
0000
,  // measure 16
0001
0000
0000
0000
,  // measure 17
0010
0000
0000
0000
,  // measure 18
0100
0000
0000
0000
,  // measure 19
0100
0000
0000
0000
,  // measure 20
0010
0000
0000
0000
,  // measure 21
0001
0000
1000
0000
,  // measure 22
1000
0000
0001
0000
,  // measure 23
1000
0000
0001
0000
,  // measure 24
0001
0000
0000
0000
,  // measure 25
0000
0100
0000
0000
,  // measure 26
0010
0000
0000
0000
,  // measure 27
1000
0000
0001
0000
,  // measure 28
1000
0000
0000
0000
,  // measure 29
0010
0000
0000
0000
,  // measure 30
0100
0000
0000
0000
,  // measure 31
0010
0000
1000
0000
,  // measure 32
0001
0000
0000
0000
,  // measure 33
1000
0000
0100
0000
,  // measure 34
1000
0000
0100
0000
,  // measure 35
0001
0000
0100
0000
,  // measure 36
0001
0000
0100
0000
,  // measure 37
0010
0000
0000
0000
,  // measure 38
1000
0000
0000
0000
,  // measure 39
0001
0000
0010
0000
,  // measure 40
0100
0000
0000
0000
,  // measure 41
1001
0000
0000
0000
,  // measure 42
0000
0000
0000
0000
,  // measure 43
0000
0000
0000
0000
,  // measure 44
0000
0000
0000
0000
,  // measure 45
0000
0000
0000
0000
,  // measure 46
0000
0000
0000
0000
,  // measure 47
0000
0000
0000
0000
,  // measure 48
0000
0000
0000
0000
,  // measure 49
1001
0000
0000
0000
,  // measure 50
0000
0000
0000
0000
,  // measure 51
1001
0000
0000
0000
,  // measure 52
0000
0000
0000
0000
,  // measure 53
0010
0000
0010
0000
,  // measure 54
0010
0000
0010
0000
,  // measure 55
0100
0000
0100
0000
,  // measure 56
1000
0000
0001
0000
,  // measure 57
1001
0000
0000
0000
,  // measure 58
0001
0000
0000
0000
,  // measure 59
0010
0000
0000
0000
,  // measure 60
0100
0000
1000
0000
,  // measure 61
0001
0000
1000
0000
,  // measure 62
0001
0000
0000
0000
,  // measure 63
1000
0000
0000
0000
,  // measure 64
0100
0000
0010
0000
,  // measure 65
0001
0000
0000
0000
,  // measure 66
1001
0000
0000
0000
,  // measure 67
0100
0000
0000
0000
,  // measure 68
0010
0000
1000
0000
,  // measure 69
0001
0000
0000
0000
,  // measure 70
1001
0000
0000
0000
,  // measure 71
1001
0000
0000
0000
,  // measure 72
0010
0000
0100
0000
,  // measure 73
1000
0000
0000
0000
,  // measure 74
0010
0000
0000
0000
,  // measure 75
1000
0000
0000
0000
,  // measure 76
0100
0000
0000
0000
,  // measure 77
0010
0000
0000
0000
,  // measure 78
0001
0000
0000
0000
,  // measure 79
1000
0000
0000
0000
,  // measure 80
0001
0000
1000
0000
,  // measure 81
1001
0000
0000
0000
,  // measure 82
1001
0000
0000
0000
;

//---------------dance-single - ----------------
#NOTES:
     dance-single:
     :
     Easy:
     3:
     0.222,0.318,0.178,0.108,0.000,164.000,23.000,14.000,0.000,0.000,0.000,0.222,0.318,0.178,0.108,0.000,164.000,23.000,14.000,0.000,0.000,0.000:
0000
0000
0000
0000
,
0000
0000
0000
0000
,
0000
0000
0000
0000
,
0000
0000
0000
0000
,
0000
0000
0000
0000
,
1000
1000
1000
1000
,
0001
0001
0001
0001
,
0100
0100
0100
0100
,
0020
0000
0000
0000
0000
0000
0000
0000
0000
0000
0000
0000
0000
0000
0000
0000
0000
0000
0000
0000
0000
0000
0000
0000
0000
0000
0000
0000
0000
0000
0000
0000
0000
0000
0000
0000
0000
0000
0000
0000
0000
0000
0000
0000
0000
0000
0000
0000
0000
0000
0000
0000
0000
0000
0000
0000
0000
0000
0000
0000
0000
0000
0000
0000
0000
0000
0000
0000
0000
0000
0000
0000
0000
0000
0000
0000
0000
0000
0000
0000
0000
0000
0000
0000
0000
0000
0000
0000
0000
0000
0000
0000
0000
0000
0000
0000
0000
0000
0000
0000
0000
0000
0000
0000
0000
0000
0000
0000
0000
0000
0000
0000
0000
0000
0000
0000
0000
0000
0000
0000
0000
0000
0000
0000
0000
0000
0000
0000
0000
0000
0000
0000
0000
0000
0000
0000
0000
0000
0000
0030
0000
0000
0000
0000
0000
0000
0000
0000
0000
0000
0000
0000
0000
0000
0000
0000
0000
0000
0000
0000
0000
0000
0000
0000
0000
0000
0000
0000
0000
0000
0000
0000
0000
0000
0000
0000
0000
0000
0000
0000
0000
0000
0000
0000
0000
0000
0000
0000
0000
0000
0000
0000
,
1001
0000
0000
0001
,
0010
0000
0000
0000
,
1001
0000
0000
1000
,
0100
0000
0000
0000
,
0100
1001
0000
0000
,
0010
1001
0000
0000
,
0010
1001
0100
1001
,
0010
0000
0000
0000
,
0001
0000
0010
0000
,
0100
0000
1000
0000
,
1000
0000
0100
0000
,
0010
0000
0001
0000
,
1000
1010
0000
0000
,
0001
0101
0000
0000
,
1000
0110
0000
0000
,
0001
0110
0000
0000
,
1000
0000
0010
0000
,
0100
0100
0001
0000
,
1000
0100
0001
0100
,
1000
0000
0010
0000
,
0010
0000
1000
0000
,
0001
0100
1000
0100
,
0001
0000
0010
0000
,
0100
1000
1001
0000
,
0100
0000
0001
0000
,
1000
0000
0001
0000
,
0100
0000
1000
0000
,
0010
0000
1000
0000
,
0001
0000
0010
0000
,
0100
0000
1000
0000
,
0001
0000
1000
0000
,
0100
0000
0010
0001
,
1001
0000
0000
0000
,
0000
0000
0000
0000
,
0000
0000
0000
0000
,
0000
0000
0000
0000
,
0000
0000
0000
0000
,
0000
0000
0000
0000
,
0000
0000
0000
0000
,
0000
0000
0000
0000
,
0020
0000
0000
0000
,
0000
0000
0000
0000
,
0230
0000
0000
0000
,
0000
0000
0000
0000
,
0302
0000
0000
0000
,
2000
0003
0000
0000
0000
0000
0000
0000
0000
0000
0000
0000
0000
0000
0000
0000
0000
0000
0000
0000
0000
0000
0000
0000
0000
0000
0000
0000
0000
0000
0000
0000
0000
0000
0000
0000
0000
0000
0000
0000
0000
0000
0000
0000
0000
0000
0000
0000
0000
0000
0000
0000
0000
0000
0000
0000
0000
0000
0000
0000
0000
0000
0000
0000
0000
0000
0000
0000
0000
0000
0000
0000
0000
0000
0000
0000
0000
0000
0000
0000
0000
0000
0000
0000
0000
0000
0000
0000
0000
0000
0000
0000
0000
0000
0000
0000
,
0020
0000
3000
0000
0000
0000
0000
0000
0000
0000
0000
0000
0000
0000
0000
0000
0000
0000
0000
0000
0000
0000
0000
0000
0000
0000
0000
0000
0000
0000
0000
0000
0000
0000
0000
0000
0000
0000
0000
0000
0000
0000
0000
0000
0000
0000
0000
0000
0000
0000
0000
0000
0000
0000
0000
0000
0000
0000
0000
0000
0000
0000
0000
0000
0000
0000
0000
0000
0000
0000
0000
0000
0000
0000
0000
0000
0000
0000
0000
0000
0000
0000
0000
0000
0000
0000
0000
0000
0000
0000
0000
0000
0000
0000
0000
0030
0200
0000
0000
0000
0000
0000
0000
0000
0000
0000
0000
0000
0000
0000
0000
0000
0000
0000
0000
0000
0000
0000
0000
0000
0000
0000
0000
0000
0000
0000
0000
0000
0000
0000
0000
0000
0000
0000
0000
0000
0000
0000
0000
0000
0000
0000
0000
0000
0000
0000
0000
0000
0000
0000
0000
0000
0000
0000
0000
0000
0000
0000
0000
0000
0000
0000
0000
0000
0000
0000
0000
0000
0000
0000
0000
0000
0000
0000
0000
0000
0000
0000
0000
0000
0000
0000
0000
0000
0000
0000
0000
0000
0000
0000
0000
0300
,
0002
0000
0003
0000
,
1001
0000
0000
0000
,
0100
0000
0010
0000
,
0001
1000
0002
0003
,
0100
0010
2000
3000
,
0001
1000
0001
1000
,
0100
0000
0010
0000
,
0100
1000
0002
0003
,
0100
0010
0100
0010
,
1000
0000
0000
0000
,
1001
0000
0100
0000
,
1000
0001
2000
3000
,
0010
0100
0002
0003
,
1000
0001
1000
0001
,
0010
0000
0100
0000
,
0010
0001
2000
3000
,
0010
0100
0010
0100
,
0001
0000
1000
0000
,
1001
0010
0000
0010
,
1001
0100
0000
0100
,
1001
0010
0000
0010
,
1001
0100
0000
1000
,
0001
0011
1000
0000
,
1000
1100
0001
0000
,
0001
0101
1000
1100
,
0001
0010
1000
0100
,
1001
0000
0000
0000
,
0000
0000
0000
0000
,
0000
0000
0000
0000
,
0000
0000
0000
0000
;

//---------------dance-single - ----------------
#NOTES:
     dance-single:
     :
     Medium:
     7:
     0.480,0.667,0.217,0.240,0.139,375.000,28.000,31.000,0.000,0.000,0.000,0.480,0.667,0.217,0.240,0.139,375.000,28.000,31.000,0.000,0.000,0.000:
0000
0000
0000
0000
,
0000
0000
0000
0000
,
0000
0000
0000
0000
,
0000
0000
0000
0000
,
0000
0000
0000
0000
0000
0000
0000
0001
,
1000
1000
0010
0010
,
0100
0100
0001
0001
,
1000
0100
0010
0001
,
1000
0001
1000
0001
1000
0100
0000
0000
,
0001
0000
1000
0000
0001
0000
0100
1000
,
0020
0000
0030
0000
,
0001
0000
1000
0000
0001
0000
0010
1000
,
0200
0000
0300
1000
,
0001
0000
1001
0000
1000
0010
1000
0000
,
0001
0000
1001
0000
0001
0010
0001
0000
,
1000
0100
0010
0000
0100
0010
0001
0000
,
1001
0000
0000
0000
0000
0000
0100
0000
0000
1000
0000
0000
0001
0000
0100
0000
,
0010
1000
0001
1000
,
0001
0000
1000
0000
0001
0000
1000
0001
,
0100
0001
1000
0001
,
1000
0000
0001
0000
0010
0000
0100
1000
,
0001
0000
1001
0000
0010
0001
1000
0000
,
0010
0000
1010
0000
0100
0010
1000
0000
,
0100
0000
0011
0000
0001
1000
0100
0000
,
0100
2002
0000
3003
,
1000
0000
0010
0100
0001
0000
0100
0001
,
1000
0000
0010
0000
0000
1000
0000
0001
0000
0000
0010
0000
0100
0000
1000
0000
,
0001
1000
0001
0000
1000
0100
0010
0000
,
0100
0010
0001
1000
0100
0010
0001
0000
,
1000
0000
0000
0001
0100
0000
0010
0000
1000
0000
0000
0000
0001
0000
0100
0000
,
0010
0000
0100
0000
0001
0000
0000
1000
0000
1000
0000
0100
0010
0000
0001
0000
,
0010
0000
0100
0000
1000
0000
0000
0000
0010
0000
0000
1000
0001
0000
1000
0000
,
0100
0000
1000
0000
0001
0000
0010
0000
0100
0000
1000
0000
0001
1000
0001
1000
,
0001
0000
0000
1000
0000
0000
0010
0000
0001
0000
0000
1000
0000
0000
0100
0000
,
0001
0000
0000
1000
0000
0000
0100
0000
0010
0000
0100
0000
1000
0000
0001
0000
,
0100
0000
0000
0001
0000
0000
0100
0000
1000
0000
0000
0001
0000
0000
0010
0000
,
1000
0000
0000
0001
0000
0000
0010
0000
0100
0000
1000
0000
0001
0000
0010
0000
,
0100
0000
0000
1000
0000
0000
0010
0000
0001
0000
0000
1000
0000
0000
0100
0000
,
0001
0000
0000
1000
0000
0000
0100
0000
0001
0000
0010
0000
0100
0000
1000
0000
,
0001
0000
0000
0100
0000
0000
0010
0000
1000
0000
0000
0001
0100
0000
0100
0000
,
0100
2002
0000
0000
,
3003
0000
0000
0000
,
0000
0000
0000
0000
,
0100
0000
0000
0000
,
0000
0000
0000
0000
,
0010
0000
0000
0000
,
0000
0000
0000
0000
,
0100
0000
0000
0000
,
0000
0000
0000
0000
,
1000
0000
0001
0000
1000
0000
0001
0010
,
1000
0000
0010
0000
0001
0000
1000
0001
,
1000
0000
0001
0000
1000
0000
0001
0100
,
1000
0000
0001
0000
0010
0000
1000
0001
,
1000
0010
0100
0000
0100
0001
0010
0000
,
0010
0100
1000
0000
1000
0001
0010
0000
,
0100
1000
0001
0100
1000
0100
0001
1000
,
2002
0000
0000
3003
,
0100
0000
0000
0000
0000
0000
2002
3003
,
0100
0000
1000
0000
0010
0000
0000
0100
0000
0000
0001
0000
1000
0000
0000
0000
,
0100
0000
0010
0000
0001
0000
0000
1000
0000
0000
0001
0000
2000
0000
3000
0000
,
0100
0010
0001
0000
2020
3030
0022
0033
,
1000
0000
0010
0000
0100
0000
0000
0001
0000
0000
1000
0000
0100
0000
0001
0000
,
0100
0000
1000
0000
0010
0000
0000
0100
0000
0000
0001
0000
1000
0000
0000
0000
,
0100
0000
0010
0000
0001
0000
0000
1000
0000
0000
0010
0000
0200
0000
0300
0000
,
0001
0100
1000
0000
2200
3300
0202
0303
,
1000
0000
1000
0100
0000
0010
0002
0000
0000
0000
0000
0000
0003
0000
1000
0000
,
0001
0000
1000
0000
0100
0000
0000
0010
0000
0000
0001
0000
1000
0000
0000
0000
,
0010
0000
0100
0000
0001
0000
0000
1000
0000
0000
1000
0000
0002
0000
0003
0000
,
0010
0100
1000
0000
0202
0303
2200
3300
,
0001
0000
0100
0000
0010
0000
0000
1000
0000
0000
0001
0000
0010
0000
1000
0000
,
0010
0000
0001
0000
0100
0000
0000
0010
0000
0000
1000
0000
0001
0000
0000
0000
,
0010
0000
0100
0000
1000
0000
0000
0001
0000
0000
0100
0000
0020
0000
0030
0000
,
1000
0010
0001
0000
0022
0033
2020
3030
,
0001
0000
0001
0010
0000
0100
1000
0000
0000
1100
0000
0000
1001
0000
1000
0000
,
0100
0010
0001
0000
1000
0000
0110
0000
,
1000
0100
1000
0110
,
0001
0010
0001
0110
,
0001
1000
0010
1001
,
0100
0000
1001
0000
0100
1000
0010
0000
,
0100
0000
1010
0000
0100
0001
0010
0000
,
0100
0000
1010
0000
0010
0001
0100
0000
,
0010
1000
0100
0001
0010
0000
0100
0000
,
1001
0000
0000
0000
,
0000
0000
0000
0000
,
0000
0000
0000
0000
,
0000
0000
0000
0000
;

//---------------dance-single - ----------------
#NOTES:
     dance-single:
     :
     Hard:
     9:
     0.552,0.699,0.318,0.232,0.217,428.000,41.000,30.000,0.000,0.000,0.000,0.552,0.699,0.318,0.232,0.217,428.000,41.000,30.000,0.000,0.000,0.000:
0000
0000
0000
0000
,
0000
0000
0000
0000
,
0000
0000
0000
0000
,
0000
0000
0000
0000
,
0000
0000
0000
0000
0000
0000
0000
0001
,
1000
0100
0010
0001
,
1000
0010
0100
0001
,
1000
0100
0010
0001
,
0001
0010
0100
1000
0001
0100
0000
0000
,
0001
0010
1000
0000
0001
0000
0100
1000
,
0020
0001
1030
0100
,
0001
0100
1000
0000
0001
0000
0010
1000
,
0200
0001
1300
0001
,
1000
0001
1001
0000
0100
0000
1001
0001
,
0100
0000
1001
1000
0010
0000
1001
0000
,
0001
1000
0010
1000
0100
0010
0001
0100
,
1001
0000
0000
0000
0000
0000
0011
0000
0000
1001
0000
0000
1100
0000
0100
0000
,
0001
1000
0001
1000
,
0001
0000
1000
0000
0001
0000
1000
0001
,
0100
0001
1000
0010
,
1000
0000
0001
0000
0010
0000
0100
1000
,
1010
0000
1001
0000
0010
0001
0101
0000
,
0010
0000
1100
0000
0100
0010
0011
0000
,
0100
0000
1010
0000
0001
0010
0110
0000
,
0100
2002
0000
3003
,
1000
0000
0000
0001
0010
0000
0100
0000
1000
0000
0010
0000
0100
0000
0001
0000
,
1000
0000
0010
0000
1000
0010
0000
1000
0000
0001
0010
0000
0100
0000
1000
0000
,
0001
0000
1000
0100
0000
0010
0001
0000
1000
0000
0100
0000
0010
0000
0001
0000
,
1000
0010
1000
0001
1000
0100
0010
0100
,
1000
0000
0000
0001
0010
0000
0100
0000
1000
0000
0010
0000
0001
0000
0010
0000
,
1000
0000
0010
0000
0100
0001
0000
1000
0000
1000
0100
0010
0001
0000
1000
0000
,
0001
0000
0010
0001
0000
1000
0010
0000
0100
0000
0001
0010
0001
0000
1000
0000
,
0100
0000
1000
0000
0001
0000
0010
0000
0100
0000
1000
0000
0001
1000
0001
1000
,
0001
0000
0000
1000
0100
0000
0010
0000
0001
0000
0000
1000
0010
0000
0100
0000
,
0001
0000
0000
1000
0100
0000
0010
0000
0001
0000
0010
0000
0100
0000
1000
0000
,
0001
0000
0000
1000
0010
0000
0001
0000
0001
0000
0000
0010
1000
0000
0100
0000
,
0100
0000
0000
0010
0001
0000
0010
0000
0100
0000
1000
0000
0001
0000
0010
0000
,
0100
0000
0000
1000
0010
0000
0010
0000
0001
0000
0000
1000
0100
0000
0100
0000
,
0001
0000
0000
1000
0010
0000
0100
0000
0001
0000
0010
0000
0100
0000
1000
0000
,
0001
0000
0000
0001
0100
0000
0010
0000
1000
0000
0000
0001
0100
0000
0100
0000
,
0100
2002
0000
0000
,
3003
0000
0000
0000
,
0000
0000
0000
0000
,
0100
0000
0000
0000
,
0000
0000
0000
0000
,
0010
0000
0000
0000
,
0000
0000
0000
0000
,
0100
0000
0000
0000
,
0000
0000
0000
0000
,
1000
0000
0001
0000
1000
0000
0001
0010
,
1000
0000
0010
0000
0001
0000
0100
0010
,
1000
0000
0001
0000
1000
0000
0001
0100
,
1000
0000
0001
0000
0010
0000
1000
0100
,
1000
0010
0100
0001
1000
0100
0010
0001
,
1000
0010
0001
0010
1000
1000
0100
0100
,
0001
0100
0001
0100
1000
0010
0001
0010
,
2002
0000
0000
3003
,
0100
0000
0000
0000
0000
0000
2002
3003
,
0100
0000
1000
0000
0010
0000
0000
0100
0000
0000
0001
0000
1000
0000
0000
0000
,
0100
0000
0010
0000
0001
0000
0000
1000
0000
0001
0010
0100
2000
0000
3000
0000
,
0001
1000
0010
0000
2020
3030
0202
0303
,
1000
0000
0010
0000
0100
0001
0000
0010
0100
1000
0000
0001
0100
0000
0010
0000
,
1000
0000
0100
0000
0010
0000
0000
0100
0000
0000
1000
0000
0001
0000
0000
0000
,
0100
0000
0010
0000
1000
0000
0000
0001
0000
1000
0100
0010
0002
0000
0003
0000
,
1000
0100
0010
0000
0022
0033
2200
3300
,
0001
0000
1000
0010
0000
0100
0001
0000
0000
1000
0001
1000
0001
0000
0010
0000
,
0100
0000
0101
0000
0100
1000
0001
0000
,
0100
0000
0000
0000
1100
0000
0000
0001
0000
1000
0100
0010
0002
0000
0003
0000
,
0001
0010
0100
1000
2002
3003
0022
0033
,
0100
0000
1000
0000
0001
0100
0000
0010
1000
0100
0000
0010
0001
0000
0010
0000
,
1000
0000
0001
0000
0100
0000
0000
1000
0000
0000
0010
0000
0001
0000
0000
0000
,
0010
0000
1000
0000
0100
0000
0000
0001
0000
0001
0100
1000
0002
0000
0003
0000
,
1000
0010
0001
0010
2002
3003
0220
0330
,
1001
0000
0000
0000
0000
0000
0011
0000
0000
1100
0000
0000
1001
0000
1000
0000
,
0100
0010
0001
0000
0100
0000
1001
0000
,
0100
0001
0100
1001
,
0010
1000
0010
1001
,
0010
0100
1000
0110
,
0001
0000
0110
0000
0001
0100
1000
0000
,
0001
0000
1100
0000
0001
0010
1000
0000
,
0001
0000
1100
0000
1000
0010
0001
0000
,
1000
0100
0001
0010
1000
0000
0001
0000
,
0110
0000
0000
0000
,
0000
0000
0000
0000
,
0000
0000
0000
0000
,
0000
0000
0000
0000
;
