#TITLE:Love is a Danger Zone (cranky mix);
#SUBTITLE:;
#ARTIST:BanYa remixed by cranky;
#TITLETRANSLIT:;
#SUBTITLETRANSLIT:;
#ARTISTTRANSLIT:;
#GENRE:;
#CREDIT:brunobg24;
#MENUCOLOR:;
#METERTYPE:DDR;
#BANNER:[Qualifier Singles] Love is a Danger Zone (cranky mix).png;
#BACKGROUND:[Qualifier Singles] Love is a Danger Zone (cranky mix)-bg.png;
#LYRICSPATH:;
#CDTITLE:;
#MUSIC:[Qualifier Singles] Love is a Danger Zone (cranky mix).mp3;
#OFFSET:-0.100;
#SAMPLESTART:26.469;
#SAMPLELENGTH:12.366;
#SELECTABLE:YES;
#LISTSORT:;
#DISPLAYBPM:155.000;
#BPMS:0.000=155.020;
#STOPS:;
#BGCHANGES:;
#ATTACKS:;

//---------------dance-single - ----------------
#NOTES:
     dance-single:
     :
     Hard:
     10:
     0.751,0.746,0.057,0.008,0.676:
0000
0000
0000
0000
,
0000
0000
0000
0000
,
0000
0000
0000
0000
,
0000
0000
0000
0000
,
0000
0000
0000
0000
,
1000
0001
1000
0001
,
0100
0010
0100
0010
,
1000
0100
0010
0001
,
1000
0000
0000
0000
0010
0000
0000
0000
0100
0000
0000
0001
1000
0000
0001
1000
,
0001
1000
0100
1000
,
0001
0100
0001
0100
,
0001
0010
0100
0010
,
0001
0000
1000
0000
0100
0000
0010
0010
,
1001
0000
1000
0000
0001
0000
1000
0000
1010
0000
1000
0001
1000
0000
0001
0000
,
1001
0000
0100
0000
1100
0000
0100
0000
0010
0000
0001
1000
0001
0000
0100
0000
,
0010
1000
0000
0000
1001
0000
1000
0010
0000
0000
0100
0001
0100
0000
0001
1000
,
0001
0010
0001
0010
0100
1000
0100
1000
0001
0000
0000
0000
0110
0000
0000
0000
,
0001
0000
0010
0000
0100
0000
1000
0001
1000
0000
0001
0100
0000
0001
1000
0010
,
1000
0000
0100
0000
1000
0000
0001
0000
0010
0001
0000
1000
0001
0000
0100
0001
,
0100
0000
0010
0000
1000
0000
0001
0010
0001
0000
1000
0100
0000
1000
0001
1000
,
0010
0000
1000
0000
0010
0000
0001
0000
0100
1000
0100
0010
0001
0000
1000
0001
,
1000
0000
0001
0000
0010
0000
0100
1000
0100
0000
1000
0001
0000
0010
0001
1000
,
0010
0000
1000
0000
0001
0000
0010
0000
0001
1000
0000
0100
1000
0000
0001
1000
,
0100
0000
0010
0000
0001
0000
0100
0010
0100
0000
0001
1000
0000
0100
1000
0001
,
1000
0000
0100
0000
0010
0000
0001
0000
0000
0100
0010
0100
0010
0000
1000
0001
,
1000
0000
0100
1000
0100
0000
0010
0000
0100
0001
0100
0001
0100
0000
1000
0000
,
0001
0000
0010
0000
0100
0000
0010
0000
0001
0000
1000
0010
1000
0001
1000
0010
,
0100
0000
0001
0000
0010
0000
0001
0000
0010
0000
0100
0000
1000
0000
0000
0001
,
0010
0000
0001
0000
1000
0000
0010
0000
0100
0000
0010
1000
0010
1000
0001
1000
,
0001
0000
1000
0000
0100
0000
0010
0000
0001
0000
0000
1000
0010
0000
0100
0001
,
0100
0000
0010
0000
1000
0000
0100
0000
0010
0000
0001
1000
0100
1000
0001
1000
,
0010
0000
0100
0000
0010
0000
1000
0000
0100
0000
0010
0000
0001
0000
0000
1000
,
0010
0000
0100
0000
0010
0000
1000
0000
0010
0000
1000
0100
0001
0100
1000
0100
,
0010
0000
0001
0000
0001
0000
1000
0000
1000
0000
0010
0000
0010
0000
0100
0001
,
0100
0010
0100
0010
1000
0100
0010
0000
,
0001
0010
0100
1000
0100
0010
0001
0000
,
1000
0100
0001
0100
1000
0001
0010
0000
,
0001
0000
0010
0000
0100
0000
0010
0000
0001
0000
1000
0000
0001
0000
1000
0001
,
1000
0010
1000
0100
0010
0001
0100
0000
,
0010
1000
0001
0100
0010
0100
0001
0000
,
1000
0100
0010
0100
1000
0001
0010
0000
,
0001
0000
1000
0000
0001
0000
0000
1000
0010
1000
0010
0000
0100
0001
0100
0001
,
0010
0001
1000
0001
0100
0010
1000
0000
,
0001
0010
0100
0010
0001
1000
0010
0000
,
1000
0100
0001
0100
1000
0001
0010
0000
,
0001
0000
0010
0000
0001
0000
0000
1000
0010
0000
0100
0000
0001
0010
0100
1000
,
0100
1000
0100
0010
0001
0100
0010
0000
,
1000
0000
0001
0000
0010
0000
0001
0000
0100
0000
0010
0000
1000
0000
0000
0001
,
0010
0000
1000
0000
0010
0000
0000
0001
0100
0000
1000
0000
0100
0000
0000
0010
,
1000
0000
0100
0000
0010
0000
0000
0100
1000
0100
1000
0000
0001
1000
0010
1000
,
0002
0000
0000
0000
,
1003
0000
0000
0000
1001
0000
0000
0000
1000
0001
1000
0001
1000
0000
0010
0000
,
1000
0000
0100
0000
0010
0000
0001
0100
0001
0000
1000
0010
0000
0100
0001
0100
,
0010
0000
1000
0000
0001
0000
0100
0000
0001
0010
0000
0001
1000
0000
0001
1000
,
0001
0000
0100
0000
0010
0000
1000
0100
1000
0000
0001
0100
0000
0001
0010
0001
,
0100
0000
0010
0000
1000
0000
0100
0000
0010
0001
0010
0001
0010
0000
0001
1000
,
0001
0000
1000
0000
0010
0000
1000
0001
1000
0000
0010
0100
0000
0001
0100
0010
,
1000
0000
0100
0000
0010
0000
0001
0000
1000
0010
0000
0100
0010
0000
0100
0001
,
0100
0000
0001
0000
0010
0000
0001
1000
0001
0000
1000
0010
0000
1000
0100
0010
,
0001
0000
0100
0000
0010
0000
1000
0000
0001
0010
0001
0010
0100
1000
0100
1000
,
0010
0000
1000
0000
0001
0000
0100
0001
0100
0000
0010
1000
0000
1000
0001
0100
,
0010
0000
1000
0000
0100
0000
0010
0000
0001
0100
0000
0001
0010
0000
0001
1000
,
0001
0000
1000
0000
0010
0000
1000
0010
1000
0000
0001
0100
0000
0001
0010
0100
,
1000
0000
0001
0000
0100
0000
0001
0000
0010
0001
0010
0001
1000
0000
0010
1000
,
0010
0000
0100
0000
0001
0000
0010
0001
0010
0000
0001
1000
0000
0100
1000
0001
,
1000
0000
0010
0000
0100
0000
0001
0000
1000
0010
0000
1000
0100
0000
1000
0001
,
1000
0000
0010
0000
0100
0000
0001
1000
0001
0000
1000
0010
0000
0100
0001
0100
,
0010
0000
1000
0000
0100
0000
1000
0000
0001
0100
0001
0100
0010
1000
0010
1000
,
0001
0000
1000
0001
1000
0000
0010
0100
0010
0100
0000
0001
1000
0000
0010
0000
,
1000
0000
0000
0100
0000
0000
1000
0000
0001
0000
0000
0010
0000
0000
0001
1000
,
0001
0000
1000
0001
1000
0000
0010
0100
0010
1000
0000
0100
1000
0000
0001
0000
,
0010
0000
0000
0001
0000
0000
1000
0000
0010
0100
0000
0001
0100
0000
0010
1000
,
0010
0000
1000
0010
1000
0000
0100
1000
0001
1000
0000
0010
0100
0000
0001
0000
,
0010
0000
0000
0001
0000
0000
1000
0000
0010
0000
0000
0100
0000
0000
0001
1000
,
0001
0000
1000
0100
1000
0000
0001
1000
0001
1000
0000
0010
0100
0000
0001
1000
,
0001
0000
0000
0100
0000
0000
1000
0000
0100
0010
0000
0100
0001
0000
0010
0000
;

//---------------dance-single - ----------------
#NOTES:
     dance-single:
     :
     Medium:
     9:
     0.604,0.591,0.074,0.049,0.315:
0000
0000
0000
0000
,
0000
0000
0000
0000
,
0000
0000
0000
0000
,
0000
0000
0000
0000
,
0000
0000
0000
0000
,
1000
0001
1000
0001
,
0100
0010
0100
0010
,
1000
0100
0010
0001
,
1000
0000
0000
0000
0010
0000
0000
0000
0100
0000
0000
0001
1000
0000
0001
0000
,
0010
0001
1000
0001
,
1000
0100
0010
0100
,
1000
0001
1000
0010
,
0100
0000
0001
0000
0010
0000
0001
1000
,
1001
0001
1000
0100
1100
1000
0001
0010
,
0011
0000
0101
0000
1001
0000
1000
1000
,
1001
0000
0000
0000
0001
0000
1000
0010
0000
0000
1000
0100
0000
0000
0010
0001
,
0010
0001
0010
1000
0010
0000
1001
0000
,
1000
0000
0100
0000
0010
0000
0001
0000
0010
0000
0100
1000
0000
0001
1000
0000
,
0010
0000
0100
0000
0001
0000
0010
0000
0001
1000
0000
0100
1000
0000
0001
0000
,
0100
0000
0001
0000
0010
0000
0001
0000
1000
0000
0100
1000
0000
0001
1000
0000
,
0010
0000
0100
0000
0001
0000
0010
0000
0001
1000
0000
0100
1000
0000
0010
0000
,
1000
0000
0100
0000
0010
0000
0100
0000
1000
0000
0001
0100
0000
0001
0010
0000
,
0001
0000
0010
0000
0100
0000
0010
0000
0001
1000
0000
0100
1000
0000
0010
0000
,
1000
0000
0100
0000
0010
0000
0100
0000
1000
0000
0010
0100
0000
0001
0100
0000
,
0010
0000
0100
0000
0001
0000
1000
0000
0100
1000
0000
0001
1000
0000
0010
0000
,
0200
0000
0310
0000
1000
0100
0010
0001
,
1000
0100
0001
0100
1000
0001
0100
0000
,
0001
0000
0010
0000
0001
0000
0000
0000
1000
0000
0001
0000
1000
0000
0000
0010
,
0100
0001
0010
0000
0000
0001
1000
0001
,
0010
0000
0001
0000
0100
0000
0010
0000
1000
0000
0000
0001
1000
0000
0001
0000
,
0100
0010
0100
0001
0010
0100
1000
0000
,
0100
1000
0100
0000
0010
0001
0010
0000
,
0001
1000
0001
0000
0000
1000
0001
0100
,
0002
0023
0230
2300
,
3001
0010
0001
0000
1000
0001
1000
0000
,
0001
0010
0100
0010
0001
1000
0010
0000
,
1000
0100
1000
0000
0001
1000
0001
0000
,
1000
0100
0010
0100
1000
0001
0010
0000
,
0001
1000
0001
0000
0100
0010
0100
0000
,
0001
0010
1000
0010
0001
1000
0100
0000
,
1000
0100
0001
0000
0001
0100
1000
0000
,
0001
0010
0100
0010
0001
1000
0100
1000
,
0001
0010
0001
0000
1000
0001
1000
0000
,
0010
0100
0001
0010
0001
1000
0100
0000
,
1000
0010
0001
0000
0001
0010
1000
0000
,
0100
1000
0100
1000
0001
0100
0001
0010
,
0001
1000
0100
0000
1000
0001
0010
0000
,
0001
0010
0100
1000
0100
0001
0100
0000
,
1000
0010
0100
0000
0001
0100
0001
0000
,
1000
0100
1000
0100
0010
0001
0010
0001
,
0100
0000
0000
0000
,
1001
0000
0000
0000
0110
0000
0000
0000
1000
0001
1000
0001
1000
0000
0000
0000
,
0001
0000
0010
0000
0100
0000
1000
0000
0001
0000
1000
0010
0000
0100
0010
0000
,
0100
0000
0001
0000
0010
0000
0001
0000
1000
0010
0000
1000
0010
0000
0100
0000
,
0001
0000
0010
0000
0100
0000
0010
0000
0001
0000
1000
0100
0000
1000
0010
0000
,
0100
0000
0001
0000
0010
0000
0100
0000
1000
0001
0000
0010
0001
0000
1000
0000
,
0100
0000
0010
0000
0100
0000
1000
0000
0001
0000
0100
0010
0000
0100
0001
0000
,
0010
0000
1000
0000
0010
0000
0001
0000
1000
0010
0000
0100
0001
0000
0100
0000
,
0010
0000
1000
0000
0100
0000
1000
0000
0001
0000
1000
0001
0000
0100
0001
0000
,
0010
0000
0001
0000
1000
0000
0010
0000
0100
0001
0000
1000
0001
0000
1000
0000
,
0001
0000
0010
0000
0100
0000
0010
0000
0001
0000
1000
0010
0000
1000
0010
0000
,
0100
0000
0001
0000
0100
0000
0010
0000
1000
0001
0000
0010
0001
0000
0010
0000
,
1000
0000
0010
0000
0001
0000
1000
0000
0100
0000
1000
0001
0000
1000
0100
0000
,
0010
0000
0001
0000
0010
0000
1000
0000
0010
0001
0000
1000
0010
0000
0100
0000
,
0001
0000
0100
0000
1000
0000
0100
0000
0001
0000
1000
0010
0000
1000
0100
0000
,
0010
0000
0001
0000
0010
0000
0100
0000
1000
0010
0000
0001
0010
0000
1000
0000
,
0100
0000
1000
0000
0001
0000
0010
0000
0001
0000
1000
0010
0000
0100
0010
0000
,
0100
0000
0001
0000
0010
0000
0001
0000
1000
0001
0000
1000
0010
0000
0100
0000
,
0001
0000
0000
0001
1000
0000
0000
1000
0010
0000
0000
0010
0100
0000
0000
0000
,
0001
0000
0000
0001
0010
0000
0000
0010
0100
0000
0000
0100
1000
0000
0000
0000
,
1000
0000
0000
1000
0010
0000
0000
0010
0100
0000
0000
0100
0001
0000
0000
0000
,
0001
0000
0000
0001
1000
0000
0000
1000
0010
0000
0010
0000
0100
0000
0000
0000
,
0100
0000
0000
0100
0001
0000
0000
0001
0010
0000
0000
0010
0100
0000
0000
0000
,
0100
0000
0000
0100
1000
0000
0000
1000
0010
0000
0000
0010
0100
0000
0000
0000
,
0100
0000
0000
0100
0001
0000
0000
0001
0010
0000
0000
0010
1000
0000
0000
1000
,
0020
0000
0000
0000
,
0030
0000
0000
0000
;

//---------------dance-single - ----------------
#NOTES:
     dance-single:
     :
     Easy:
     6:
     0.396,0.467,0.074,0.025,0.004:
0000
0000
0000
0000
,
0000
0000
0000
0000
,
0000
0000
0000
0000
,
0000
0000
0000
0000
,
0000
0000
0000
0000
,
1000
0001
1000
0001
,
1000
0010
1000
0010
,
0100
0001
0100
0001
,
0010
0000
0100
0000
0010
0000
0100
1000
,
0100
1000
0001
0010
,
0100
0010
0001
1000
,
0010
1000
0001
0100
,
0001
0010
0001
1000
,
1001
0000
0110
0000
,
1000
0000
0100
0000
0001
0000
0100
1000
,
0100
0000
0000
0000
0010
0000
0000
0010
0000
0000
0001
0000
0100
0000
0000
0000
,
0001
0010
1000
0010
0001
0000
1001
0000
,
1000
0001
0100
0001
0010
0000
0001
0000
,
1000
0100
1000
0000
0001
0000
0100
0000
,
0001
0010
0100
1000
0100
0000
1000
0000
,
0001
0100
0010
0000
0100
0000
0001
0000
,
1000
0010
1000
0010
0100
0000
0001
0000
,
0010
0001
0010
0000
0001
0000
1000
0000
,
0010
1000
0100
1000
0010
0000
0100
0000
,
0001
0010
0001
0000
1000
0001
1000
0000
,
1001
0000
0110
0000
2000
0000
0001
0001
,
3001
0000
0010
0000
0001
1000
0001
0000
,
0100
0010
0100
0001
,
0010
0001
1000
0000
0000
0000
0100
1000
,
0100
0010
0100
1000
,
0001
0000
0001
0000
0100
0010
0100
0000
,
0001
0000
1000
0000
0010
1000
0010
0000
,
1000
0000
0100
0000
0000
0000
0010
0001
,
0010
0011
1001
1010
,
1000
0001
0100
0010
,
1000
0100
0010
0100
,
1000
0001
0010
1000
,
0010
0001
0100
0001
,
0010
0001
1000
0100
,
0001
0100
1000
0010
,
0100
0001
1000
0100
,
0010
0001
0010
0100
,
1000
0001
0010
0100
,
0010
0001
1000
0100
,
0010
0100
1000
0001
,
1000
0010
0100
0001
,
1000
0100
1000
0100
,
0010
0001
0010
0001
,
0100
0001
1000
0010
,
0100
0000
0001
0000
1000
0000
0001
1000
,
0002
0000
0000
0000
,
1003
0000
1001
0000
0001
1000
0001
0000
,
1000
0010
1000
0010
1000
0000
0001
0000
,
0100
0010
0100
0000
0001
0000
1000
0000
,
0001
0100
0001
0100
0001
0000
0010
0000
,
0100
1000
0100
0000
1000
0000
0001
0000
,
1000
0010
0100
0010
1000
0000
0001
0000
,
0100
0001
0100
0000
0010
0000
1000
0000
,
0001
0010
0100
0010
0001
0000
1000
0000
,
0001
1000
0010
0000
1000
0000
0001
0000
,
1000
0100
0001
0100
1000
0000
0010
0000
,
0100
0001
0100
0000
0010
0000
1000
0000
,
0001
0100
1000
0100
0001
0000
1000
0000
,
0001
0100
0010
0000
0100
0000
0001
0000
,
1000
0100
0001
0100
1000
0000
0001
0000
,
0100
0001
0100
0000
0010
0000
1000
0000
,
0100
1000
0100
1000
0001
0000
0010
0000
,
0001
1000
0001
0000
0100
0001
0100
0000
,
0001
0010
0100
1000
,
0001
0100
0001
0100
,
0010
0100
0001
0010
,
0100
0010
0001
1000
,
0010
1000
0100
1000
,
0100
0010
0001
0100
,
0001
0010
0100
1000
,
0002
0000
0000
0000
,
0003
0000
0000
0000
;

//---------------dance-single - ----------------
#NOTES:
     dance-single:
     :
     Beginner:
     3:
     0.233,0.405,0.041,0.049,0.000: // measure 1
0000
0000
0000
0000
,  // measure 2
0000
0000
0000
0000
,  // measure 3
0000
0000
0000
0000
,  // measure 4
0000
0000
0000
0000
,  // measure 5
0000
0000
0000
0000
,  // measure 6
1000
0001
1000
0001
,  // measure 7
0100
0010
0100
0010
,  // measure 8
1000
0001
1000
0001
,  // measure 9
0100
0010
0100
0010
,  // measure 10
1000
0100
1000
0100
,  // measure 11
0010
0001
0010
0001
,  // measure 12
1000
0010
1000
0010
,  // measure 13
0100
0001
0100
0001
,  // measure 14
1001
0000
0110
0000
,  // measure 15
2000
3200
0320
0032
,  // measure 16
1003
1000
0100
0100
,  // measure 17
0010
0010
0001
1001
,  // measure 18
1000
0100
0010
0000
,  // measure 19
0100
1000
0001
0000
,  // measure 20
0100
0001
0100
0000
,  // measure 21
0010
1000
0010
0000
,  // measure 22
1000
0001
1000
0000
,  // measure 23
0001
0100
0010
0000
,  // measure 24
0100
0001
0100
0000
,  // measure 25
0010
0100
0010
0000
,  // measure 26
1000
0000
1001
0000
,  // measure 27
0001
0000
1000
0000
,  // measure 28
0010
0000
0100
0000
,  // measure 29
0001
0000
0010
0000
,  // measure 30
0100
0000
1000
0000
,  // measure 31
0100
0000
0010
0000
,  // measure 32
0001
0000
1000
0000
,  // measure 33
0001
0000
0100
0000
,  // measure 34
0010
0000
0100
0000
,  // measure 35
0001
0000
1000
0000
,  // measure 36
0100
0000
1000
0000
,  // measure 37
0100
0000
0010
0000
,  // measure 38
0001
0000
0100
0000
,  // measure 39
0010
0000
1000
0000
,  // measure 40
0001
0000
1000
0000
,  // measure 41
0100
0000
0010
0000
,  // measure 42
0001
0000
0100
0000
,  // measure 43
0001
0000
1000
0000
,  // measure 44
0010
0000
0100
0000
,  // measure 45
0001
0000
0010
0000
,  // measure 46
0100
0000
1000
0000
,  // measure 47
0001
0000
1000
0000
,  // measure 48
0100
0000
0010
0000
,  // measure 49
0001
0000
0100
0000
,  // measure 50
0001
0000
0010
0000
,  // measure 51
0002
0000
0000
0000
,  // measure 52
1003
0110
1000
0001
,  // measure 53
1000
0100
1000
0000
,  // measure 54
0001
0100
0001
0000
,  // measure 55
0100
0010
0100
0000
,  // measure 56
0010
1000
0010
0000
,  // measure 57
1000
0100
1000
0000
,  // measure 58
0001
0100
0001
0000
,  // measure 59
0010
0001
0010
0000
,  // measure 60
0001
1000
0001
0000
,  // measure 61
1000
0010
1000
0000
,  // measure 62
0001
0100
0001
0000
,  // measure 63
0100
0010
0100
0000
,  // measure 64
0010
1000
0010
0000
,  // measure 65
1000
0100
1000
0000
,  // measure 66
0010
0100
0010
0000
,  // measure 67
0100
0001
0100
0000
,  // measure 68
0001
0010
0001
0000
,  // measure 69
1000
0000
0001
0000
,  // measure 70
1000
0000
0100
0000
,  // measure 71
1000
0000
0001
0000
,  // measure 72
0100
0000
0010
0000
,  // measure 73
1000
0000
0001
0000
,  // measure 74
0010
0000
0001
0000
,  // measure 75
1000
0000
0001
0000
,  // measure 76
2000
0000
0000
0000
,  // measure 77
3000
0000
0000
0000
;
