#VERSION:0.81;
#TITLE:LUV CAN SAVE U;
#SUBTITLE:;
#ARTIST:長沼英樹;
#TITLETRANSLIT:;
#SUBTITLETRANSLIT:;
#ARTISTTRANSLIT:HIDEKI NAGANUMA;
#GENRE:;
#ORIGIN:;
#CREDIT:;
#BANNER:[Qualifier Singles] - LUV CAN SAVE U.png;
#BACKGROUND:[Qualifier Singles] - LUV CAN SAVE U-bg.png;
#PREVIEWVID:;
#JACKET:[Qualifier Singles] - LUV CAN SAVE U-jacket.png;
#CDIMAGE:;
#DISCIMAGE:;
#LYRICSPATH:;
#CDTITLE:;
#MUSIC:[Qualifier Singles] - LUV CAN SAVE U.mp3;
#OFFSET:-6.980;
#SAMPLESTART:40.580;
#SAMPLELENGTH:15.000;
#SELECTABLE:YES;
#BPMS:0.000=140.000;
#STOPS:;
#DELAYS:;
#WARPS:;
#TIMESIGNATURES:0.000=4=4;
#TICKCOUNTS:0.000=4;
#COMBOS:0.000=1;
#SPEEDS:0.000=1.000=0.000=0;
#SCROLLS:0.000=1.000;
#FAKES:;
#LABELS:0.000=Song Start;
#BGCHANGES:;
#KEYSOUNDS:;
#ATTACKS:
;

//---------------dance-single - ----------------
#NOTEDATA:;
#CHARTNAME:;
#STEPSTYPE:dance-single;
#DESCRIPTION:;
#CHARTSTYLE:;
#DIFFICULTY:Hard;
#METER:9;
#RADARVALUES:0.594,0.536,0.173,0.455,0.436,450.000,22.000,58.000,0.000,0.000,0.000,0.000,0.000,0.594,0.536,0.173,0.455,0.436,450.000,22.000,58.000,0.000,0.000,0.000,0.000,0.000;
#CREDIT:;
#NOTES:
// measure 0
1001
0000
0000
1000
0100
0000
0020
0000
0000
0000
0031
0000
0010
0001
0000
0000
,  // measure 1
1000
0000
0000
1000
0010
0000
0200
0000
0000
0000
0301
0000
0100
0001
0000
0000
,  // measure 2
0010
0000
0000
0001
0100
0000
0020
0000
0000
0000
1030
0000
0010
1000
0000
0000
,  // measure 3
0100
0000
0000
1000
0010
0000
0200
0000
0000
0000
0301
0000
0100
0001
0000
0000
,  // measure 4
1001
0000
0000
0001
0100
0000
0020
0000
0000
0000
1030
0000
0010
0100
0000
0000
,  // measure 5
0001
0000
0000
0001
0010
0000
0200
0000
0000
0000
1300
0000
0100
0010
0000
0000
,  // measure 6
0011
0000
0000
1010
0000
0000
2001
0000
0000
0000
3010
0000
0100
0010
0100
0000
,  // measure 7
0001
0000
0000
0001
1000
0000
0100
0000
1000
0010
0000
1000
0001
0010
0001
0000
,  // measure 8
1001
0000
0100
0000
1000
0100
0000
0100
1000
0000
0010
0000
0200
0000
0000
0000
,  // measure 9
0301
0000
0010
0000
0001
0100
0000
0100
0001
0000
1000
0000
0020
0000
0000
0000
,  // measure 10
1030
0000
0010
0000
0100
0001
0000
0001
0100
0000
0010
0000
2000
0000
0000
0000
,  // measure 11
3001
0000
0010
0000
0100
1000
0000
1000
0100
0000
0010
0000
0001
0000
0100
0001
,  // measure 12
0100
0000
0010
0000
1000
0100
0000
0100
1000
0000
0010
0000
0200
0000
0000
0000
,  // measure 13
0310
0000
0100
0000
0001
0010
0000
0010
0001
0000
0100
0000
0020
0000
0000
0000
,  // measure 14
1030
0000
0100
0000
0010
0001
0000
0001
0100
0000
0010
0000
2000
0000
0000
0000
,  // measure 15
3001
0000
0010
0000
0001
0010
0001
0000
1000
0000
0010
0000
1000
0010
1000
0000
,  // measure 16
0001
0010
0001
0001
0200
0000
0310
2000
,  // measure 17
0000
3100
0010
0001
0200
0000
0301
2000
,  // measure 18
0000
0000
3010
1000
0010
0000
1000
0010
0000
0010
1000
0000
0010
0100
0001
0000
,  // measure 19
1000
0000
0001
1000
0002
0000
0000
0000
0013
0000
0000
0000
0000
0000
0000
0000
,  // measure 20
0110
0000
0000
0010
0100
0000
2000
0000
0000
0000
3001
0000
0100
0001
0000
0000
,  // measure 21
1000
0000
0000
0100
1000
0000
0020
0000
0000
0000
0130
0000
0001
0100
0000
0000
,  // measure 22
0010
0000
0000
1000
0100
0000
0020
0000
0000
0000
0031
0000
0100
0010
0000
0000
,  // measure 23
1000
0000
0000
0001
1000
0000
0200
0000
0000
0000
0310
0000
0001
0000
0100
0001
,  // measure 24
1000
0000
0000
0010
1000
0000
0200
0000
0000
0000
0310
0000
0001
0010
0000
0000
,  // measure 25
0001
0000
0000
0100
0001
0000
0020
0000
0000
0000
0130
0000
1000
0100
0000
0000
,  // measure 26
1100
0000
0000
0101
0000
0000
2001
0000
0000
0000
3001
0000
0010
0000
0100
0000
,  // measure 27
2000
0000
0000
0000
3001
0000
0000
0000
1000
0010
0000
1000
0001
0010
0001
0000
,  // measure 28
2000
0010
0001
0010
,  // measure 29
3002
0000
0013
0200
0000
1300
0020
0000
,  // measure 30
0230
0001
0010
1000
,  // measure 31
0302
0000
0103
0020
0000
1030
0200
0000
,  // measure 32
0320
0001
0100
1000
,  // measure 33
0230
1000
0010
0001
,  // measure 34
2300
0001
0100
0010
,  // measure 35
3002
1000
0100
0010
,  // measure 36
1003
0000
0100
0000
1000
0100
0000
0100
0000
0000
1000
0000
0100
0000
0010
0000
,  // measure 37
0001
0000
0100
0000
0001
0100
0000
0100
0000
0000
0001
0000
0100
0000
0010
0000
,  // measure 38
1000
0000
0010
0000
1000
0010
0000
0010
0000
0000
1000
0000
0010
0000
0100
0000
,  // measure 39
0001
0000
0010
0000
0001
0010
0000
0010
0000
0000
0001
0000
0010
0000
0100
0000
,  // measure 40
1000
0000
0000
0000
1100
0000
0000
0000
0000
0000
1000
0000
0100
1000
0001
0000
,  // measure 41
0100
0000
0000
0000
0101
0000
0000
0000
0000
0000
0001
0000
0100
0001
1000
0000
,  // measure 42
0100
0000
0000
0000
1100
0000
0000
0000
0000
0000
1000
0000
0001
1000
0010
0000
,  // measure 43
1000
0000
0010
0000
0001
0010
1000
0000
0001
0000
0100
0000
1000
0100
0001
0000
,  // measure 44
1001
0000
0000
0000
0010
0000
0001
0000
0200
0000
0000
0310
0000
0000
1000
0000
,  // measure 45
0200
0000
0000
0310
0000
0000
0001
0000
0200
0000
0000
0310
0000
0000
0100
0000
,  // measure 46
0001
0000
0000
0000
1000
0000
0100
0000
0020
0000
0000
0130
0000
0000
1000
0000
,  // measure 47
0020
0000
0000
0130
0000
0000
0001
0000
0010
0001
0100
0000
0010
1000
0010
0000
,  // measure 48
1000
0000
0001
1000
0020
0000
0000
0000
0130
0000
0001
0000
0010
0100
1000
0000
,  // measure 49
1001
0000
0000
0010
0001
0000
0100
0000
0010
0000
1000
0000
0100
0010
0000
0000
,  // measure 50
0001
0000
0000
1000
0010
0000
1000
0000
0100
0000
0010
0000
0001
0100
0000
0000
,  // measure 51
0010
0000
0000
1000
0010
0000
0100
0000
0001
0000
0010
0000
0100
1000
0000
0000
,  // measure 52
0001
0000
0000
0100
0010
0000
0100
0000
0001
0000
0010
0000
0001
1000
0010
1000
,  // measure 53
0100
0000
0000
0100
0010
0000
0002
0000
0000
0000
0203
0000
0000
0000
0310
0000
,  // measure 54
1000
0000
0000
0100
1000
0000
0001
0000
0010
0000
0100
0000
1000
0000
0010
0000
,  // measure 55
1010
0000
0000
0011
0000
0000
2002
0000
3003
0000
1100
0000
0000
0101
0000
0000
,  // measure 56
2001
0000
0000
0000
3010
0000
1000
0000
0001
0100
0000
0001
1000
0100
1000
0100
,  // measure 57
0010
0000
0000
0010
0001
0000
0200
0000
0000
0000
0010
0000
0000
0310
0000
0000
,  // measure 58
0100
0000
0000
0100
0001
0000
0020
0000
0000
0000
0100
0000
0000
0130
0000
0000
,  // measure 59
1000
0000
0000
1000
0010
0000
0200
0000
0000
0000
0001
0000
0000
0301
0000
0000
,  // measure 60
1000
0000
0000
1000
0100
0000
0020
0000
0000
0000
0001
0000
0000
0031
0000
0000
,  // measure 61
2000
0000
0000
3100
0000
0000
2000
0000
0000
0000
0010
0000
0000
3010
0000
0000
,  // measure 62
0002
0000
0000
0013
0000
0000
0002
0000
0000
0000
0100
0000
0000
0103
0000
0000
,  // measure 63
2001
0000
0000
0001
0000
0000
0001
0000
0000
0000
0100
0000
0000
0100
0000
0000
,  // measure 64
0001
0000
0000
0001
0000
0000
0001
0000
0000
0000
0010
0000
0000
0010
0000
0000
,  // measure 65
3001
0000
0000
0000
;

//---------------dance-single - ----------------
#NOTEDATA:;
#CHARTNAME:;
#STEPSTYPE:dance-single;
#DESCRIPTION:;
#CHARTSTYLE:;
#DIFFICULTY:Beginner;
#METER:1;
#RADARVALUES:0.154,0.128,0.063,0.110,0.000,115.000,8.000,14.000,0.000,0.000,0.000,0.000,0.000,0.154,0.128,0.063,0.110,0.000,115.000,8.000,14.000,0.000,0.000,0.000,0.000,0.000;
#CREDIT:;
#NOTES:
// measure 0
1001
0000
1000
0000
,  // measure 1
0001
0000
0001
0000
,  // measure 2
0100
0000
0100
0000
,  // measure 3
0010
0000
0010
0000
,  // measure 4
1000
0000
1000
0000
,  // measure 5
0001
0000
0001
0000
,  // measure 6
0010
0000
0010
0000
,  // measure 7
0100
0000
0100
0000
,  // measure 8
1000
0000
0100
0000
,  // measure 9
1000
0000
0010
0000
,  // measure 10
1000
0000
0001
0000
,  // measure 11
1000
0000
0100
0000
,  // measure 12
0001
0000
0010
0000
,  // measure 13
0001
0000
0100
0000
,  // measure 14
0001
0000
1000
0000
,  // measure 15
0001
0000
0100
0000
,  // measure 16
1001
0000
0000
0000
,  // measure 17
0010
0000
0000
0000
,  // measure 18
0100
0000
0000
0000
,  // measure 19
0020
0000
0030
0000
,  // measure 20
0110
0000
0100
0000
,  // measure 21
1000
0000
0100
0000
,  // measure 22
0010
0000
0100
0000
,  // measure 23
0001
0000
0100
0000
,  // measure 24
1001
0000
0010
0000
,  // measure 25
0001
0000
0010
0000
,  // measure 26
0100
0000
0100
0000
,  // measure 27
0010
0000
0010
0000
,  // measure 28
1000
0000
1000
0000
,  // measure 29
0001
0000
0001
0000
,  // measure 30
1000
0000
1000
0000
,  // measure 31
0010
0000
0010
0000
,  // measure 32
0001
0000
0001
0000
,  // measure 33
0100
0000
0100
0000
,  // measure 34
0001
0000
0001
0000
,  // measure 35
1000
0000
1000
0000
,  // measure 36
0020
0000
0030
0000
,  // measure 37
0200
0000
0300
0000
,  // measure 38
0002
0000
0003
0000
,  // measure 39
2000
0000
3000
0000
,  // measure 40
0200
0000
0300
0000
,  // measure 41
0020
0000
0030
0000
,  // measure 42
0002
0000
0003
0000
,  // measure 43
0200
0000
0300
0000
,  // measure 44
0110
0000
0010
0000
,  // measure 45
0010
0000
0010
0000
,  // measure 46
0110
0000
0100
0000
,  // measure 47
0100
0000
0100
0000
,  // measure 48
0200
0000
0300
0000
,  // measure 49
0110
0000
0001
0000
,  // measure 50
1000
0000
0001
0000
,  // measure 51
0100
0000
0010
0000
,  // measure 52
0100
0000
0010
0000
,  // measure 53
1001
0000
1000
0000
,  // measure 54
0010
0000
0100
0000
,  // measure 55
0001
0001
0000
1000
,  // measure 56
1000
0000
1000
0000
,  // measure 57
0010
0000
0010
0000
,  // measure 58
0100
0000
0100
0000
,  // measure 59
0001
0000
0001
0000
,  // measure 60
1000
0000
1000
0000
,  // measure 61
0002
0000
0003
0000
,  // measure 62
0020
0000
0030
0000
,  // measure 63
0200
0000
0300
0000
,  // measure 64
2000
0000
3000
0000
,  // measure 65
1000
0000
0000
0000
;

//---------------dance-single - ----------------
#NOTEDATA:;
#CHARTNAME:;
#STEPSTYPE:dance-single;
#DESCRIPTION:;
#CHARTSTYLE:;
#DIFFICULTY:Easy;
#METER:3;
#RADARVALUES:0.293,0.306,0.118,0.141,0.000,228.000,15.000,18.000,0.000,0.000,0.000,0.000,0.000,0.293,0.306,0.118,0.141,0.000,228.000,15.000,18.000,0.000,0.000,0.000,0.000,0.000;
#CREDIT:;
#NOTES:
// measure 0
1000
0100
1000
0100
,  // measure 1
0010
0001
0010
0001
,  // measure 2
0100
0001
0100
0001
,  // measure 3
1000
0010
1000
0010
,  // measure 4
1000
0100
1000
0100
,  // measure 5
0010
0001
0010
0001
,  // measure 6
1001
0000
0000
0110
0000
0000
1001
0000
,  // measure 7
0100
0010
0100
0100
,  // measure 8
0001
0010
0001
0001
,  // measure 9
1000
0010
1000
1000
,  // measure 10
0001
0100
0001
0001
,  // measure 11
1000
0100
1000
1000
,  // measure 12
0001
0010
0001
0001
,  // measure 13
1000
0010
1000
1000
,  // measure 14
0100
0001
0100
0100
,  // measure 15
0010
1000
0010
0010
,  // measure 16
0100
0010
0000
0010
,  // measure 17
1000
0010
0000
0010
,  // measure 18
0100
0010
0000
0010
,  // measure 19
0001
0020
0130
0000
,  // measure 20
1001
1000
0100
1000
,  // measure 21
0001
0001
0010
0001
,  // measure 22
0100
0100
0010
0100
,  // measure 23
1000
1000
0010
1000
,  // measure 24
0110
0010
0100
0010
,  // measure 25
1000
1000
0100
1000
,  // measure 26
1001
0000
0000
0110
0000
0000
1001
0000
,  // measure 27
0001
0010
0100
1000
,  // measure 28
0002
0010
0000
0013
,  // measure 29
2000
0000
3000
0200
0000
0300
0010
0000
,  // measure 30
0002
0100
0000
0103
,  // measure 31
2000
0000
3000
0020
0000
0030
0100
0000
,  // measure 32
0002
1000
0000
0103
,  // measure 33
2000
0001
0000
3100
,  // measure 34
0200
0010
0000
0301
,  // measure 35
0020
0100
0000
1030
,  // measure 36
1001
0001
0000
0001
,  // measure 37
0000
1000
0000
1000
,  // measure 38
0000
0010
0000
0010
,  // measure 39
0000
0100
0000
0100
,  // measure 40
0001
0010
0000
0010
,  // measure 41
0001
0100
0000
0100
,  // measure 42
0001
1000
0000
1000
,  // measure 43
0001
0100
0000
0100
,  // measure 44
1001
1000
0020
0130
,  // measure 45
0020
0130
0020
0130
,  // measure 46
0001
0010
0200
0310
,  // measure 47
0200
0310
0100
0010
,  // measure 48
0001
0200
0310
0010
,  // measure 49
1010
1000
0100
1000
,  // measure 50
0001
0001
0010
0001
,  // measure 51
1000
1000
0010
1000
,  // measure 52
0001
0001
0100
0001
,  // measure 53
1000
0100
1000
0010
,  // measure 54
1000
0001
1000
0010
,  // measure 55
0110
0000
0000
1001
0000
1001
0000
0000
,  // measure 56
0110
0010
0100
0010
,  // measure 57
1000
1000
0100
0100
,  // measure 58
0010
0010
0001
0001
,  // measure 59
0100
0100
0010
0010
,  // measure 60
1000
1000
0001
0001
,  // measure 61
1000
0100
1000
0100
,  // measure 62
0010
0001
0010
0001
,  // measure 63
2000
0000
0000
0000
,  // measure 64
0000
0000
0000
0000
,  // measure 65
3001
0000
0000
0000
;

//---------------dance-single - ----------------
#NOTEDATA:;
#CHARTNAME:;
#STEPSTYPE:dance-single;
#DESCRIPTION:;
#CHARTSTYLE:;
#DIFFICULTY:Medium;
#METER:6;
#RADARVALUES:0.439,0.434,0.149,0.502,0.263,308.000,19.000,64.000,0.000,0.000,0.000,0.000,0.000,0.439,0.434,0.149,0.502,0.263,308.000,19.000,64.000,0.000,0.000,0.000,0.000,0.000;
#CREDIT:;
#NOTES:
// measure 0
1000
0000
0000
0100
0000
0000
2000
0000
0000
0000
3001
0000
0000
0001
0000
0000
,  // measure 1
1000
0000
0000
0010
0000
0000
2000
0000
0000
0000
3001
0000
0000
1000
0000
0000
,  // measure 2
0001
0000
0000
0010
0000
0000
0002
0000
0000
0000
1003
0000
0000
1000
0000
0000
,  // measure 3
0001
0000
0000
0100
0000
0000
0002
0000
0000
0000
1003
0000
0000
0001
0000
0000
,  // measure 4
0100
0000
0000
0010
0000
0000
2000
0000
0000
0000
3001
0000
0000
0001
0000
0000
,  // measure 5
0010
0000
0000
0100
0000
0000
2000
0000
0000
0000
3001
0000
0000
0001
0000
0000
,  // measure 6
0011
0000
0000
0011
0000
0000
0102
0000
0000
0000
1003
0000
0000
0100
0000
0000
,  // measure 7
1000
0000
0000
1000
0000
0000
0200
0000
0000
0000
0310
0000
0000
0001
0000
0000
,  // measure 8
1000
0010
2000
0000
3100
0010
0002
0000
,  // measure 9
1003
0000
0010
0000
0000
0010
0000
0000
0200
0000
0000
0000
0302
0000
0000
0000
,  // measure 10
1003
0000
0100
0000
1000
0000
0010
0000
0100
0000
0000
0100
0000
0000
0002
0000
,  // measure 11
0000
0013
0001
0100
0010
0100
0001
0000
,  // measure 12
1000
0100
2000
0000
3010
0100
0002
0000
,  // measure 13
1003
0000
0100
0000
0000
0100
0000
0000
0020
0000
0000
0000
0032
0000
0000
0000
,  // measure 14
1003
0000
0001
0000
0000
0010
0000
0000
0001
0000
0000
0100
0000
0000
0010
0000
,  // measure 15
1000
0000
0000
0200
0000
0000
0020
0000
0000
0000
0000
0000
0330
0000
0000
0000
,  // measure 16
1000
0100
1000
1000
0020
0000
0130
0020
,  // measure 17
0000
1030
0100
0010
0002
0000
0103
0002
,  // measure 18
0000
0000
0013
0000
0001
0000
0000
0000
0000
0000
1000
0000
0000
0100
0000
0000
,  // measure 19
1000
0020
0130
0000
,  // measure 20
1001
0000
0000
1000
0000
0000
0200
0000
0000
0000
0310
0000
0000
0010
0000
0000
,  // measure 21
0001
0000
0000
0001
0000
0000
0200
0000
0000
0000
0310
0000
0000
0010
0000
0000
,  // measure 22
1000
0000
0000
1000
0000
0000
0002
0000
0000
0000
0103
0000
0000
0100
0000
0000
,  // measure 23
0010
0000
0000
0010
0000
0000
0200
0000
0000
0000
0301
0000
0000
0001
0000
0000
,  // measure 24
1000
0000
0000
0100
0000
0000
2000
0000
0000
0000
3010
0000
0000
0010
0000
0000
,  // measure 25
0100
0000
0000
0001
0000
0000
0200
0000
0000
0000
0310
0000
0000
0010
0000
0000
,  // measure 26
1010
0000
0000
1010
0000
0000
1100
0000
0000
0000
1000
0000
0100
0000
0010
0000
,  // measure 27
0001
0000
1000
0000
0001
0010
0100
1000
,  // measure 28
0002
0100
0000
0103
,  // measure 29
2000
0000
3100
0020
0000
0031
0200
0000
,  // measure 30
0320
1000
0000
1030
,  // measure 31
2000
0000
3010
0200
0000
0301
0020
0000
,  // measure 32
0230
0010
0000
0310
,  // measure 33
0020
0001
0000
0031
,  // measure 34
0002
1000
0000
1003
,  // measure 35
2000
0010
0000
3010
,  // measure 36
1010
0100
0000
0100
,  // measure 37
0000
0010
0000
0010
,  // measure 38
0000
1000
0000
1000
,  // measure 39
0000
0001
0000
0001
,  // measure 40
1001
1000
0020
0000
1030
0100
0020
0000
,  // measure 41
0031
0000
0100
0000
0000
0100
0000
0000
0020
0000
0000
0000
2030
0000
0000
0000
,  // measure 42
3001
0000
1000
0000
0000
0100
0000
0000
1000
0000
0000
0010
0000
0000
0100
0000
,  // measure 43
0002
0010
0100
1003
,  // measure 44
1001
0000
0000
0000
1000
0000
0100
0000
0010
0000
0000
0010
0000
0000
0100
0000
,  // measure 45
0010
0000
0000
0010
0000
0000
0100
0000
0010
0000
0000
0010
0000
0000
0000
0000
,  // measure 46
1001
0000
0000
0000
0001
0000
0100
0000
0010
0000
0000
0010
0000
0000
0100
0000
,  // measure 47
0010
0000
0000
0010
0000
0000
0000
0000
1000
0000
0010
0000
0100
0000
0001
0000
,  // measure 48
1000
0000
0000
0000
0002
0000
0000
0000
0103
0000
0001
0000
0000
0100
0000
0000
,  // measure 49
1001
0000
0000
1000
0000
0000
0020
0000
0000
0000
0130
0000
0000
0010
0000
0000
,  // measure 50
1000
0000
0000
1000
0000
0000
0200
0000
0000
0000
0310
0000
0000
0100
0000
0000
,  // measure 51
0001
0000
0000
0001
0000
0000
0200
0000
0000
0000
0310
0000
0000
0100
0000
0000
,  // measure 52
0001
0000
0000
0001
0000
0000
0020
0000
0000
0000
0130
0000
0010
0000
0100
0000
,  // measure 53
1000
0000
1000
0020
0000
0230
0000
0302
,  // measure 54
0000
0000
0023
0000
0000
0000
0130
0000
0000
0000
1000
0000
0000
0010
0000
0000
,  // measure 55
1010
0000
0000
1010
0000
0000
1100
0000
0000
0000
0101
0000
0000
0101
0000
0000
,  // measure 56
0012
0000
0100
0000
1003
0001
0010
0100
,  // measure 57
1000
0000
0000
1000
0000
0000
0020
0000
0000
0000
1030
0000
0000
1000
0000
0000
,  // measure 58
0001
0000
0000
0001
0000
0000
0020
0000
0000
0000
0031
0000
0000
0001
0000
0000
,  // measure 59
1000
0000
0000
1000
0000
0000
0200
0000
0000
0000
1300
0000
0000
1000
0000
0000
,  // measure 60
0001
0000
0000
0001
0000
0000
0200
0000
0000
0000
0301
0000
0000
0001
0000
0000
,  // measure 61
1000
0000
0000
0010
0000
0000
2000
0000
0000
0000
3001
0000
0000
1000
0000
0000
,  // measure 62
0001
0000
0000
0010
0000
0000
0002
0000
0000
0000
1003
0000
0000
1000
0000
0000
,  // measure 63
2001
0000
0000
0001
0000
0000
0000
0000
,  // measure 64
0010
0000
0000
0010
0000
0000
0000
0000
,  // measure 65
3001
0000
0000
0000
;
