#TITLE:Hitori Shizuka;
#SUBTITLE:;
#ARTIST:Yuuhei Satellite;
#TITLETRANSLIT:;
#SUBTITLETRANSLIT:;
#ARTISTTRANSLIT:;
#GENRE:;
#CREDIT:;
#BANNER:Hitori Shizuka.png;
#BACKGROUND:Hitori Shizuka - bg.png;
#LYRICSPATH:;
#CDTITLE:cd-rikame.png;
#MUSIC:Hitori Shizuka.ogg;
#OFFSET:-0.900;
#SAMPLESTART:40.878;
#SAMPLELENGTH:21.575;
#SELECTABLE:YES;
#BPMS:0.000=65.000,16.000=130.000,232.000=65.000;
#STOPS:;
#BGCHANGES:;
#KEYSOUNDS:;

//---------------dance-single - Rikame----------------
#NOTES:
     dance-single:
     Rikame:
     Challenge:
     10:
     0.650,0.991,0.220,0.476,0.549:
0000
0000
0000
0000
,
0000
0000
0000
0000
,
1100
0000
0100
0000
0010
0001
1000
0000
0020
0000
0000
0000
0130
0000
0001
0000
0101
0000
0100
0000
0010
1000
0001
0000
0020
0000
0000
0000
0130
0000
1000
0000
,
1001
0000
0001
0000
0010
0000
0100
0000
1100
0000
0000
0000
1000
0010
0100
0001
0020
0000
0000
0000
0230
0000
0000
0000
1300
0001
0010
0100
1000
0100
0010
0001
,
1M00
0000
0010
0000
0100
0001
0020
0000
0000
0130
0000
1000
0000
0000
0001
0000
,
0100
0000
0000
0000
0001
0000
0000
0000
1000
0000
0000
0000
0000
M000
0000
0000
0100
0000
0000
0000
0001
0000
0000
0000
1000
0000
0000
0000
0000
0000
0000
0000
0100
0000
0000
0000
1000
0000
0000
0000
0000
0000
0000
0000
1000
0000
0000
0000
0001
0000
0000
0000
0000
0000
0000
0000
0001
0000
0000
0000
0100
0000
0000
0000
,
0010
0000
0100
0000
0001
0000
0010
0000
0100
1000
0001
0000
0010
0001
0200
0000
,
0000
0000
0310
0000
1000
0000
0100
0000
0010
0000
0100
1000
0001
0000
0100
0000
,
0110
0000
0010
0000
1000
0000
0001
0000
0010
0100
0000
1000
0000
0000
0020
0000
,
0000
0000
0130
0000
0001
0000
0100
0000
0010
1000
0000
0100
0000
0000
0010
0100
,
1000
0100
0001
0100
0020
0000
0030
0002
,
0000
0103
1000
0100
0020
0000
0030
0000
,
1001
0000
1000
0000
0001
0000
0010
0000
0001
0100
0000
0010
0000
0000
0100
0001
,
1000
0000
0010
0000
1000
0000
0001
0000
0010
0100
0000
1000
0000
0000
0010
0100
,
0001
0010
0001
0100
2000
0000
3000
0200
,
0000
0000
0310
0000
1000
0000
0100
0000
0010
0001
0010
0001
1000
0000
0010
1000
,
0100
0000
0010
0000
0001
0000
1000
0000
0020
0000
0000
0230
0000
0000
0302
0000
,
0013
0000
0001
0000
1000
0000
0100
0000
0010
0000
0001
0100
0000
0100
0010
0000
,
1000
0000
0001
0000
0100
0000
0001
0000
0020
0000
0000
0230
0000
0000
1300
0000
,
0001
0000
0000
0000
0000
0000
0100
0000
0000
0000
0000
0000
0010
0000
0000
0000
0000
0000
1000
0000
0000
0100
0000
0000
0010
0000
0000
0000
0001
0000
0000
0000
0100
0000
0000
0000
0010
0000
0000
0000
1000
0000
0000
0000
0001
0000
0000
0000
,
0011
0000
0010
0000
0100
0000
1000
0000
0002
0000
0000
0203
0000
0000
0310
0000
,
1000
0010
0100
0001
0010
0100
0010
0001
,
1001
1000
0010
0100
0010
1000
0001
0010
,
2001
0000
3000
0210
0000
0300
1002
0000
,
0023
0000
0000
0000
0000
0000
0130
1000
,
1001
0000
0001
0000
0100
0010
1000
0000
0200
0000
0000
0000
0310
0000
0001
0000
,
1000
0000
0010
0000
0100
0001
0010
0000
0200
0000
0000
0000
0310
0000
0001
0000
,
2000
0000
0000
0000
3001
0000
0100
0000
0020
0000
0000
0000
0130
0001
1000
0100
,
0010
0100
1000
0001
0100
0010
1000
0100
,
0110
0000
0010
0000
0001
0100
0010
0000
2000
0000
0000
0000
3010
0000
0100
0000
,
0001
0000
0010
0000
0100
1000
0010
0000
0200
0000
0000
0000
0310
0000
1000
0000
,
0002
0000
0000
0000
0013
0000
0100
0000
2000
0000
0000
0000
3010
0100
0010
1000
,
0001
0010
0001
0100
0110
0010
1010
1000
,
1100
0000
0100
0000
0010
0001
1000
0000
0020
0000
0000
0000
0130
0000
0010
0000
,
1000
0000
0001
0000
0010
0100
1000
0000
0002
0000
0000
0000
0103
0000
0010
0000
,
2010
0000
0000
0000
3001
0000
0010
0000
0200
0000
0000
0000
0310
0001
1000
0010
,
0100
0001
0100
0010
1010
1000
1001
0001
,
0011
0000
0010
0000
0100
1000
0010
0000
0200
0000
0000
0000
0301
0000
0100
0000
,
0110
0000
0010
0000
1000
0100
0010
0000
0200
0000
0000
0000
1300
0000
0010
0000
,
2001
0000
3010
0100
1002
0000
0013
0100
,
2010
0000
0000
0000
0000
0000
0000
0000
0000
3000
0000
0000
0102
0000
0000
0000
0000
0000
0000
0000
0000
0000
0000
0000
1003
0000
0010
0000
1000
0000
0010
0000
0000
0100
0000
0000
0001
0000
0000
1000
0000
0000
0100
0000
0000
0010
0000
0000
,
0100
0000
1000
0000
0001
1000
0010
0000
0000
0100
0000
0001
0000
0000
0010
0000
,
0001
0000
0000
0000
1000
0000
0000
0000
0100
0000
0000
0000
0000
0M00
0000
0000
0001
0000
0000
0000
1000
0000
0000
0000
0100
0000
0000
0000
0000
0000
0000
0000
0010
0000
0000
0000
0001
0000
0000
0000
0000
0000
0000
0000
0001
0000
0000
0000
1000
0000
0000
0000
0000
0000
0000
0000
0100
0000
0000
0000
1000
0000
0000
0000
,
0010
0000
0100
0000
0001
0000
0010
0000
0100
1000
0001
0000
0010
0001
0100
0000
,
0000
0000
0010
0000
1000
0000
0100
0000
1000
0000
0001
0010
0100
0000
0010
0001
,
1000
0000
0001
0000
0100
0010
1000
0000
0000
0100
0000
0010
0000
0000
0100
0000
,
1000
0000
0000
0000
0010
0000
0000
0000
0100
0000
0000
0000
0000
0M00
0000
0000
1000
0000
0000
0000
0010
0000
0000
0000
0100
0000
0000
0000
0000
0000
0000
0000
0001
0000
0000
0000
0010
0000
0000
0000
0000
0000
0000
0000
0010
0000
0000
0000
0100
0000
0000
0000
0000
0000
0000
0000
1000
0000
0000
0000
0001
0000
0000
0000
,
0100
0000
0010
0000
1000
0000
0001
0000
0010
0001
0100
0000
0010
1000
0001
0000
,
0011
0010
0100
1000
0101
0010
1100
0021
,
0230
0000
0000
2300
0000
3001
0100
0010
,
2000
0000
3200
0000
0000
0000
0000
0320
,
0000
0031
1000
0001
0100
0010
1000
0100
,
0020
0000
0000
0230
0000
0000
2300
0000
0000
0000
0000
0000
0000
0000
0000
3002
,
0000
0000
0000
0103
0000
0000
0001
0000
0000
1000
0000
0000
0001
0000
0010
0000
0100
0000
1000
0000
0000
0001
0000
0000
0100
0000
0010
0000
1000
0000
0001
0000
0000
0100
0000
0000
0010
0000
0000
0100
0000
0000
0001
0000
1000
0000
0100
0000
,
0010
0000
0000
0100
0000
0000
1000
0000
0001
0000
0100
0000
0020
0000
0000
0000
0000
0000
0130
0000
0000
0001
0000
0000
0000
0000
0000
0010
0000
0000
0100
0000
0000
1000
0000
0000
0040
0000
0000
0000
0000
0000
0000
0000
0000
0000
0000
0000
,
0130
0000
0000
0000
0000
0000
0001
0000
1000
0000
0100
0000
0010
0000
0000
0100
0000
0000
1000
0000
0000
0001
0000
0000
0100
0000
0000
0010
0000
0000
2000
0000
0000
0000
0000
0000
3100
0000
0000
0010
0000
0000
0001
0000
0000
1000
0000
0000
,
0010
0000
0000
0000
0200
0000
0000
0000
0302
0000
0000
0000
0023
0000
0000
0000
0130
0000
0000
1000
0000
0000
0001
0000
0000
0100
0000
0000
0010
0000
0000
0000
,
4010
0000
0000
0000
0000
0000
0000
0000
0000
0000
0000
3004
0000
0000
0000
0000
4003
0000
0000
0000
0000
0000
0000
0000
0000
0000
0000
0000
3000
0000
0000
0000
,
MMM1
0000
0100
0000
0010
1000
0100
0000
0002
0000
0000
0000
0103
0000
1000
0000
0001
0000
0010
0000
0100
1000
0010
0000
0002
0000
0000
0000
0013
0000
1000
0000
,
0002
0000
0000
0000
0000
0000
0000
0000
0003
0000
0000
0000
0010
0001
1000
0001
0100
0000
0010
0000
1000
0000
0100
0000
1000
0000
0001
0000
0100
0000
0010
0000
,
1000
0001
0010
0100
0020
0000
0031
0100
0001
1000
0100
0010
0200
0000
0310
0001
,
2000
0000
0000
0000
0000
0000
3001
0100
0020
0000
0000
0000
0000
0000
0000
0000
,
203M
0000
0002
0000
,
3003
0000
0000
0000
;

//---------------dance-single - Rikame----------------
#NOTES:
     dance-single:
     Rikame:
     Beginner:
     1:
     0.093,0.138,0.051,0.066,0.000:
0000
0000
0000
0000
,
0000
0000
0000
0000
,
0001
0000
1000
0000
,
0001
0001
1000
1000
,
0010
0000
0000
0000
,
0100
0000
0100
0000
,
0010
0000
0000
0000
,
1000
0000
0000
0000
,
1001
0000
0000
0000
,
0001
0000
0000
0000
,
0100
0000
0000
0000
,
0001
0000
0000
0000
,
1001
0000
0000
0000
,
1000
0000
0000
0000
,
0100
0000
0000
0000
,
1000
0000
0000
0000
,
0020
0000
0000
0000
,
0000
0000
0030
0000
,
0200
0000
0000
0000
,
0000
0000
0300
0000
,
0002
0000
0000
0000
,
0000
0000
0003
0000
,
2000
0000
0000
0000
,
3001
0000
1000
0000
,
0001
0000
0000
0000
,
0100
0000
0000
0000
,
0010
0000
0000
0000
,
1000
0000
0000
0000
,
0100
0000
0000
0000
,
0010
0000
0000
0000
,
0100
0000
0000
0000
,
1000
0000
0000
0000
,
0001
0000
0000
0000
,
0100
0000
0000
0000
,
0010
0000
0000
0000
,
1000
0000
0000
0000
,
0100
0000
0010
0000
,
1001
0000
0000
0000
,
0110
0000
0000
0000
,
1001
0000
1001
0000
,
1001
0000
0002
0000
,
1003
0000
0000
0000
,
0100
0000
0000
0000
,
0010
0000
0000
0000
,
0001
0000
0000
0000
,
0100
0000
0000
0000
,
0010
0000
0000
0000
,
1000
0000
0000
0000
,
0001
0000
1000
0000
,
0001
0000
0000
0000
,
0100
0000
0000
0000
,
0010
0000
0000
0000
,
1000
0000
0000
0000
,
0001
0000
0000
0000
,
0010
0000
0000
0000
,
0100
0000
0000
0000
,
1000
0000
0000
0000
,
0002
0000
0000
0000
,
1003
0000
0001
0000
,
0100
0000
0010
0000
,
0100
0000
0001
0000
,
0010
0000
0200
0000
,
2300
0000
3002
0000
,
0003
0000
0000
0000
;

//---------------dance-single - Rikame----------------
#NOTES:
     dance-single:
     Rikame:
     Easy:
     4:
     0.251,0.323,0.059,0.337,0.000:
0000
0000
0000
0000
,
0000
0000
0000
0000
,
1001
0000
0110
0000
,
1100
0000
0011
0000
0002
0023
0230
0000
,
1300
0001
2000
0000
,
3100
0000
0100
0000
,
0010
0001
1000
0010
,
0100
0000
0100
0000
,
0001
1000
0002
0000
,
0013
0100
2000
0000
,
3010
0100
0002
0000
,
0103
0010
2000
0000
,
3100
0010
0200
0000
,
1300
0001
0200
0000
,
0310
1000
0002
0000
,
1003
0100
0020
0000
,
0032
0000
0203
0000
,
0320
0000
0000
1030
,
2000
0000
3200
0000
,
0320
0000
0031
1000
,
0002
0000
0203
0000
,
0320
0000
0000
1030
,
0002
0000
0000
0013
,
0110
0000
0000
1001
0000
0000
0110
0000
,
0000
0000
0000
1000
,
0001
0010
0200
0000
,
0310
0001
0200
0000
,
0310
1000
0001
0010
,
0100
1000
0001
0100
,
0010
1000
0002
0000
,
0013
0001
0200
0000
,
0310
1000
0100
0010
,
0001
0100
0010
1000
,
0001
0010
0200
0000
,
0310
0001
2000
0000
,
3010
0100
0001
0100
,
0010
1000
0100
0010
,
0002
0000
2003
0000
,
3020
0000
0230
0000
,
0301
0010
0001
0100
,
0020
2030
3100
0010
,
0001
1000
0002
0000
,
0103
0000
0100
0000
,
0010
1000
0001
0010
,
0100
0000
0100
0000
,
1000
0001
2000
0000
,
3010
0100
0002
0000
,
0013
0100
2000
0000
,
3100
0010
0001
1000
,
1002
0000
0000
0203
0000
0000
0310
0000
,
1000
0000
0002
0000
0000
0000
0003
0020
,
0000
0130
1000
0010
,
0100
0000
0000
0002
0000
0000
0000
0000
,
0013
0100
1000
0100
,
0010
0001
0100
0010
,
1000
0100
1000
0001
,
0100
0010
1000
0100
,
0010
0000
0000
0100
0000
0010
0000
0000
,
0001
1000
0010
0100
,
0002
0003
0010
0100
,
1000
0010
0100
0010
,
1000
0001
0010
0100
,
2000
0000
0002
0000
,
3003
0000
0000
0000
;

//---------------dance-single - Rikame----------------
#NOTES:
     dance-single:
     Rikame:
     Medium:
     7:
     0.375,0.369,0.081,0.351,0.004:
0000
0000
0000
0000
,
0000
0000
0000
0000
,
0001
0100
0020
0000
1030
0100
0020
0000
,
0130
0000
1000
0000
0001
0100
0020
0000
,
1030
0100
1000
0010
,
0100
0001
0100
0010
,
1000
0001
0010
0100
,
0010
0001
1000
0010
,
0110
0100
0001
0010
,
0100
0010
0001
0100
,
0010
1000
0100
0000
,
1000
0010
0100
0000
,
0101
0001
0010
0100
,
0010
0001
1000
0010
,
0100
0001
1000
0000
,
0100
1000
0001
0000
,
2001
0000
3100
0010
,
0002
0000
0000
0000
0000
1003
0000
0000
,
0020
0000
0130
0001
,
2000
0000
0000
0000
3100
0010
0001
1000
,
0020
0000
0130
0001
,
2000
0000
3000
0100
,
0120
0000
0000
0000
0000
0031
0000
0000
,
1001
0000
0000
1100
0000
0000
0011
0000
,
2001
0000
0000
0000
0000
0000
3100
0010
,
0001
0100
0010
1000
0200
0000
1300
0010
,
0100
0001
0010
0100
2000
0000
3100
0010
,
0002
0000
0103
0010
2000
0000
3001
0010
,
0100
1000
0001
0100
0010
1000
0001
0010
,
0100
0010
0001
0100
0020
0000
1030
0001
,
0100
0010
1000
0100
0020
0000
0031
0100
,
0020
0000
0130
0001
0020
0000
0130
1000
,
0001
0100
0010
0100
0001
1000
0100
0010
,
0001
0100
0010
1000
0002
0000
0103
0010
,
1000
0100
0010
0001
2000
0000
3001
0010
,
0200
0000
1300
0010
0200
0000
0310
1000
,
0100
1000
0001
0100
0001
0010
0100
1000
,
0010
0100
0001
0100
0020
0000
0130
0001
,
1000
0100
0010
0100
2000
0000
3100
0010
,
0002
0000
0103
0010
2000
0000
3001
0010
,
0200
2300
3002
0000
,
0103
0010
1000
0100
,
1000
0010
1000
0100
,
0010
0001
1000
0010
,
0100
0001
0010
0100
,
1001
1000
0010
0100
,
0001
0010
0001
1000
,
1010
0010
0100
0001
,
0011
0000
0010
0000
0100
0000
1000
0001
,
2000
0000
0000
3020
0000
0130
0001
1000
,
0100
1000
0002
0000
0000
0000
0000
0203
,
0000
0310
0100
0001
1000
0100
0010
0001
,
2000
0000
0000
3020
0000
0000
0230
0000
0000
0000
0000
0000
0000
0000
0301
0000
,
0010
0100
1000
0010
0100
0010
1000
0100
,
0010
0001
0100
0010
1000
0100
0020
0000
,
0031
1000
0001
0100
0010
1000
0100
1000
,
0001
0100
0010
1000
0001
0010
0100
1000
,
0002
0000
0000
2003
0000
0000
3002
0000
,
1003
0100
0020
0000
0130
1000
0020
0000
,
0230
0000
0300
0001
0010
0100
1000
0001
,
0100
0010
1000
0100
1000
0001
0010
0100
,
0020
0000
0030
0001
2000
0000
0000
0000
,
3200
0000
0020
0000
,
0330
0000
0000
0000
;

//---------------dance-single - Rikame----------------
#NOTES:
     dance-single:
     Rikame:
     Hard:
     9:
     0.567,0.715,0.095,0.556,0.340:
0000
0000
0000
0000
,
0000
0000
0000
0000
,
0001
1000
0100
0100
0020
0000
0031
0100
0010
1000
0100
0100
0020
0000
0130
1000
,
0002
0000
0000
0000
0003
0000
0100
0010
1000
0000
0001
0000
1000
0100
0010
0001
,
1M00
0000
0010
0000
0100
0000
0020
0000
0000
2030
0000
3100
0000
0000
0010
0000
,
0001
1000
0001
0000
1000
0001
1000
0000
0010
0100
0000
0100
0010
0000
1000
0000
,
0001
0010
0100
1000
0001
0100
0010
0200
,
0000
0301
0010
0001
1000
0100
1000
0010
,
0100
0001
1000
0010
0100
0010
1000
0000
,
0100
1000
0100
0010
0001
1000
0010
0000
,
0100
0001
1000
0010
0200
0000
0300
0020
,
0000
1030
0001
0100
0020
0000
0030
0000
,
1000
0100
1000
0001
0010
0001
0100
0000
,
0010
1000
0010
0100
0001
0010
0100
0000
,
0010
0001
1000
0100
0020
0000
0030
0200
,
0000
1300
0001
0010
0200
0000
0300
0000
,
2000
0000
0000
0000
0000
0000
0000
0000
3020
0000
0000
0230
0000
0000
0301
0000
,
0020
0000
0000
0000
0000
0000
0000
0000
0000
0000
0031
1000
0000
1000
0001
0000
,
0020
0000
0000
0000
0000
0000
0000
0000
0230
0000
0000
2300
0000
0000
3001
0000
,
0200
0000
0000
0000
0000
0000
0000
0000
0000
0310
0000
0000
1000
0000
0001
0000
1000
0000
0100
0000
0010
0000
0001
0000
,
2000
0000
0000
0000
0000
0000
0000
0000
3020
0000
0000
0230
0000
0000
0301
0000
,
2000
0000
3000
0200
,
0320
0000
0000
0000
0000
0031
1000
0010
,
0110
0000
0000
1010
0000
0000
0101
0000
,
0021
0000
0000
0000
0000
0000
0130
1000
,
0010
0000
0100
0000
0001
0010
0001
0000
2000
0000
0000
0000
3100
0000
0010
0000
,
0001
0000
1000
0000
0010
0100
0010
0000
2000
0000
0000
0000
3001
0000
0100
0000
,
0020
0000
0000
0000
1030
0000
0100
0000
0020
0000
0000
0000
0130
1000
0100
1000
,
0001
0100
0010
1000
0001
0010
0100
1000
,
1001
0000
0001
0000
0100
0010
0100
0000
0002
0000
0000
0000
1003
0000
0010
0000
,
0100
0000
0010
0000
1000
0100
1000
0000
0002
0000
0000
0000
0013
0000
0100
0000
,
2000
0000
0000
0000
3010
0000
0100
0000
0002
0000
0000
0000
0013
0100
0010
0100
,
1000
0001
0100
0010
1000
0001
0010
0100
,
1100
0000
1000
0000
0100
1000
0100
0000
0020
0000
0000
0000
0031
0000
0100
0000
,
0010
0000
1000
0000
0100
0010
0100
0000
2000
0000
0000
0000
3001
0000
0100
0000
,
0210
0000
0000
0000
0301
0000
1000
0000
0200
0000
0000
0000
0310
0001
0010
0001
,
1000
0010
0100
0001
0010
0100
1000
0010
,
0110
0000
0100
0000
0001
0100
0001
0000
0020
0000
0000
0000
0130
0000
1000
0000
,
1010
0000
0010
0000
0100
0010
0100
0000
0002
0000
0000
0000
0013
0000
0100
0000
,
2100
0000
3001
0100
0102
0000
1003
0100
,
0110
0000
0000
0000
0011
0000
0000
0000
0001
0010
0001
0010
0100
1000
0100
1000
,
00M1
0000
0100
0000
0010
0000
2000
0000
0000
3100
0000
0010
0000
0000
0001
0000
,
1000
0100
1000
0000
0100
1000
0100
0000
0010
0001
0000
0001
0010
0000
0100
0000
,
1000
0001
0100
0010
0100
0001
1000
0020
,
0000
0130
0001
1000
0100
0010
0100
1000
,
0010
0000
1000
0000
0001
0000
0020
0000
0000
0130
0000
1000
0000
0000
0001
0000
,
0010
0100
0010
0000
0100
0010
0100
0000
1000
0010
0000
0010
1000
0000
0001
0000
,
0100
0010
1000
0100
1000
0001
0010
0200
,
0000
0310
0001
1000
0010
0100
0001
1000
,
0200
0000
0000
0320
0000
0130
1000
0010
,
0200
0000
0302
0000
0000
0000
0000
0023
,
0000
0130
1000
0010
0100
0001
1000
0100
,
0020
0000
0000
0230
0000
0000
2300
0000
0000
0000
0000
0000
0000
0000
0000
0000
,
3010
0100
0010
1000
0001
1000
0010
1000
0100
0010
0100
1000
0001
0010
0001
1000
,
0001
0100
0010
1000
0002
0000
0013
0200
0000
1300
0001
1000
0020
0000
0130
0000
,
0001
0010
0001
1000
0100
1000
0010
0100
0001
0100
0020
0000
1030
0001
1000
0100
,
0020
0032
0203
0320
2030
3200
0320
0032
,
4003
0000
0000
3004
0000
1003
0004
0000
,
M103
0010
1000
0100
0020
0000
0130
1000
0001
0100
0010
1000
0200
0000
0310
0001
,
2000
0000
0000
0000
3000
0000
0001
0100
0001
1000
0010
1000
0100
1000
0001
0100
,
0010
1000
0001
0010
0200
0000
0310
0001
1000
0010
0100
0001
0020
0000
0031
1000
,
0200
0000
0000
0000
0300
0000
1000
0010
0200
0000
0000
0000
0000
0000
0000
0000
,
0302
0000
2000
0000
,
3003
0000
0000
0000
;
