#TITLE:[Qualifier Singles] - Heaven Is A Place On Earth;
#SUBTITLE:;
#ARTIST:JULIA;
#TITLETRANSLIT:;
#SUBTITLETRANSLIT:;
#ARTISTTRANSLIT:;
#GENRE:;
#CREDIT:;
#BANNER:;
#BACKGROUND:;
#LYRICSPATH:;
#CDTITLE:;
#MUSIC:[Qualifier Singles] - Heaven Is A Place On Earth.mp3;
#OFFSET:-0.910;
#SAMPLESTART:67.397;
#SAMPLELENGTH:12.000;
#SELECTABLE:YES;
#BPMS:0.000=140.750,116.000=140.800,132.000=140.000,136.000=140.800,172.000=140.777;
#STOPS:;
#TIMESIGNATURES:0.000=4=4
;
#BGCHANGES:;
#KEYSOUNDS:;

//---------------dance-single - ----------------
#NOTES:
     dance-single:
     :
     Challenge:
     9:
     0.726,0.774,0.168,1.000,0.667,391.000,17.000,106.000,0.000,2.000,0.000,0.726,0.774,0.168,1.000,0.667,391.000,17.000,106.000,0.000,2.000,0.000:
0000
0000
0000
0000
,
0000
0000
0000
0000
,
0000
0000
0000
0000
,
0000
0000
0000
0000
,
2002
0000
0000
3003
0220
0000
0000
0330
2002
0000
0000
0000
3003
0000
0000
0000
,
2000
3200
0320
0000
,
0032
0023
0000
0032
0000
0203
0320
2030
,
3200
0000
2300
0000
3002
0023
0000
0000
,
0032
0000
0000
2000
0000
0000
0000
0000
,
0000
0000
0000
3003
,
0001
1000
0000
0010
0000
0100
0001
0000
0200
0000
0000
0000
0301
0000
0001
0000
,
0010
0001
0000
1000
0000
0001
1000
0000
0002
0000
0000
0000
0000
0000
1003
0100
,
1000
0100
0000
0010
0000
0001
0100
0001
0100
0000
0100
0000
0010
0000
0010
0000
,
1000
0001
0000
0100
0000
0001
0010
0000
0002
0000
0000
0000
0000
0000
1003
0200
,
2000
0000
0000
3300
2002
0000
0000
3003
0202
0000
0000
0303
0000
0000
0001
0010
,
0001
0010
0000
0001
0000
1000
0001
1000
0020
0000
0000
0000
0000
0000
0130
0010
,
0100
0010
0000
0100
0000
0001
0100
0001
0100
0000
0100
0000
0001
0000
0001
0000
,
1000
0100
0000
0100
0000
0010
0100
0000
2000
0000
0000
0000
0000
0000
0000
0000
,
3001
0100
0000
0100
0000
0010
1000
0000
0200
0000
0000
0000
1300
0000
1000
0000
,
0001
0010
0000
0010
0000
0100
1000
0000
0002
0000
0000
0000
1003
0000
1000
0000
,
0001
0100
0000
0010
0000
0010
1000
0000
1000
0100
0000
0100
0000
0010
0001
0000
,
0100
0001
0000
0100
0001
0100
0000
0001
0100
0001
0100
0010
0100
0010
0100
0002
,
0200
0000
0000
0000
0000
0000
1000
0003
,
0301
0010
0000
0100
0000
0100
1000
0000
2100
0000
0000
0000
0010
0000
3010
0000
,
0100
0001
0000
0010
0000
0010
0100
0000
0210
0000
0000
0000
0000
0000
1300
0100
,
0010
0100
0000
0100
0000
0010
0001
1000
0001
0000
0001
0000
1000
0000
1000
0000
,
0001
0100
0000
0010
0000
0010
0100
0000
0201
0000
0000
0000
0000
0000
0301
0200
,
0002
0000
0000
0303
0220
0000
0000
0330
2002
0000
0000
0000
3003
0000
1000
0100
,
0010
0100
0000
0010
0000
0001
0010
0001
0200
0000
0000
0000
0000
0000
0310
1000
,
0010
0100
0000
0100
0000
0010
0100
0001
0100
0000
0100
0000
0001
0000
0001
0000
,
0010
0001
0000
0100
0000
0100
0010
0000
0100
0000
0001
0100
0001
0100
0001
0100
,
0010
1000
0000
0010
0000
0010
0100
0000
0201
0000
0000
0000
0001
0000
0301
0000
,
0100
0010
0000
1000
0000
1000
0100
0000
0120
0000
0000
0000
0000
0000
0031
0010
,
0100
0010
0000
0100
0000
1000
0100
0010
0100
0000
0100
0000
1000
0000
1000
0000
,
0001
1000
0000
0001
0000
0010
0001
0000
0102
0000
0000
0000
0000
0000
0103
0002
,
0200
0000
0000
0303
0220
0000
0000
0330
2020
0000
0000
3030
1000
0000
1000
0000
,
0001
0100
0010
1000
0010
0100
0001
0001
,
1000
0100
0010
0001
0010
0100
1000
1000
,
0001
0010
0001
0010
0001
1000
0001
1000
0100
1000
0200
0000
0000
0000
0000
0000
,
1300
0100
0010
0001
1000
0000
0100
0000
1000
0100
0010
0001
1000
0000
0001
0000
,
0010
0100
0010
0001
1000
0000
0001
0000
1000
0001
1000
0001
0100
0001
0100
0001
,
0100
0010
1000
0001
0100
0000
0010
0000
1000
0010
0100
0001
0100
0000
0001
0000
,
0100
0010
1000
0001
0100
0000
0001
0000
1000
0001
1000
0001
1000
0100
1000
0200
,
0020
0000
0000
0330
0022
0000
0000
0033
2002
0000
0000
0000
0000
3003
0001
0100
,
0001
0010
0000
0010
0000
0001
1000
0010
2000
0000
0000
0000
0000
0000
3001
0010
,
0100
0010
0000
0100
0000
0100
1000
0100
0010
0000
0010
0000
0100
0000
0100
0000
,
1000
0010
0000
0100
0000
0100
0001
0000
1000
0000
0001
0010
0100
1000
0100
0010
,
0002
0000
0000
0203
0000
0302
0203
0320
,
2030
3200
2300
0000
0020
0000
0000
3000
,
2030
0000
0000
3020
0000
0230
0302
2003
,
3002
0000
0023
0000
0032
0023
0000
0230
,
2300
0000
0000
3020
0000
0230
0000
0000
,
0320
0230
0302
0000
,
0023
0032
0000
0203
0000
0320
2030
3020
,
0230
0000
0320
0000
2030
3200
0000
0000
,
0320
0000
0000
0230
0000
2300
3200
0320
,
0032
0200
2000
0000
,
3000
0000
0300
0000
,
0003
0000
0000
0000
;

//---------------dance-single - ----------------
#NOTES:
     dance-single:
     :
     Beginner:
     1:
     0.113,0.172,0.000,0.059,0.000,74.000,0.000,6.000,0.000,0.000,0.000,0.113,0.172,0.000,0.059,0.000,74.000,0.000,6.000,0.000,0.000,0.000:
0000
0000
0000
0000
,
0000
0000
0000
0000
,
0000
0000
0000
0000
,
0000
0000
0000
0000
,
0001
0001
0001
0000
,
0000
0000
0000
0000
,
0000
0000
0000
0000
,
0000
0000
0000
0000
,
0200
0000
0000
0000
,
0300
0000
0000
0000
,
0010
0000
0010
0000
,
0010
0000
1000
0000
,
1000
0000
1000
0000
,
0100
0000
0100
0000
,
1000
1000
1000
0000
,
0001
0000
0001
0000
,
0010
0000
0010
0000
,
0100
0000
0100
0000
,
2000
0000
3000
0000
,
0002
0000
0003
0000
,
1000
0000
1000
0000
,
0001
0001
0001
0001
,
0002
0000
0003
0000
,
0001
0000
0000
0000
,
1000
0000
0000
0000
,
0001
0000
0001
0000
,
0001
0000
0000
0000
,
0100
0100
0100
0000
,
0010
0000
0000
0000
,
1000
0000
0000
0000
,
0100
0000
0100
0000
,
0100
0000
0000
0000
,
1000
0000
0000
0000
,
1000
0000
1000
0000
,
1000
0000
0000
0000
,
0001
0001
0001
0000
,
0000
0000
0000
0000
,
0010
0000
0000
0000
,
0020
0000
0000
0030
,
0010
0000
0010
0000
,
0010
0000
0000
0000
,
0100
0000
0100
0000
,
0100
0000
0000
0000
,
1000
1000
1000
0000
,
1000
0000
0000
0000
,
0001
0000
0001
0000
,
0001
0000
0000
0000
,
0100
0000
0000
0000
,
0100
0000
0000
0000
,
0010
0000
0000
0000
,
0010
0000
0000
0000
,
1000
0000
0000
0000
,
1000
0000
0000
0000
,
0010
0000
0000
0000
,
0100
0000
0000
0000
,
0020
0000
0000
0000
,
0000
0000
0000
0000
,
0000
0000
0000
0000
,
0030
0000
0000
0000
;

//---------------dance-single - ----------------
#NOTES:
     dance-single:
     :
     Easy:
     2:
     0.182,0.229,0.010,0.168,0.000,111.000,1.000,17.000,0.000,0.000,0.000,0.182,0.229,0.010,0.168,0.000,111.000,1.000,17.000,0.000,0.000,0.000:
0000
0000
0000
0000
,
0000
0000
0000
0000
,
0000
0000
0000
0000
,
0000
0000
0000
0000
,
1000
1000
1000
0000
,
0100
0000
0100
0000
,
1000
0000
0000
0001
,
0001
0000
0001
0000
,
0200
0000
0000
0000
,
0020
0000
0000
0330
,
0100
0000
0100
0000
,
0010
0000
0010
0000
,
0100
0000
0001
0001
,
0001
0000
1000
0000
,
0100
0100
0100
0000
,
1000
0000
1000
0000
,
0001
0000
0001
0001
,
0001
0000
0010
0000
,
0200
0000
0300
0000
,
0200
0000
0300
0000
,
0200
0300
0200
0300
,
0100
0100
0100
0100
,
0200
0000
0000
1300
,
0100
0000
1000
0000
,
0001
0000
0010
0000
,
0001
0000
1000
1000
,
1000
0000
0100
0000
,
1000
1000
1000
0000
,
0001
0000
0010
0000
,
0001
0000
0100
0100
,
0100
0000
0001
0000
,
1001
0000
0001
0000
,
1000
0000
1000
0000
,
0001
0000
0001
0001
,
0001
0000
0100
0000
,
0010
0010
0010
0000
,
1000
0000
1000
0000
,
0100
0000
0100
0000
,
1000
0000
2000
0000
,
3001
0000
0001
0000
,
1000
0001
1000
0000
,
0001
0000
0100
0000
,
0010
1000
0010
0000
,
0100
0100
0100
0000
,
0010
1000
0010
0000
,
1000
0000
0100
0000
,
0010
0001
1000
0000
,
0200
0000
0000
0000
,
2300
0000
0000
0000
,
3002
0000
0000
0000
,
0023
0000
0000
0000
,
0032
0000
0000
0000
,
0203
0000
0000
0000
,
0320
0000
0000
0000
,
2030
0000
0000
0000
,
3100
0000
1000
0000
,
0001
0010
0200
0000
,
0000
0000
0000
0000
,
0300
0000
0000
0000
;

//---------------dance-single - ----------------
#NOTES:
     dance-single:
     :
     Medium:
     5:
     0.294,0.459,0.326,0.158,0.000,159.000,33.000,16.000,0.000,0.000,0.000,0.294,0.459,0.326,0.158,0.000,159.000,33.000,16.000,0.000,0.000,0.000:
0000
0000
0000
0000
,
0000
0000
0000
0000
,
0000
0000
0000
0000
,
0000
0000
0000
0000
,
1001
1001
1001
0000
,
0100
0100
0100
0000
,
0010
0010
0010
0000
,
1000
0100
1000
0000
,
2002
0000
0000
0000
,
3003
0000
0000
0000
,
0001
1000
0001
0000
,
0100
0010
0100
0000
,
0001
1000
0001
0001
,
0100
0010
0100
0000
,
0110
1001
0210
0000
,
0310
0100
0010
0000
,
0100
0000
0010
0010
,
0100
0010
0100
0000
,
2002
0000
3003
0000
,
0220
0000
0330
0000
,
2002
3003
0220
0330
,
1001
0110
1001
0110
,
2002
0000
0000
3003
,
0001
1000
0100
0000
,
1000
0001
0100
0000
,
0001
1000
0010
0010
,
1000
0001
0010
0000
,
0011
0110
0011
0000
,
0010
0001
0100
0000
,
0010
1000
0100
0100
,
0010
0001
1000
0000
,
0001
1000
1010
0000
,
1000
0001
0011
0000
,
0010
0001
1001
0001
,
0100
0010
1010
0000
,
1100
0110
1100
0000
,
0100
1000
0100
1000
,
0001
1000
0001
1000
,
0001
0000
0100
0000
0001
0100
0000
0000
,
0010
0000
0000
1000
0000
0000
0100
0000
,
1000
0001
0011
0000
,
0010
0000
0000
0001
0000
0000
0100
0000
,
0001
1000
1010
0000
,
0110
1010
1100
0000
,
0100
0010
0100
0000
,
1000
0001
1000
0000
,
0001
0100
0001
0000
,
0100
0000
0000
0100
0000
0000
0010
0000
,
1000
0100
1100
0000
,
0010
0000
0000
0010
0000
0000
0001
0000
,
0100
0001
0101
0000
,
0100
0000
0000
0100
0000
0000
0000
0000
,
0010
1000
0100
0000
,
0010
0010
0000
0001
0000
0000
0100
0000
,
0001
1000
0001
0000
,
0100
0000
0000
0010
0000
1000
0100
1000
,
0100
0010
0002
0000
,
2003
0000
0200
0000
,
3300
0000
0000
0000
;

//---------------dance-single - ----------------
#NOTES:
     dance-single:
     :
     Hard:
     8:
     0.494,0.516,0.138,0.534,0.158,282.000,14.000,54.000,0.000,0.000,0.000,0.494,0.516,0.138,0.534,0.158,282.000,14.000,54.000,0.000,0.000,0.000: // measure 1
0000
0000
0000
0000
,  // measure 2
0000
0000
0000
0000
,  // measure 3
0000
0000
0000
0000
,  // measure 4
0000
0000
0000
0000
,  // measure 5
1001
0110
1001
0000
,  // measure 6
1000
0001
1000
0000
,  // measure 7
0010
0010
0000
0100
0000
0001
1000
0010
,  // measure 8
1000
0000
0100
0000
1000
1000
0000
0000
,  // measure 9
0200
0000
0000
0020
0000
0000
0000
0000
,  // measure 10
0000
0000
0000
0330
,  // measure 11
0100
0000
0000
0100
0000
0000
0100
0000
1000
0000
0000
0000
0001
0000
0010
0000
,  // measure 12
0001
0000
0000
0001
0000
0000
0001
0000
0100
0000
0000
0000
0000
0000
0001
0000
,  // measure 13
1000
0000
0000
1000
0000
0000
1000
0000
0010
0000
0010
0000
1000
0000
1000
0000
,  // measure 14
0100
0000
0000
0100
0000
0000
0100
0000
0010
0000
0000
0000
0000
0000
0001
1000
,  // measure 15
0001
0000
1000
0000
1001
0000
0000
0001
,  // measure 16
1000
0000
0000
1000
0000
0000
1000
0000
0010
0000
0000
0000
0000
0000
1000
0000
,  // measure 17
0001
0000
0000
0001
0000
0000
0001
0000
0100
0000
0100
0000
0010
0000
0010
0000
,  // measure 18
1000
0000
0000
1000
0000
0000
1000
0000
0001
0000
0000
0000
0000
0000
0000
0000
,  // measure 19
0010
0000
0000
0010
0000
0000
0010
0000
0001
0000
0000
0000
0100
0000
0100
0000
,  // measure 20
0001
0000
0000
0001
0000
0000
0001
0000
1000
0000
0000
0000
0010
0000
0010
0000
,  // measure 21
1000
0000
0000
1000
0000
0000
1000
0000
0100
0000
0000
0100
0000
0000
0100
0000
,  // measure 22
1000
0001
0000
0000
0001
1000
0000
0000
0001
0100
0001
0000
0100
0010
0200
0000
,  // measure 23
0020
0000
0000
0000
0000
0000
0000
0000
0000
0000
0000
0000
0000
0000
0300
0030
,  // measure 24
0010
0000
0000
0010
0000
0000
0010
0000
1000
0000
0000
0000
0100
0000
0100
0000
,  // measure 25
1000
0000
0000
1000
0000
0000
1000
0000
0001
0000
0000
0000
0000
0000
0000
0000
,  // measure 26
0010
0000
0010
0010
0001
0001
0100
0100
,  // measure 27
0001
0000
0000
0001
0000
0000
0001
0000
1000
0000
0000
0000
0000
0000
0001
0100
,  // measure 28
0001
0000
0100
0000
0101
0000
0000
0001
,  // measure 29
1000
0000
0000
1000
0000
0000
1000
0000
0100
0000
0000
0000
0000
0000
0000
0000
,  // measure 30
0010
0000
0010
0010
0001
0001
1000
1000
,  // measure 31
0010
0000
0000
0010
0000
0000
1000
0000
1000
0000
0001
0100
0001
0000
0100
0000
,  // measure 32
0001
0000
0000
0001
0000
0000
0001
0000
0011
0000
0000
0000
0010
0000
0100
0000
,  // measure 33
1000
0000
0000
1000
0000
0000
1000
0000
1100
0000
0000
0000
0000
0000
0000
0000
,  // measure 34
0100
0000
0000
0100
0000
0000
0100
0000
0010
0000
0010
0000
0001
0000
0001
0000
,  // measure 35
0100
0000
0000
0100
0000
0000
0100
0000
0110
0000
0000
0000
0000
0000
0000
0000
,  // measure 36
1010
0000
0110
0000
0101
0100
0010
1000
,  // measure 37
0010
0100
0001
0100
0010
1000
0001
0100
,  // measure 38
0001
1000
0001
0010
0001
1000
0001
0010
,  // measure 39
0100
0000
1000
0000
0100
0000
0010
0000
0001
0100
0002
0000
0000
0000
0000
0000
,  // measure 40
0103
0001
1000
0010
1000
0100
0010
0001
,  // measure 41
0010
0001
0010
0000
0100
0000
0000
0000
1000
0100
1000
0000
0001
0000
0000
0000
,  // measure 42
1000
0010
0100
0001
0100
0010
1000
0100
,  // measure 43
0010
0001
0010
0000
0100
0000
0000
0000
0010
0001
0010
0000
0100
0000
0000
0000
,  // measure 44
1100
0110
0012
0000
,  // measure 45
0023
0032
0203
0000
,  // measure 46
0301
1000
0000
0001
0000
0100
0010
1000
,  // measure 47
0010
0000
0100
0000
0001
0010
0001
0100
,  // measure 48
0002
0000
0000
2003
0000
3200
2300
3020
,  // measure 49
0032
0023
0230
0000
0320
0000
0000
0000
,  // measure 50
0230
0000
0000
0302
0000
2003
3200
0320
,  // measure 51
0230
0000
0302
0000
0203
2300
0000
3200
,  // measure 52
0320
0000
0000
0032
0000
0023
0000
0000
,  // measure 53
0230
0320
2030
0000
,  // measure 54
3020
0230
0000
2300
0000
3020
0032
0023
,  // measure 55
2030
3000
0002
0000
0203
2300
0000
0000
,  // measure 56
3200
0000
0000
0320
0000
0032
2003
3002
,  // measure 57
0203
0000
0020
0300
0200
0000
0000
0030
,  // measure 58
0020
0000
0000
0300
0200
0000
0000
0000
,  // measure 59
0330
0000
0000
0000
;
