#VERSION:0.81;
#TITLE:紅蓮の焔 ;
#SUBTITLE:;
#ARTIST:劇団レコード feat. 浅葉リオ;
#TITLETRANSLIT:Guren No Honoo;
#SUBTITLETRANSLIT:;
#ARTISTTRANSLIT:Gekidan Record Feat. Asaba Rio;
#GENRE:;
#ORIGIN:;
#CREDIT:;
#BANNER:Guren No Honoo.png;
#BACKGROUND:Guren No Honoo-bg.png;
#PREVIEWVID:;
#JACKET:Guren No Honoo-jacket.png;
#CDIMAGE:;
#DISCIMAGE:;
#LYRICSPATH:;
#CDTITLE:;
#MUSIC:紅蓮の焔 ~原題紅蓮心中~.mp3;
#OFFSET:-0.060000;
#SAMPLESTART:58.779823;
#SAMPLELENGTH:12.000000;
#SELECTABLE:YES;
#BPMS:0.000=155.000;
#STOPS:155.000=0.387,
158.000=0.387,
161.000=0.387,
164.000=1.161,
165.000=0.197,
165.500=0.197,
166.000=0.197,
167.500=0.197,
168.000=0.197,
168.500=0.197,
170.000=0.387,
173.000=1.161;
#DELAYS:;
#WARPS:;
#TIMESIGNATURES:0.000=4=4;
#TICKCOUNTS:0.000=4;
#COMBOS:0.000=1;
#SPEEDS:0.000=1.000=0.000=0;
#SCROLLS:0.000=1.000;
#FAKES:;
#LABELS:0.000=Song Start;
#BGCHANGES:;
#KEYSOUNDS:;
#ATTACKS:
;

//---------------dance-single - ----------------
#NOTEDATA:;
#CHARTNAME:;
#STEPSTYPE:dance-single;
#DESCRIPTION:;
#CHARTSTYLE:;
#DIFFICULTY:Hard;
#METER:9;
#RADARVALUES:0.561776,0.610382,0.316304,0.290658,0.179524,389.000000,37.000000,34.000000,0.000000,0.000000,0.000000,0.000000,0.000000,0.561776,0.610382,0.316304,0.290658,0.179524,389.000000,37.000000,34.000000,0.000000,0.000000,0.000000,0.000000,0.000000;
#CREDIT:;
#NOTES:
// measure 0
0000
0000
0000
0000
,  // measure 1
0000
0000
0000
0000
,  // measure 2
0000
0000
0000
0000
,  // measure 3
0000
0000
0000
0000
,  // measure 4
0000
0000
0000
0000
,  // measure 5
0000
0000
0000
0000
,  // measure 6
0000
0000
0000
0000
,  // measure 7
0000
0000
0000
0000
,  // measure 8
0000
0000
0000
0000
,  // measure 9
0000
0000
0000
0000
,  // measure 10
1000
1000
1000
1002
,  // measure 11
0000
0013
0200
0000
1300
0000
2001
0000
,  // measure 12
0000
3010
0200
0000
0301
0000
2002
0000
,  // measure 13
3003
0000
0001
1000
0001
0000
0010
0000
1000
0000
0010
0000
0002
0000
0000
0000
,  // measure 14
0003
0000
1000
0001
1000
0000
0010
0000
0001
0000
0010
0000
2000
0000
0000
0000
,  // measure 15
3000
0000
0100
0010
0100
0000
0010
0000
0001
0000
1000
0000
2002
0000
0000
0000
,  // measure 16
3003
0000
0001
1000
0001
0000
0000
0000
1001
0000
0000
0000
0001
0000
0100
0001
,  // measure 17
0100
0000
0001
0000
1000
0000
0100
1000
0100
0000
1000
0000
0001
0000
1000
0001
,  // measure 18
1000
0001
1001
0000
0000
0000
0000
0000
,  // measure 19
2100
0000
3010
0000
0110
0110
0000
0000
,  // measure 20
0102
0000
0013
0000
0110
0110
0000
0010
,  // measure 21
0001
0100
0010
1000
0010
0100
0000
0100
,  // measure 22
0001
0010
0100
0010
0001
0100
0000
0100
,  // measure 23
0010
1000
0100
0001
0100
1000
0020
0000
,  // measure 24
0130
0000
0200
0000
0310
0000
0000
0010
,  // measure 25
1000
0100
0010
0001
0010
0100
0000
0100
,  // measure 26
1000
0010
0100
0010
1000
0100
0000
0100
,  // measure 27
0010
0001
0100
1000
0100
0001
0010
0100
,  // measure 28
1000
0001
1001
0000
0000
0000
0000
0000
,  // measure 29
1001
0000
0110
0000
1001
0000
0001
0100
,  // measure 30
1000
0100
0010
1000
0100
0001
0100
0100
,  // measure 31
1000
1000
0010
0010
0001
0100
1000
0010
,  // measure 32
0001
0010
0100
0001
0010
1000
0010
0010
,  // measure 33
0001
0001
0100
0100
1000
0010
0001
0100
,  // measure 34
1000
0100
0001
0010
0100
1000
0001
0001
,  // measure 35
1000
0000
0000
0000
0000
0000
1000
0000
0000
0000
0000
0000
1001
0000
0000
0000
0000
0000
0000
0000
0000
0000
0000
0000
0001
0000
0000
0000
0010
0000
0000
0000
0100
0000
0000
0000
1000
0000
0000
0000
0000
0000
0000
0000
0000
1000
0000
0000
,  // measure 36
0010
0000
0100
0000
0001
0000
0000
0001
0100
0000
0010
0000
1000
0000
0100
0000
,  // measure 37
0001
0100
1000
0010
0001
0010
1000
0000
,  // measure 38
1100
0000
0000
0000
0110
0000
0000
0000
0011
0000
0000
0000
1001
0000
0001
0100
,  // measure 39
0010
0000
0200
0000
0300
0000
0010
1000
0001
0000
1000
0001
1000
0000
0000
0000
,  // measure 40
0000
0000
0000
0000
1001
0000
1000
0100
0010
0000
0200
0000
0300
0000
0010
0001
,  // measure 41
1000
0000
1001
1100
0110
0011
0001
1001
,  // measure 42
0101
0000
0110
0000
1010
0000
1000
0000
1001
0000
0001
0010
0100
0000
0020
0000
,  // measure 43
0030
0000
0100
1000
0001
0000
0000
0000
1000
0000
0000
1000
0010
0000
1000
0000
,  // measure 44
0000
1000
0100
0000
0010
0000
0100
0000
1000
0000
0010
0100
0010
0000
0100
0000
,  // measure 45
0001
0000
0010
0000
1000
0000
0010
0000
0001
0000
0000
0001
0100
0000
0001
0000
,  // measure 46
0000
0001
0010
0000
0100
0000
0010
0000
0001
0000
0100
0010
0100
0000
0010
0000
,  // measure 47
1000
0000
0100
0000
0001
0000
0100
0000
1000
0000
0000
1000
0010
0000
0100
0000
,  // measure 48
0001
0000
0000
0100
0000
0000
0010
0000
1000
0000
0000
1000
0100
0000
0000
0100
,  // measure 49
0010
0000
0000
0010
0001
0000
0000
0001
0010
0000
0100
0000
0100
0000
1000
0000
,  // measure 50
0010
0010
0200
0020
0000
0000
0000
0000
,  // measure 51
0330
0000
0000
0000
2010
0000
0100
3200
,  // measure 52
0000
0010
0320
0000
0200
0030
1000
2300
,  // measure 53
0000
0000
0001
0000
3001
0000
0000
0000
0001
0000
0100
0000
0010
0100
0010
0000
,  // measure 54
0100
0000
0010
0000
1000
0000
0100
0000
0001
0000
0100
1000
0100
0000
1000
0000
,  // measure 55
1001
0000
0000
0000
0102
0100
0000
0013
,  // measure 56
0020
0100
0130
0000
2100
0100
0000
3010
,  // measure 57
0020
0000
0100
0000
0130
0000
0001
0000
0010
0100
0010
0000
0100
0000
1000
0001
,  // measure 58
1000
0001
1000
0000
0010
0000
0100
0010
0100
0000
0001
0000
1000
0000
0001
0000
,  // measure 59
1001
0000
0000
0000
0000
0000
0000
0000
1000
0000
0010
1000
0010
0000
1000
0000
,  // measure 60
0100
0000
0100
0000
0010
0000
0001
0000
1000
0000
0001
1000
0001
0000
1001
0000
,  // measure 61
0000
0001
1000
1000
0001
0010
1000
0010
,  // measure 62
0001
0000
0100
0000
1000
0000
0100
0000
0001
0000
0010
0100
0010
0000
0100
0010
,  // measure 63
0100
0000
1000
0001
1000
0000
0001
1000
0002
0000
0000
0000
0013
0000
0020
0000
,  // measure 64
0000
0031
0100
0010
2000
0000
3100
0200
,  // measure 65
0000
1300
0010
0100
0001
0001
0010
0100
,  // measure 66
0100
1000
0002
2000
0000
0000
0000
0000
,  // measure 67
0000
0000
0000
0000
,  // measure 68
3003
0000
0000
0000
;

//---------------dance-single - ----------------
#NOTEDATA:;
#CHARTNAME:;
#STEPSTYPE:dance-single;
#DESCRIPTION:;
#CHARTSTYLE:;
#DIFFICULTY:Medium;
#METER:5;
#RADARVALUES:0.354163,0.435987,0.265012,0.094036,0.004274,248.000000,31.000000,11.000000,0.000000,0.000000,0.000000,0.000000,0.000000,0.354163,0.435987,0.265012,0.094036,0.004274,248.000000,31.000000,11.000000,0.000000,0.000000,0.000000,0.000000,0.000000;
#CREDIT:;
#NOTES:
0000
0000
0000
0000
,
0000
0000
0000
0000
,
0000
0000
0000
0000
,
0000
0000
0000
0000
,
0000
0000
0000
0000
,
0000
0000
0000
0000
,
0000
0000
0000
0000
,
0000
0000
0000
0000
,
0000
0000
0000
0000
,
0000
0000
0000
0000
,
0001
0001
0001
0002
,
0000
0103
0010
2000
,
0000
3100
0010
0002
,
0000
1003
0100
0001
,
0000
0001
0100
1000
,
0000
0001
0100
1000
,
0000
1000
0100
0001
,
0010
0100
1000
0001
,
0100
0010
1000
1001
,
0000
0110
0000
1001
,
0000
0110
0000
1001
,
0001
0100
0010
0000
,
0010
0100
0001
0000
,
0001
0010
0100
1000
,
1000
0001
0001
0000
,
1000
0010
0100
0000
,
0100
0010
1000
0000
,
1000
0100
0010
0001
,
0001
1000
1000
1001
,
1001
0000
1001
0000
1001
0000
0001
0100
,
0010
0000
0100
0010
1000
0000
1000
0100
,
0001
0100
1000
0010
0001
0010
1000
0100
,
0010
0000
0100
0010
0001
0000
0001
0100
,
1000
0100
0001
0010
1000
0010
0001
0100
,
0010
0000
0100
0010
1000
0000
0010
0010
,
0100
0100
0110
0000
0100
0001
0010
0000
,
0100
1000
0010
0000
0110
0000
0100
0001
,
0100
0010
1000
0100
0010
0100
1000
0000
,
0001
0001
0001
0001
,
0100
0000
0110
0100
,
0000
0010
1000
0000
,
1001
0000
1001
1100
0110
0010
0100
0110
,
0011
1001
0001
1000
1001
0000
0110
0000
,
0000
1001
0001
0100
,
0000
0001
0000
0100
,
0010
0010
1000
0100
,
0000
1000
0000
0100
,
0010
0001
1001
0000
,
1000
0000
0000
0010
0000
0000
0100
0000
0001
0000
0000
0000
0100
0000
0000
0000
,
0010
0000
1000
0000
0001
0010
0010
0100
,
1000
1000
0001
2002
0000
0000
0000
0000
,
0000
0000
3003
0000
1000
0000
0000
0010
,
0000
0000
0100
0000
0001
0000
0000
0100
,
0000
0000
0010
0000
1000
0100
0001
0000
,
0001
0100
1000
0010
0100
0000
0100
0001
,
1001
0000
0000
0000
0001
0010
0000
0100
,
1000
0000
1001
0000
1000
0010
0000
0100
,
0001
0000
1001
0000
0001
0100
0010
0000
,
0100
0010
1000
0000
1000
0100
0001
0100
,
1000
0000
0000
0000
0001
0100
0010
0100
,
0001
0000
0010
0100
1000
0010
1000
0010
,
0000
0010
1000
1000
0100
0010
0100
0010
,
0001
1000
0001
1000
0002
0000
0203
0000
,
2300
0000
3020
0000
0031
0000
1000
0010
,
0000
0100
0001
0000
1000
0000
0001
0010
,
0000
0100
1000
0000
1001
0000
0000
0110
,
0000
0000
1001
2002
0000
0000
0000
0000
,
0000
0000
0000
0000
,
3003
0000
0000
0000
;

//---------------dance-single - ----------------
#NOTEDATA:;
#CHARTNAME:;
#STEPSTYPE:dance-single;
#DESCRIPTION:;
#CHARTSTYLE:;
#DIFFICULTY:Easy;
#METER:3;
#RADARVALUES:0.225932,0.369520,0.213719,0.000000,0.000000,160.000000,25.000000,0.000000,0.000000,0.000000,0.000000,0.000000,0.000000,0.225932,0.369520,0.213719,0.000000,0.000000,160.000000,25.000000,0.000000,0.000000,0.000000,0.000000,0.000000,0.000000;
#CREDIT:;
#NOTES:
0000
0000
0000
0000
,
0000
0000
0000
0000
,
0000
0000
0000
0000
,
0000
0000
0000
0000
,
0000
0000
0000
0000
,
0000
0000
0000
0000
,
0000
0000
0000
0000
,
0000
0000
0000
0000
,
0000
0000
0000
0000
,
0000
0000
0000
0000
,
0001
0001
0001
0001
,
0000
0010
0100
1000
,
0000
0010
0100
0001
,
0000
0010
0100
1000
,
0000
0100
0010
0001
,
0000
0010
0100
1000
,
0000
0001
1001
1000
,
0010
0100
0001
0100
,
0010
1000
0000
0001
,
0000
0100
0000
0010
,
0000
1000
0000
0001
,
0000
0001
0000
1000
,
0000
1000
0000
0001
,
0000
0001
0000
0010
,
0000
0100
0000
1000
,
0000
1000
0000
0001
,
0000
0001
0000
1000
,
0000
1000
0000
0010
,
0000
0100
0000
0001
,
0001
0001
0001
0010
,
0100
1000
0100
0010
,
0001
1000
1001
1000
,
0010
0100
0001
0100
,
0010
1000
1001
1000
,
0100
0001
0100
1000
,
0010
0100
0001
0001
,
0000
0010
0000
0100
,
0000
1000
0000
1001
,
0001
0001
0001
1001
,
1000
0000
1001
0001
,
0000
1001
1000
0000
,
1001
0000
0110
1001
0110
0000
0000
1001
,
0110
1001
0000
0000
1001
0000
0110
0000
,
0000
1001
0001
0000
,
0001
0000
0100
0010
,
0100
0010
1000
0000
,
1000
0000
0100
0010
,
0100
0010
0001
0000
,
1000
0000
0001
1000
,
0001
1000
1001
0000
,
0110
0000
1001
0000
,
0000
0000
0001
0000
,
0010
0000
0100
0000
,
1000
0000
0001
1000
,
0001
1000
0001
1000
,
0001
0000
1000
0000
,
0010
0000
1000
0000
,
0100
0000
1000
0010
,
1000
0100
1000
0010
,
0100
0000
0001
0000
,
0010
0000
0001
0000
,
0100
0000
0001
0010
,
0001
0100
0001
0010
,
0100
1000
1001
0000
,
0000
0000
0110
0000
,
0000
0000
1001
0000
,
0110
0000
1001
0000
;
