#VERSION:0.81;
#TITLE:Come & Get It;
#SUBTITLE:;
#ARTIST:Krewella;
#TITLETRANSLIT:;
#SUBTITLETRANSLIT:;
#ARTISTTRANSLIT:;
#GENRE:;
#ORIGIN:;
#CREDIT:;
#BANNER:[Qualifier Singles] - Come and Get It.png;
#BACKGROUND:[Qualifier Singles] - Come and Get It-bg.png;
#PREVIEWVID:;
#JACKET:[Qualifier Singles] - Come and Get It-jacket.png;
#CDIMAGE:;
#DISCIMAGE:;
#LYRICSPATH:;
#CDTITLE:;
#MUSIC:[Qualifier Singles] - Come and Get It.ogg;
#OFFSET:-1.421;
#SAMPLESTART:33.845;
#SAMPLELENGTH:13.103;
#SELECTABLE:YES;
#DISPLAYBPM:87.000:174.000;
#BPMS:0.000=87.000,
16.000=174.000,
78.000=348.000,
79.000=174.000,
109.000=348.000,
110.000=174.000,
171.000=348.000,
172.000=174.000,
202.000=87.000,
203.000=174.000,
227.000=87.000;
#STOPS:78.000=0.517,
109.000=0.517,
158.000=0.172,
159.500=0.172,
171.000=0.517;
#DELAYS:;
#WARPS:;
#TIMESIGNATURES:0.000=4=4,
76.000=3=4,
79.000=4=4,
107.000=3=4,
110.000=4=4,
158.000=3=4,
161.000=4=4,
169.000=3=4,
172.000=4=4,
200.000=3=4,
203.000=4=4;
#TICKCOUNTS:0.000=4;
#COMBOS:0.000=1;
#SPEEDS:0.000=1.000=0.000=0;
#SCROLLS:0.000=1.000;
#FAKES:;
#LABELS:0.000=Song Start;
#BGCHANGES:;
#KEYSOUNDS:;
#ATTACKS:
;

//---------------dance-single - ----------------
#NOTEDATA:;
#CHARTNAME:;
#STEPSTYPE:dance-single;
#DESCRIPTION:;
#CHARTSTYLE:;
#DIFFICULTY:Medium;
#METER:6;
#RADARVALUES:0.481,0.512,0.173,0.557,0.014,275.000,18.000,58.000,0.000,0.000,0.000,0.000,0.000,0.481,0.512,0.173,0.557,0.014,275.000,18.000,58.000,0.000,0.000,0.000,0.000,0.000;
#CREDIT:;
#DISPLAYBPM:87.000:174.000;
#NOTES:
0000
0000
0000
0000
,
0000
0000
0000
0000
,
0000
0000
0000
0000
,
0000
0000
0000
0000
,
0001
0000
1001
0000
0000
1000
0001
0000
,
0100
0000
0101
0000
0000
0000
0001
0100
,
0010
0000
0000
1000
0010
0000
0000
1000
,
0001
0000
0000
0000
1000
0100
0010
0001
,
1000
0000
1001
0000
0000
0001
1000
0000
,
0100
0000
0110
0000
0000
0010
0001
0100
,
0010
0000
0000
1000
0010
0000
0000
1000
,
0001
0000
0010
0000
0100
1000
0010
0100
,
0002
0000
2003
0000
,
3200
0000
0320
0031
,
0100
0000
1000
0000
0100
0000
0001
1000
,
0100
0000
0001
0000
0100
0000
1000
0001
,
0200
0000
0320
0000
,
2030
0000
0001
0001
,
3002
0023
0230
1300
,
0001
0100
0010
1000
0001
0000
1000
0000
,
0010
0000
0001
0010
1000
0000
0001
0000
,
0010
0000
1000
0010
0001
0000
0100
0000
,
0010
0000
1000
0001
0010
0000
2000
0000
,
3002
0203
2300
3001
,
0100
0000
1000
0100
0001
0000
1000
0000
,
0100
0000
0001
0100
1000
0000
0010
0000
,
0100
0001
1000
1001
,
1001
1001
2000
3100
,
0010
0000
0001
0010
0001
0000
0100
0000
,
1000
0000
0100
0001
0100
0000
0001
0000
,
1000
0000
0100
0010
0200
0000
2300
0000
,
3020
0000
0230
0000
0302
0000
0103
1000
,
0100
0000
0001
0000
1000
0000
0100
0001
,
0100
1000
0020
0230
,
0302
2003
3001
1000
,
0100
0010
0100
1000
1002
0000
0010
0000
,
0100
0000
1000
1000
1000
0000
0010
0000
,
2000
3003
2001
0010
,
0100
0000
0000
0000
0001
0000
0000
0000
0100
0000
0000
0100
0000
0000
0100
0000
,
0020
0000
3030
0000
0010
0100
0001
1000
,
0001
1000
0200
0000
0320
0000
0031
0010
,
0001
1000
0010
0001
1000
0100
0001
0010
,
1000
0001
0200
0000
2300
0000
3001
0000
,
0001
0000
0002
0100
0000
0100
0000
0103
,
0010
1000
0010
1000
0001
1000
0001
1000
,
0100
0000
0200
0010
0000
0310
0001
1000
,
0010
0100
0001
2000
0000
0100
0100
0100
,
3100
0000
0200
0010
0000
0010
0000
0310
,
0001
1000
0001
0100
0001
0010
0001
1000
,
0002
0203
0320
2030
,
3002
0000
0000
0000
2003
0000
0000
0000
3001
1000
0001
1000
0002
0000
0000
0000
,
0013
0100
1000
0000
1100
0000
1001
0000
,
1000
0001
0100
0000
0101
0000
0110
0000
,
0100
0010
1000
0000
1010
0000
2001
0000
,
3002
2003
3002
2003
,
3010
0100
0001
0000
0101
0000
1001
0000
,
1000
0100
0010
0000
0110
0000
0020
0000
,
0032
0000
0203
0000
0010
0010
0320
0000
,
0000
0000
0000
0000
1000
1000
2030
0000
,
0000
3002
0000
0023
,
0000
0000
0000
0000
0100
0100
0230
0000
,
1000
2300
0001
0002
,
0000
0000
0000
3003
;

//---------------dance-single - ----------------
#NOTEDATA:;
#CHARTNAME:;
#STEPSTYPE:dance-single;
#DESCRIPTION:;
#CHARTSTYLE:;
#DIFFICULTY:Easy;
#METER:4;
#RADARVALUES:0.295,0.391,0.077,0.192,0.000,187.000,8.000,20.000,0.000,0.000,0.000,0.000,0.000,0.295,0.391,0.077,0.192,0.000,187.000,8.000,20.000,0.000,0.000,0.000,0.000,0.000;
#CREDIT:;
#DISPLAYBPM:87.000:174.000;
#NOTES:
0000
0000
0000
0000
,
0000
0000
0000
0000
,
0000
0000
0000
0000
,
0000
0000
0000
0000
,
1000
0010
0000
0010
,
0100
0001
0000
0001
,
1000
0000
0001
0000
,
1000
0000
0100
0001
,
0100
1000
0000
1000
,
0001
0100
0000
0100
,
0010
0000
1000
0000
,
0001
0100
0010
1000
,
0100
0000
0100
0000
,
0100
0000
0010
0010
,
0001
0000
0001
0000
,
0001
0000
1000
1000
,
0010
0000
0010
0000
,
0010
0000
0100
0100
,
0001
0001
1000
1000
,
0001
1000
1001
0001
,
0000
0001
0000
0100
,
0000
0010
0010
0010
,
0000
1000
0000
0100
,
0100
0010
0010
0001
,
0001
0001
0000
1000
,
0000
0010
0010
0010
,
0100
0001
1000
0100
,
0010
0110
0010
0001
,
1000
0010
0010
0100
,
0001
1000
1000
0100
,
0001
0100
1000
1000
,
0001
0001
0100
0010
,
1000
0001
0001
0010
,
1000
0010
0001
0001
,
1000
1000
0001
1000
,
0001
1000
2001
0001
,
0001
0001
0001
0001
,
3001
0000
1002
1000
,
1000
1000
1000
1000
,
1003
0000
0000
0000
1100
0000
0000
0011
,
0000
1010
0000
0101
,
0000
0001
0100
0010
,
1000
0100
0010
0001
,
1000
0000
0010
0010
,
0100
0100
0001
0001
,
0010
0000
0100
0100
,
1000
0010
0001
0010
,
1000
0000
0001
0001
,
0010
1000
0010
0001
,
1000
1000
0010
0010
,
0100
0001
1000
0002
,
0010
0100
0010
0023
,
1000
0001
0100
0230
,
1000
0001
1000
2300
,
3020
0230
0302
2003
,
0100
0010
0001
3002
,
0010
0100
0100
2003
,
0000
3020
0000
0230
,
0000
0000
0000
0302
,
0000
0023
0000
0230
,
0000
0000
0000
2300
,
0000
3002
0000
2003
,
0000
0000
0000
3000
;

//---------------dance-single - ----------------
#NOTEDATA:;
#CHARTNAME:;
#STEPSTYPE:dance-single;
#DESCRIPTION:;
#CHARTSTYLE:;
#DIFFICULTY:Beginner;
#METER:2;
#RADARVALUES:0.134,0.178,0.029,0.000,0.000,95.000,3.000,0.000,0.000,0.000,0.000,0.000,0.000,0.134,0.178,0.029,0.000,0.000,95.000,3.000,0.000,0.000,0.000,0.000,0.000,0.000;
#CREDIT:;
#DISPLAYBPM:87.000:174.000;
#NOTES:
0000
0000
0000
0000
,
0000
0000
0000
0000
,
0000
0000
0000
0000
,
0000
0000
0000
0000
,
0000
0000
0000
0000
,
0000
0000
0000
0000
,
0000
0000
0000
0000
,
0000
0000
0000
0000
,
0000
0000
0000
0000
,
0000
0000
0000
0000
,
0000
0000
0000
0000
,
0000
0000
0000
0000
,
0001
0000
0001
0000
,
0001
0000
1000
1000
,
1000
0000
1000
0000
,
1000
0000
0010
0010
,
0010
0000
0010
0000
,
0010
0000
0100
0100
,
0100
0000
0001
0000
,
1000
1000
1000
0001
,
0000
0000
0000
0100
,
0000
0000
0000
0010
,
0000
0000
0000
1000
,
0000
1000
0000
0001
,
0000
0000
0000
0010
,
0000
0000
0000
0100
,
0000
0100
0000
1000
,
0000
0001
1000
0000
,
0000
0010
0010
0000
,
0000
0100
0100
0000
,
0000
0001
0001
0000
,
1000
0000
0100
0000
,
0000
0010
0010
0000
,
0000
0001
0001
0000
,
1000
0000
0001
0000
,
1001
0000
1001
0000
,
0000
0000
0000
0000
,
0000
0000
0110
0000
,
0000
0000
0000
0000
,
0000
0000
0000
0000
0001
0000
0000
1000
,
0000
0001
0000
1000
,
0000
0100
0010
0100
,
0010
0001
1000
0001
,
0100
0000
0000
0000
,
0010
0010
0010
0000
,
1000
0000
0000
0000
,
0100
0100
0100
0100
,
0100
0000
0000
0000
,
0010
0000
0010
0000
,
0001
0000
1000
0000
,
0010
0000
0100
0001
,
0000
0000
1000
1000
,
0000
0000
0100
0100
,
0000
0000
0000
0010
,
0000
0001
0000
1000
,
0000
0000
0001
0001
,
0000
0000
0000
0100
,
0000
0010
0000
1000
,
0000
0000
0000
0001
,
0000
0010
0000
0100
,
0000
0000
0000
1000
,
0000
0010
0000
0100
;

//---------------dance-single - ----------------
#NOTEDATA:;
#CHARTNAME:;
#STEPSTYPE:dance-single;
#DESCRIPTION:;
#CHARTSTYLE:;
#DIFFICULTY:Hard;
#METER:9;
#RADARVALUES:0.666,0.783,0.403,0.461,0.134,396.000,42.000,48.000,0.000,0.000,0.000,0.000,0.000,0.666,0.783,0.403,0.461,0.134,396.000,42.000,48.000,0.000,0.000,0.000,0.000,0.000;
#CREDIT:;
#DISPLAYBPM:87.000:174.000;
#NOTES:
// measure 0
0000
0000
0000
0000
,  // measure 1
0000
0000
0000
0000
,  // measure 2
0000
0000
0000
0000
,  // measure 3
0000
0000
0000
0000
,  // measure 4
1000
0000
1010
0000
0010
0100
0110
0000
,  // measure 5
0100
0001
0010
0001
0010
0100
1000
0001
,  // measure 6
0100
0000
0101
0001
1000
0000
1001
1000
,  // measure 7
0100
0000
1100
0000
0100
0001
0100
1000
,  // measure 8
0001
0000
1001
0000
0001
1000
1001
0000
,  // measure 9
0001
0100
1000
0100
0001
0010
0100
1000
,  // measure 10
0001
0000
0101
0100
0010
0000
0110
0010
,  // measure 11
1000
0000
1000
0000
0001
0000
0001
0000
0010
0100
0010
0100
1000
0001
1000
0001
,  // measure 12
0200
0010
0320
1000
,  // measure 13
2030
0001
3002
0010
,  // measure 14
0023
0000
0000
0000
0230
0000
0000
0000
1300
0000
0001
0000
0100
0000
0001
1000
,  // measure 15
0200
0000
0320
0000
0031
0100
0010
0100
,  // measure 16
0002
0010
2003
0010
,  // measure 17
3002
0100
2003
0100
,  // measure 18
3001
0001
0100
0100
0010
0010
1000
1000
,  // measure 19
0100
0010
0100
0010
0001
1000
0001
1000
0020
0000
0030
0000
0100
0000
0000
0000
,  // measure 20
0101
0000
0001
1000
1001
0000
1000
0100
,  // measure 21
0001
0100
1000
0010
0001
0010
1000
0000
,  // measure 22
1010
0000
1000
0001
1001
0000
0001
0010
,  // measure 23
1000
0000
0010
0000
1000
0000
0001
0000
0100
0000
1000
0001
0100
0000
0000
0000
,  // measure 24
0110
0000
0001
1000
1001
0000
1000
0100
,  // measure 25
0001
0100
1000
0010
0001
0010
2000
0000
,  // measure 26
3200
0000
0000
0000
0320
0000
0000
0000
0032
0000
0000
0000
1003
0010
1000
0001
,  // measure 27
0010
0001
0010
0100
2000
0000
3000
0000
0002
0000
0000
0000
0013
0000
1000
0000
,  // measure 28
0010
0001
1000
1000
0010
0001
0010
1000
,  // measure 29
0100
0100
0010
0010
0001
0100
0010
1000
,  // measure 30
0001
0001
1000
1000
0100
0001
1000
0010
,  // measure 31
0001
0100
1000
0001
0020
0000
1030
0010
,  // measure 32
1000
0001
0010
0010
1000
0001
0100
1000
,  // measure 33
0010
0001
1000
0100
0002
0000
2003
0000
,  // measure 34
3100
0000
0000
0100
0000
0000
0100
0000
0100
0010
0000
0010
0001
0000
0001
0000
,  // measure 35
1000
1000
1001
1001
2001
0000
0010
0000
,  // measure 36
0100
0000
0001
0001
0001
0000
0010
0000
,  // measure 37
0001
0001
3001
0000
1002
0000
0010
0000
,  // measure 38
0100
0000
0000
0000
1000
0000
1000
0000
0100
0000
0000
0100
0000
0000
0100
0000
,  // measure 39
0010
0000
0000
0010
0000
0000
0010
0000
1003
0000
1010
0000
1000
0000
0001
0000
,  // measure 40
1001
0001
0010
0010
1000
1000
0001
0100
,  // measure 41
1000
0010
0001
0001
1000
1000
0100
0100
,  // measure 42
0001
0000
0001
0000
1000
0100
0010
0001
0100
0010
1000
0001
0020
0000
0030
0000
,  // measure 43
0110
0000
0100
0000
1000
0000
2001
0000
3010
0000
2001
0000
3010
0000
1000
0001
,  // measure 44
1000
1000
0100
0100
0001
1000
0010
0001
,  // measure 45
1001
1000
0010
0120
1030
0120
1030
0110
,  // measure 46
0110
0100
0101
0001
0011
0010
0110
0100
,  // measure 47
1100
0000
1000
0000
0001
0000
0201
0000
0310
0000
0201
0000
0310
0000
0100
0010
,  // measure 48
1000
1000
0001
0001
0100
1000
0100
0001
,  // measure 49
0020
0000
0230
0000
1300
0001
1000
0001
,  // measure 50
0100
0000
0000
0100
0000
0000
0100
0000
0010
0010
0010
0010
2000
0000
0000
0000
,  // measure 51
3010
0001
0010
1000
0001
0001
0001
0010
,  // measure 52
1000
0001
0100
1000
1000
1000
1000
0010
,  // measure 53
0100
0001
0001
0001
0001
0001
1000
1000
,  // measure 54
0010
0010
0001
0001
0010
0010
2000
0000
,  // measure 55
3100
0001
0100
1000
0010
0010
0010
0001
,  // measure 56
1000
0100
0001
0001
0010
0010
0200
0000
,  // measure 57
2300
0000
3020
0000
0130
0001
2002
0000
,  // measure 58
0000
0000
3003
0000
1000
0100
0120
0000
,  // measure 59
0031
0012
1003
2002
,  // measure 60
0000
0000
3003
0000
0001
0100
0210
0000
,  // measure 61
0310
1020
1030
2002
,  // measure 62
0000
0000
0000
3003
;
