#VERSION:0.81;
#TITLE:ボイル;
#SUBTITLE:;
#ARTIST:サカナクション;
#TITLETRANSLIT:Boil;
#SUBTITLETRANSLIT:;
#ARTISTTRANSLIT:sakanaction;
#GENRE:;
#ORIGIN:;
#CREDIT:;
#BANNER:[Qualifier Singles] - Boil.png;
#BACKGROUND:[Qualifier Singles] - Boil-bg.png;
#PREVIEWVID:;
#JACKET:[Qualifier Singles] - Boil-jacket.png;
#CDIMAGE:;
#DISCIMAGE:;
#LYRICSPATH:;
#CDTITLE:cdtitle.png;
#MUSIC:[Qualifier Singles] - Boil.mp3;
#OFFSET:-0.035639;
#SAMPLESTART:49.284016;
#SAMPLELENGTH:12.000000;
#SELECTABLE:YES;
#BPMS:0.000=146.000,
204.000=73.000,
228.000=146.000,
270.000=144.360;
#STOPS:;
#DELAYS:;
#WARPS:;
#TIMESIGNATURES:0.000=3=4;
#TICKCOUNTS:0.000=4;
#COMBOS:0.000=1;
#SPEEDS:0.000=1.000=0.000=0;
#SCROLLS:0.000=1.000;
#FAKES:;
#LABELS:0.000=Song Start;
#BGCHANGES:;
#KEYSOUNDS:;
#ATTACKS:
;

//---------------dance-single - ----------------
#NOTEDATA:;
#CHARTNAME:;
#STEPSTYPE:dance-single;
#DESCRIPTION:;
#CHARTSTYLE:;
#DIFFICULTY:Hard;
#METER:8;
#RADARVALUES:0.475695,0.601005,0.397358,0.079472,0.031789,359.000000,50.000000,10.000000,0.000000,0.000000,0.000000,0.000000,0.000000,0.475695,0.601005,0.397358,0.079472,0.031789,359.000000,50.000000,10.000000,0.000000,0.000000,0.000000,0.000000,0.000000;
#CREDIT:;
#NOTES:
0000
0000
0000
0000
,
0000
0000
0000
0000
,
0000
0000
0000
0000
,
0000
0000
0000
0000
,
0000
0000
0000
0000
,
0000
0000
0000
0000
,
0002
0100
0100
2003
,
0100
0100
3002
0010
,
0010
2003
0010
3010
,
1002
0100
1000
2003
,
0010
0000
0001
0000
3001
0000
0000
0010
,
0000
0100
1000
0001
,
0101
0000
0100
0010
0100
0001
0010
0000
,
0010
0100
0010
0001
0100
0000
0100
1000
,
0100
0010
1000
0000
1000
0100
1000
0000
,
1100
0000
0100
0010
0100
1000
0010
0000
,
0010
0001
0010
1000
0001
0010
0001
1000
,
0001
0010
0100
1000
0001
1000
0010
1000
,
0001
0000
0000
0000
0101
0000
0000
0010
1000
0000
0001
0000
0001
0000
0000
0000
,
1001
0000
0000
0000
0000
0000
0000
0000
1000
0000
0000
0000
1100
0000
0000
0010
,
0001
0100
0100
0000
0101
0000
0000
0000
,
1000
0000
0000
0000
1100
0000
0000
0001
0010
0000
0100
0000
0100
0000
0000
0000
,
0110
0000
0000
0000
0000
0000
0000
0000
0001
0000
0000
0000
0101
0000
0000
1000
,
0010
0100
0100
0000
0110
0000
0001
1000
,
0100
0000
0001
0000
0100
0000
0000
1000
0001
0000
0100
0000
0100
0000
0000
0000
,
0110
0000
0000
0000
0001
0000
0000
0000
1000
0000
0000
0000
1100
0000
0000
0010
,
0001
0100
0100
0000
0101
0000
1000
0000
,
0010
0000
0000
0000
0110
0000
0000
0001
1000
0000
0100
0000
0100
0000
0000
0000
,
1000
0000
0001
0000
0100
0000
0010
0000
1000
0000
0000
0000
1010
0000
0000
0100
,
0001
0010
1000
0010
0001
0100
0010
0000
,
2000
0100
0000
0100
3001
0000
1001
0000
,
0002
0100
0000
0100
1003
0000
1001
0000
,
0001
0000
0010
0000
0100
1000
0000
0001
,
0100
0010
0100
0000
0001
1000
0100
0010
,
0100
1000
0001
0000
0010
0000
0100
0000
,
1000
0000
0010
0000
0100
0010
0100
0000
,
0002
0010
0000
0010
1003
0000
1001
0000
,
2000
0010
0000
0010
3001
0000
1001
0000
,
1000
0000
0010
0000
0100
0001
0000
1000
,
0100
0010
0001
0010
0100
1000
0001
0000
,
0100
0000
0010
0000
0100
0010
0100
0001
,
1000
0100
0001
0100
1000
0001
0100
0000
,
0010
0000
0000
1001
0000
0100
0100
0000
,
0100
0000
0110
0000
0001
0000
0000
0101
,
0000
1000
1000
0000
1000
0000
1010
0000
,
0010
0010
0010
0100
,
0100
0100
0101
0101
,
0101
1001
1001
1001
,
1000
0100
1000
0100
1000
0100
0010
0001
,
0010
0001
0010
0001
1000
0001
1000
0001
,
1000
0001
0100
0001
0010
0100
1000
0001
,
1001
0000
0001
0101
0000
0100
0110
0000
,
0010
1010
0010
0100
1001
0000
1000
1100
,
0100
0010
0011
0000
0001
1001
0000
1000
,
1001
0001
0010
0110
0100
1000
1010
1000
,
0010
0110
0100
0001
1001
1000
0100
0110
,
0010
0001
1001
0101
1001
1100
1000
0001
,
1001
0000
0000
0001
0000
0001
0100
0010
,
1000
0100
0010
0000
0010
0000
0001
0100
,
0000
0100
0010
0001
0010
1000
0100
0000
,
1001
0000
0000
1000
0000
1000
0001
0010
,
0100
1000
0100
0000
0010
0000
0001
1000
,
0000
1000
0010
0100
0001
0100
0010
0100
,
0001
0000
1000
0100
0000
0100
0010
0001
,
0010
0100
1000
0000
0010
0000
0100
0001
,
0000
0001
1000
0010
0100
0001
0100
0000
,
0010
0000
0100
0001
0000
0001
0010
0100
,
1000
0001
0100
0000
0001
0000
0100
0010
,
0000
0010
1000
0100
0010
0001
0100
0000
;

//---------------dance-single - ----------------
#NOTEDATA:;
#CHARTNAME:;
#STEPSTYPE:dance-single;
#DESCRIPTION:;
#CHARTSTYLE:;
#DIFFICULTY:Medium;
#METER:6;
#RADARVALUES:0.363299,0.437094,0.214574,0.063577,0.000000,285.000000,27.000000,8.000000,0.000000,0.000000,0.000000,0.000000,0.000000,0.363299,0.437094,0.214574,0.063577,0.000000,285.000000,27.000000,8.000000,0.000000,0.000000,0.000000,0.000000,0.000000;
#CREDIT:;
#NOTES:
0000
0000
0000
0000
,
0000
0000
0000
0000
,
0000
0000
0000
0000
,
0000
0000
0000
0000
,
0000
0000
0000
0000
,
0000
0000
0000
0000
,
0002
0100
0103
2000
,
0100
3100
0002
0010
,
0013
2000
0010
3010
,
0020
1000
1030
0200
,
0001
0301
1000
0100
,
1000
0001
0100
0001
,
1001
1000
0010
0100
,
0001
0010
0100
1000
,
0001
1000
0001
0100
,
0110
0001
1000
0100
,
0010
0001
1000
0010
,
0100
0010
1000
0001
,
1001
0000
0000
1000
0000
0001
0001
0000
,
0100
0000
0010
0000
1000
0000
0000
0100
,
0000
0010
0010
0000
0001
0000
1000
0000
,
0010
0000
0000
0100
0000
0001
0001
0000
,
1000
0000
0100
0000
0010
0000
0000
0001
,
0000
1000
1000
0000
0010
0000
0100
0001
,
1000
0001
0100
0000
0000
0001
0001
0000
,
1000
0000
0100
0000
1000
0000
0000
0010
,
0000
0100
0100
0000
0001
0000
1000
0000
,
0010
0000
0000
0100
0000
0001
0001
0000
,
1000
0000
0100
0000
0010
0000
0000
0001
,
0000
0100
0100
0010
0100
0010
0100
0000
,
0001
1000
0000
1000
0100
0000
0010
0000
,
0001
1000
0000
1000
0100
0000
0010
0000
,
0100
0000
1000
0000
0001
0100
0000
0100
,
0010
0100
0001
1000
,
0100
0010
0001
0100
,
0010
0000
1000
0000
0001
0100
0001
0000
,
1000
0001
0000
0001
0100
0000
0010
0000
,
1000
0001
0000
0001
0100
0000
0010
0000
,
1000
0000
0001
0000
0010
0100
0000
0100
,
0010
0001
1000
0010
,
0100
0000
0010
0000
1000
0001
1000
0100
,
1000
0000
0001
1000
0001
0100
0001
0000
,
1001
0000
0000
1000
0000
0100
0100
0000
,
0010
0000
0001
0000
1000
0000
0000
0010
,
0000
0100
0100
0000
0001
0000
1000
0000
,
0010
0010
0010
0110
,
0110
0110
0100
0100
,
0100
0110
0110
0110
,
0001
1000
0001
1000
0100
0000
1000
0001
,
1000
0001
0100
0000
0001
1000
0001
1000
,
0001
1000
0100
0010
0100
0010
0100
0000
,
1001
0000
0000
0101
0000
0000
1001
0000
,
0000
1100
0000
0000
0110
0000
0000
1001
,
0000
0000
0110
0000
0000
1001
0000
0000
,
1010
0000
1000
1100
0000
0001
1001
0000
,
0000
0101
0000
0100
0110
0000
0010
1010
,
0000
0010
0010
0010
0010
0010
1000
0001
,
1001
0000
0000
1000
0000
1000
0100
0000
,
1000
0000
0001
0000
0100
0000
0010
1000
,
0000
1000
0100
0000
0010
0000
0001
0000
,
2000
0000
0000
0001
0000
0000
3200
0000
,
0000
0010
0000
0000
1300
0000
0001
0000
,
0100
0000
0010
1000
0001
1000
0010
0000
,
0110
0000
0001
0000
1000
0000
0100
1000
,
0001
1000
0100
0000
0010
0000
0001
0000
,
1000
0000
0010
0100
0001
0100
0010
0000
,
0110
0000
0001
0000
1000
0000
0001
0100
,
0010
0100
0001
0000
1000
0000
0000
0001
,
0000
0000
1000
0100
0010
0001
0100
0000
;

//---------------dance-single - ----------------
#NOTEDATA:;
#CHARTNAME:;
#STEPSTYPE:dance-single;
#DESCRIPTION:;
#CHARTSTYLE:;
#DIFFICULTY:Easy;
#METER:4;
#RADARVALUES:0.275880,0.382457,0.270204,0.111260,0.000000,195.000000,34.000000,14.000000,0.000000,0.000000,0.000000,0.000000,0.000000,0.275880,0.382457,0.270204,0.111260,0.000000,195.000000,34.000000,14.000000,0.000000,0.000000,0.000000,0.000000,0.000000;
#CREDIT:;
#NOTES:
0000
0000
0000
0000
,
0000
0000
0000
0000
,
0000
0000
0000
0000
,
0000
0000
0000
0000
,
0000
0000
0000
0000
,
0000
0000
0000
0000
,
0002
0000
0003
2000
,
0000
3000
0200
0000
,
0300
0002
0000
0003
,
0020
0000
0030
0002
,
0000
0003
0200
0000
,
0300
2000
0000
3000
,
1001
0001
0100
0010
,
0010
1000
0100
0100
,
1000
0001
0010
0100
,
1000
1000
0010
0100
,
0100
0001
0010
0010
,
0010
0001
1000
0001
,
0110
0000
0001
1000
,
0100
1000
0001
0000
,
1000
0001
0100
0001
,
1000
0100
0010
0001
,
0010
0100
1000
0001
,
1000
0110
0000
0000
,
1001
0000
0010
1000
,
0100
1000
0010
0000
,
0100
0001
0010
0001
,
0100
0010
1000
0010
,
0100
0001
1000
0000
,
0000
0001
1000
0001
,
0002
0000
1003
0100
,
2000
0000
3001
0010
,
0001
1000
0100
1000
,
0100
0010
0001
0100
,
0010
1000
0001
0000
,
0000
0100
0100
0100
,
0020
0000
1030
0000
,
0200
0000
0301
0100
,
0001
1000
0010
1000
,
0001
0100
0010
1000
,
0010
0100
0001
0001
,
0001
1000
1000
1000
,
1001
0000
0010
0010
,
0000
1000
1000
0000
,
0001
0001
0000
0100
,
0100
0100
0100
0100
,
0100
0100
0110
0110
,
0110
0110
0110
0110
,
0001
0001
0001
0100
,
0100
0100
1000
1000
,
1000
0010
0010
0010
,
0011
0000
0000
1001
0000
0000
1100
0000
,
0000
1001
0000
0000
0101
0000
0000
1001
,
0000
0000
1010
0000
0000
1001
0000
0000
,
0011
0000
0000
0110
0000
0000
1100
0000
,
0000
0110
0000
0000
0101
0000
0000
0110
,
0000
0000
2200
0000
0000
3300
0000
0000
,
1001
0000
0000
0100
,
0010
0100
1001
0000
,
0000
0010
0100
0010
,
1001
0000
0000
1000
,
0001
1000
0110
0000
,
0000
0001
1000
0001
,
0110
0000
0001
1000
,
0100
1000
1100
0000
,
1000
0001
0100
0001
,
0101
0000
0001
0100
,
0010
1000
1010
0000
,
0000
1000
0100
0010
;

//---------------dance-single - ----------------
#NOTEDATA:;
#CHARTNAME:;
#STEPSTYPE:dance-single;
#DESCRIPTION:;
#CHARTSTYLE:;
#DIFFICULTY:Beginner;
#METER:2;
#RADARVALUES:0.086284,0.134108,0.071525,0.079472,0.000000,57.000000,9.000000,10.000000,0.000000,0.000000,0.000000,0.000000,0.000000,0.086284,0.134108,0.071525,0.079472,0.000000,57.000000,9.000000,10.000000,0.000000,0.000000,0.000000,0.000000,0.000000;
#CREDIT:;
#NOTES:
// measure 0
0000
0000
0000
0000
,  // measure 1
0000
0000
0000
0000
,  // measure 2
0000
0000
0000
0000
,  // measure 3
0000
0000
0000
0000
,  // measure 4
0000
0000
0000
0000
,  // measure 5
0000
0000
0000
0000
,  // measure 6
1000
0000
0000
0000
,  // measure 7
0000
0000
1000
0000
,  // measure 8
0000
0000
0000
0000
,  // measure 9
0001
0000
0000
0000
,  // measure 10
0000
0000
0001
0000
,  // measure 11
0000
0000
0000
0000
,  // measure 12
0100
0000
0000
0000
,  // measure 13
0000
0000
0100
0000
,  // measure 14
0000
0000
0000
0000
,  // measure 15
0010
0000
0000
0000
,  // measure 16
0000
0000
0010
0000
,  // measure 17
0000
0000
0000
0000
,  // measure 18
1000
0000
0000
1000
,  // measure 19
0000
0000
0100
0000
,  // measure 20
0000
0000
0000
0000
,  // measure 21
0001
0000
0000
0001
,  // measure 22
0000
0000
0010
0000
,  // measure 23
0000
0000
0000
0000
,  // measure 24
1000
0000
0000
1000
,  // measure 25
0000
0000
0010
0000
,  // measure 26
0000
0000
0000
0000
,  // measure 27
0001
0000
0000
0001
,  // measure 28
0000
0000
0100
0000
,  // measure 29
0000
0000
0000
0000
,  // measure 30
2002
0000
3003
0000
,  // measure 31
0000
0000
1000
0000
,  // measure 32
0000
0001
0000
0000
,  // measure 33
0220
0000
0330
0000
,  // measure 34
0000
0000
0100
0000
,  // measure 35
0000
0010
0000
0000
,  // measure 36
2002
0000
3003
0000
,  // measure 37
0000
0000
0001
0000
,  // measure 38
0000
1000
0000
0000
,  // measure 39
0220
0000
0330
0000
,  // measure 40
0000
0000
0010
0000
,  // measure 41
0000
0100
0000
0000
,  // measure 42
0001
0000
0000
0000
,  // measure 43
0000
0000
0001
0000
,  // measure 44
0000
0000
0000
0000
,  // measure 45
1000
0000
0000
1000
,  // measure 46
0000
0000
1000
0000
,  // measure 47
0000
1000
0000
0000
,  // measure 48
0010
0000
0000
0010
,  // measure 49
0000
0000
0010
0000
,  // measure 50
0000
0100
0000
0000
,  // measure 51
1001
0000
0000
0000
,  // measure 52
0000
0000
0110
0000
,  // measure 53
0000
0000
0000
0000
,  // measure 54
1001
0000
0000
0000
,  // measure 55
0000
0000
0110
0000
,  // measure 56
0000
0000
0000
0000
,  // measure 57
1001
0000
0000
0000
,  // measure 58
0000
0000
0100
0000
,  // measure 59
0000
0010
0000
0000
,  // measure 60
2000
0000
0000
3000
,  // measure 61
0000
0000
0002
0000
,  // measure 62
0000
0003
0000
0000
,  // measure 63
0100
0000
0000
0100
,  // measure 64
0000
0000
0010
0000
,  // measure 65
0000
0000
0000
0000
,  // measure 66
1000
0000
0000
1000
,  // measure 67
0000
0000
0001
0000
;
