#TITLE:Air Balloon;
#SUBTITLE:;
#ARTIST:Lily Allen;
#TITLETRANSLIT:;
#SUBTITLETRANSLIT:;
#ARTISTTRANSLIT:;
#GENRE:;
#CREDIT:;
#BANNER:;
#BACKGROUND:;
#LYRICSPATH:;
#CDTITLE:;
#MUSIC:Lily Allen - Air Balloon.mp3;
#OFFSET:0.464;
#SAMPLESTART:92.646;
#SAMPLELENGTH:15.000;
#SELECTABLE:YES;
#BPMS:0.000=95.000
,133.000=47.500
,141.000=95.000
;
#STOPS:
;
#BGCHANGES:0.000=[Qualifier Singles] - Air Balloon.avi=1.000=0=0=1=====,
99999=-nosongbg-=1.000=0=0=0 // don't automatically add -songbackground-
;
#KEYSOUNDS:;
#ATTACKS:;

//---------------dance-single - ----------------
#NOTES:
     dance-single:
     :
     Hard:
     8:
     0.473,0.373,0.087,0.051,0.367,436.000,12.000,7.000,0.000,0.000,0.000,0.473,0.373,0.087,0.051,0.367,436.000,12.000,7.000,0.000,0.000,0.000:
0000
0000
0000
0000
,
0000
0000
0001
0000
1000
0100
1000
0000
0001
0000
0010
0000
1000
0000
0010
0000
,
0001
0000
0100
0000
0010
1000
0001
0000
1000
0000
0100
0000
0002
0000
0100
0000
,
0103
0000
1000
0100
1000
0010
0100
0000
0001
0000
0100
0000
1000
0000
0100
0000
,
0001
0000
0010
0000
0100
1000
0010
0000
1000
0000
0010
0000
0002
0000
0010
0000
,
0013
0000
1000
0001
1000
0100
0010
0000
0001
0000
0100
0000
1000
0000
0100
0000
,
0010
0000
1000
0000
0100
0010
0001
0000
1000
0000
0010
0000
0002
0000
0010
0000
,
0013
0000
0100
0001
0100
0010
1000
0000
0001
0000
0010
0000
1000
0000
0010
0000
,
0100
0000
1000
0000
0010
0100
0001
0000
1000
0000
0100
0000
0002
0000
0100
0000
,
0103
0000
0010
0000
1001
0000
0001
0000
0100
0000
0010
0100
0000
0000
0010
0000
,
1000
0000
1000
0000
0100
0000
0010
0000
0001
0000
1000
0000
0000
1000
0010
0000
,
0100
0000
0001
1000
0001
0000
0100
0000
0010
0000
1000
0010
0000
0000
1000
0000
,
1000
0000
0001
0000
0010
0000
0001
0000
0100
0000
0010
1000
0000
1000
0100
0000
,
1000
0000
0010
0100
0010
0000
0100
0000
0001
0000
0010
0100
0000
0000
0100
0000
,
1000
0000
0001
0000
1000
0000
0010
0000
0100
0000
0001
0000
0000
0001
1000
0000
,
0010
0000
0100
0001
0100
0000
0010
0000
1000
0000
0001
1000
0000
0000
0001
0000
,
0010
0000
0001
0000
0100
0000
0010
0000
1000
0000
0001
1000
0000
1000
0001
0000
,
0100
0001
0100
0010
1000
0000
1000
0001
1000
0000
0100
0000
0001
0000
0100
0000
,
1000
0000
0000
1000
0100
0010
0000
0001
0000
0100
0001
0000
0100
0000
0001
0000
,
0010
0100
1000
0000
0001
0000
0000
0001
1000
0000
0001
0000
0100
0000
0000
0100
,
0010
0000
1000
0000
0010
0000
0000
0010
1000
0000
0001
0000
1001
0000
0001
0000
,
0001
0100
0010
1000
0100
0000
0100
1000
0001
0000
0100
0000
1000
0000
0100
0000
,
0001
0000
0000
1000
0010
0100
0000
0100
0000
0001
1000
0000
0001
0000
0010
0000
,
0001
0100
0010
0000
1000
0000
0000
1000
0100
0000
1000
0000
0001
0000
0000
0001
,
0010
0000
0001
0000
0100
0000
0000
0010
0100
0000
0010
0000
1001
0000
1000
0000
,
0001
0000
1000
0001
1000
0000
0000
0001
0100
0000
0010
0000
0000
0000
0010
0000
,
1000
0100
1000
0000
0010
0000
0000
1000
0001
0000
0001
0000
0000
0000
0100
0000
,
0001
0100
0001
0000
0010
0000
0000
0100
1000
0000
0100
0000
0000
0000
1000
0000
,
0001
0100
0001
0000
0100
0000
0000
0010
0100
0000
0001
0000
0000
0000
1000
0000
,
0010
0100
0010
0000
1000
0000
0000
1000
0001
0000
0010
0000
0000
0000
0100
0000
,
0010
0100
0010
0000
0001
0000
0000
0001
0100
0000
0010
0000
0000
0000
0010
0000
,
1000
0001
1000
0000
0100
0000
0000
0100
1000
0000
0001
0000
0000
0000
0100
0000
,
0010
0100
0010
0000
1000
0000
0000
1000
0100
0000
1000
0000
0000
0000
0001
0000
,
1000
0001
1000
0000
2000
0000
0000
0000
0000
0000
0000
0000
0020
0000
0000
0000
,
0030
0002
0000
0000
,
0000
0000
3003
0000
1001
0000
0001
0100
0010
0000
1000
0000
0100
0000
1000
0000
,
1100
0000
0000
0001
0100
0010
0000
1000
0000
1000
0100
0000
1000
0000
0001
0000
,
0100
0001
0100
0000
0010
0000
0000
1000
0010
0000
0100
0000
0001
0000
0000
0001
,
0100
0000
0001
0000
0100
0000
0000
0100
0010
0000
1000
0000
1001
0000
0001
0000
,
0001
1000
0100
1000
0010
0000
0100
0001
0100
0000
0010
0000
1000
0000
0001
0000
,
0101
0000
0000
1000
0100
0010
0000
0100
0000
0100
0010
0000
0001
0000
1000
0000
,
1000
0001
0100
0000
0001
0000
0000
0100
0001
0000
1000
0000
0100
0000
0000
0100
,
1000
0000
0001
0000
1000
0000
0000
0010
0100
0000
0010
0000
0110
0000
0010
0000
,
1000
0100
0010
0001
1000
0000
0100
0000
0001
0000
0100
0001
0100
0000
1000
0000
,
1100
0000
0010
0000
0100
0000
0001
0000
1000
0000
0001
0100
0001
0000
1000
0000
,
0010
0100
0001
0000
1000
0000
0000
1000
0100
0000
1000
0000
0001
0000
0000
0001
,
0100
0000
0001
0000
0100
0000
0000
0010
0100
0000
0010
0000
1001
0000
0001
0000
,
0001
0100
0010
1000
0100
0000
1000
0000
0010
0000
0001
0010
0001
0000
0010
0000
,
1010
0000
1000
0000
0001
0000
0100
0000
0010
0000
1000
0100
0010
0000
0001
0000
,
0100
0010
0100
0000
0001
0000
0000
0001
1000
0000
0010
0000
0100
0000
0000
0100
,
0001
0000
0010
0000
0100
0000
0000
0100
0010
0000
0001
0000
1001
0000
0001
0000
,
1000
0100
0010
0001
1000
0000
0000
0000
0000
0000
0000
0000
0000
0000
0000
0000
;

//---------------dance-single - ----------------
#NOTES:
     dance-single:
     :
     Medium:
     6:
     0.333,0.297,0.145,0.087,0.065,288.000,20.000,12.000,0.000,0.000,0.000,0.333,0.297,0.145,0.087,0.065,288.000,20.000,12.000,0.000,0.000,0.000:
0000
0000
0000
0000
,
1000
1000
0100
0100
0001
0100
1000
0010
,
0100
0100
0001
0001
0102
0000
0103
0000
,
0010
0010
1000
1000
0001
0100
1000
0100
,
0001
0001
1000
1000
2001
0000
3010
0000
,
0100
0100
0001
0001
1000
0100
1000
0010
,
0100
0100
0001
0001
0201
0000
0301
0000
,
1000
1000
0010
0010
0100
0001
1000
0100
,
0001
0001
0100
0100
2100
0000
3020
0000
,
1030
0000
0001
0000
0100
0001
0100
0000
,
0010
0000
1000
0000
0001
1000
0100
1000
,
0010
0000
0100
0000
0001
0100
0010
0000
,
1000
0000
0100
0000
1000
0010
0100
0001
,
2000
0000
3001
0000
0100
0000
0001
0010
,
0100
0000
1000
0000
0010
1000
0010
0100
,
0010
0000
1000
0100
2100
0000
3001
0100
,
0102
0000
0103
0000
0110
0000
0010
1000
,
0001
0000
1000
0100
1000
0000
1010
0000
,
0010
0100
0001
1000
0100
0000
0100
1000
,
0010
0000
0000
0010
0100
0000
0000
0000
0001
0000
0000
0001
1000
0000
0000
0000
,
1000
0000
0000
1000
0100
0000
0000
0000
2010
0000
0000
0000
3010
0000
1000
0000
,
0001
0000
1000
0100
0010
0001
1000
0000
,
0001
0100
0001
0000
0100
0000
0110
0010
,
1000
0000
0000
1000
0100
0000
0000
0000
1000
0000
0000
1000
0001
0000
0000
0000
,
0100
0000
0000
0100
0001
0000
0000
0000
0110
0000
0000
0000
0010
0000
0000
0000
,
1000
0000
0010
0000
0100
0000
0001
1000
,
0000
1000
0001
0000
0001
0000
0100
0010
,
0000
0010
1000
0000
1000
0000
0100
0010
,
0001
0001
0001
1000
,
1001
0000
0001
0100
0000
0100
0001
0000
,
0001
0000
1000
0100
0000
0100
1000
0000
,
1000
0000
0010
0100
0000
0100
0010
0000
,
1000
0000
1000
0100
0000
0100
1000
0000
,
2001
0000
0020
0030
,
0002
0000
0000
3003
,
1001
0000
0001
0100
0010
1000
0100
0000
,
0100
1000
0010
0000
0010
0100
0001
0000
,
1001
0000
0000
0001
0100
0000
0000
0000
0100
0000
0000
0010
0100
0000
0000
0000
,
0010
0000
0000
1000
0010
0000
0000
0000
1001
0000
0000
0000
1000
0000
0000
0000
,
0100
1000
0010
0100
0001
1000
0001
0000
,
0001
0100
0001
0000
1000
0100
1000
0000
,
1010
0000
0000
0010
1000
0000
0000
0000
0001
0000
0000
0001
0100
0000
0000
0000
,
0001
0000
0000
0001
0100
0000
0000
0000
0110
0000
0000
0000
0010
0000
1000
0000
,
0001
0000
1000
0100
1000
0010
0100
0000
,
0100
0001
0100
0010
1000
0000
0001
1000
,
0100
0000
0000
0100
1000
0000
0000
0000
1000
0000
0000
1000
0010
0000
0000
0000
,
0010
0000
0000
0010
0100
0000
0000
0000
1001
0000
0000
0000
0001
0000
0100
0000
,
0001
1000
0100
0000
0100
1000
0010
0000
,
0010
0100
0001
1000
0100
0000
0100
1000
,
0010
0000
0000
0010
0100
0000
0000
0000
0100
0000
0000
0100
0001
0000
0000
0000
,
0100
0000
0000
0010
1000
0000
0000
0000
1001
0000
0000
0000
0001
0000
0100
0000
,
0010
0000
0000
0000
;

//---------------dance-single - Blank----------------
#NOTES:
     dance-single:
     :
     Easy:
     4:
     0.211,0.186,0.116,0.015,0.000,185.000,16.000,2.000,0.000,0.000,0.000,0.211,0.186,0.116,0.015,0.000,185.000,16.000,2.000,0.000,0.000,0.000: // measure 0
0000
0000
0000
0000
,  // measure 1
0000
1000
1000
0001
,  // measure 2
0001
0000
0100
0000
0100
0010
0100
0000
,  // measure 3
0001
1000
1000
0010
,  // measure 4
0010
0000
0100
0000
0001
0100
0001
0000
,  // measure 5
1000
0100
0110
0010
,  // measure 6
0010
0000
0001
0000
0100
0010
0100
0000
,  // measure 7
0010
1000
1000
0001
,  // measure 8
0001
0000
1000
0000
0100
0010
0100
0000
,  // measure 9
0010
0001
0001
0000
,  // measure 10
0001
1000
1000
0000
,  // measure 11
1000
0010
0010
0000
,  // measure 12
0010
0100
0100
0000
,  // measure 13
0100
0001
0001
0000
,  // measure 14
0001
1000
1000
0000
,  // measure 15
1000
1000
1000
0000
,  // measure 16
0010
0100
0100
0000
,  // measure 17
0001
0100
0010
1000
,  // measure 18
1001
1000
0100
0100
,  // measure 19
0010
0001
0010
0000
0001
0000
0001
0000
,  // measure 20
1000
1000
0001
1001
,  // measure 21
1000
0100
0100
0001
,  // measure 22
0100
1000
0010
0100
,  // measure 23
0100
0001
0100
0000
0100
0000
0010
0000
,  // measure 24
0010
1000
1000
1001
,  // measure 25
1000
0100
0000
0100
,  // measure 26
0100
0010
0000
0010
,  // measure 27
0010
0001
0000
0001
,  // measure 28
0001
0100
0000
0100
,  // measure 29
0100
0001
0100
1000
,  // measure 30
0000
1000
0100
0001
,  // measure 31
0000
0001
0010
1000
,  // measure 32
0000
1000
0010
0001
,  // measure 33
0000
2002
0000
0000
,  // measure 34
0000
0000
0000
0000
,  // measure 35
3003
1000
0001
1000
,  // measure 36
1100
1000
0010
0100
,  // measure 37
0001
0100
0001
0000
1000
0000
0100
0000
,  // measure 38
1000
0100
1000
1001
,  // measure 39
0001
0100
0010
1000
,  // measure 40
0100
0001
0100
1000
,  // measure 41
0001
1000
0001
0000
0100
0000
0010
0000
,  // measure 42
1000
0100
0010
0110
,  // measure 43
0010
0001
0001
1000
,  // measure 44
1000
0001
0001
1000
,  // measure 45
0100
1100
1000
1100
,  // measure 46
1000
1100
1000
1001
,  // measure 47
0000
0001
0100
0100
,  // measure 48
0001
0100
0001
0100
,  // measure 49
0001
0011
0001
0011
,  // measure 50
0001
0011
0001
1001
,  // measure 51
1000
0100
0000
0000
;
