#TITLE:Adore You;
#SUBTITLE:;
#ARTIST:Miley Cyrus;
#TITLETRANSLIT:;
#SUBTITLETRANSLIT:;
#ARTISTTRANSLIT:;
#GENRE:Pop;
#CREDIT:;
#BANNER:Adore You.png;
#BACKGROUND:Adore You-bg.png;
#LYRICSPATH:;
#CDTITLE:bangerz.png;
#MUSIC:Adore You.mp3;
#OFFSET:-0.125000;
#SAMPLESTART:63.613113;
#SAMPLELENGTH:13.000000;
#SELECTABLE:YES;
#DISPLAYBPM:60.000000;
#BPMS:0.000000=59.908001
;
#STOPS:
;
#BGCHANGES:;
#KEYSOUNDS:;
#ATTACKS:;

//---------------dance-single - ----------------
#NOTES:
     dance-single:
     :
     Hard:
     5:
     0.164280,0.198807,0.019491,0.038982,0.058473,112.000000,2.000000,4.000000,0.000000,0.000000,0.000000,0.164280,0.198807,0.019491,0.038982,0.058473,112.000000,2.000000,4.000000,0.000000,0.000000,0.000000:
0000
0000
0000
0000
,
0000
0000
0000
0000
,
1000
0000
0000
0000
,
1000
0000
0001
0000
0001
0001
0100
0000
,
0010
0000
0000
0000
1000
1000
0100
0000
,
0001
0000
0000
0000
1000
0001
0001
0000
,
0100
0100
0100
0000
0000
0100
0100
0100
,
0001
0000
0010
0000
0001
0001
0010
0000
,
0001
0000
0000
0000
0101
0000
0000
0000
0000
0000
0000
0000
0000
0000
1000
0001
,
1000
0000
0000
0000
1000
0100
0010
0001
,
1000
0000
0000
0000
0000
0001
0010
0100
,
1000
0001
0100
0000
0010
0000
0000
0000
,
2002
0000
3003
0001
,
0100
0000
0000
0000
0010
0000
0000
0000
1000
0000
1000
1000
1000
0000
0000
0000
,
0100
0000
0000
0020
,
0000
0002
0000
0033
,
1000
0100
0000
0000
1000
0100
0000
0000
0100
0000
0100
0000
0010
0000
0001
0000
,
0100
0000
0000
0000
0000
0000
0000
0000
0100
0000
0100
0100
0001
0000
0000
0000
,
1000
0010
0000
0000
1000
0010
0000
0000
0010
0000
0010
0000
0100
0000
0001
0000
,
0010
0000
0000
0000
0001
0000
0000
0000
0010
0000
0010
0010
0001
0000
0000
0000
,
1000
1000
1000
1000
1000
1000
1000
1000
,
0001
0010
0100
0010
0001
0000
0000
0000
0000
0000
0000
0000
0100
0000
0000
0000
,
0010
0010
0010
0010
0010
0010
0010
0010
,
1000
0001
0100
0001
1000
0000
0000
0000
0100
0000
0100
0000
0100
0000
0100
0000
,
0010
0000
0000
0000
;

//---------------dance-single - ----------------
#NOTES:
     dance-single:
     :
     Medium:
     3:
     0.126691,0.175418,0.048727,0.019491,0.000000,84.000000,5.000000,2.000000,0.000000,0.000000,0.000000,0.126691,0.175418,0.048727,0.019491,0.000000,84.000000,5.000000,2.000000,0.000000,0.000000,0.000000:
0000
0000
0000
0000
,
0000
0000
0000
0000
,
0000
0000
0000
0000
,
1000
0000
0000
0000
,
0001
0000
0000
0000
0100
0010
0100
0000
,
0010
0000
0000
0000
1000
0100
0010
0000
,
0000
0000
0000
0000
0000
0001
0010
0100
,
1000
0000
0001
0000
,
0100
0000
0010
0000
0000
0000
1000
0100
,
1000
0000
0000
0000
0010
0100
0010
0100
,
0010
0100
0010
0000
0000
0000
0000
0000
,
1000
0000
0100
0000
,
0020
0002
0000
0033
,
0011
0000
0001
0000
,
0100
0000
0010
0000
1000
0001
1000
0000
,
0100
0000
0010
0000
,
1001
0000
1001
0000
0000
0000
0100
0010
,
1000
0010
0100
0000
0000
0000
0000
0000
,
0110
0000
0110
0000
0000
0000
0001
0010
,
0100
0010
0001
0000
0000
0000
1000
0000
,
0010
0010
0010
0010
0010
0010
0010
0000
,
1000
1000
1000
1000
1000
1000
1000
0000
,
0001
0001
0001
0001
0001
0001
0001
0000
,
0010
0010
0010
0010
0010
0010
0010
0010
,
0010
0000
0000
0000
;

//---------------dance-single - ----------------
#NOTES:
     dance-single:
     :
     Easy:
     2:
     0.090493,0.081862,0.087709,0.000000,0.000000,56.000000,9.000000,0.000000,0.000000,0.000000,0.000000,0.090493,0.081862,0.087709,0.000000,0.000000,56.000000,9.000000,0.000000,0.000000,0.000000,0.000000:
0000
0000
0000
0000
,
0000
0000
0000
0000
,
0000
0000
0000
0000
,
1001
0000
0000
0000
,
1001
0000
0010
0000
,
1000
0000
0010
1000
,
0100
0000
0000
0000
,
0011
0000
0011
0000
,
1001
0100
0000
0000
,
1010
0000
1000
0010
,
0100
0100
0000
0001
,
1000
0001
0010
0000
,
1001
0000
0000
0010
,
0001
0100
0000
0000
,
0101
0000
0000
1000
,
0000
0100
0000
0000
,
1000
1000
0000
0001
,
0010
0010
0010
0010
,
0001
0100
0000
0010
,
1000
1000
1000
1000
,
0010
0010
0010
0010
,
0100
0100
0100
0000
0000
0000
0000
0000
,
0001
0001
0001
0001
,
1000
1000
1000
0000
0000
0000
0000
0000
,
1001
0000
0000
0000
;

//---------------dance-single - ----------------
#NOTES:
     dance-single:
     :
     Beginner:
     1:
     0.055688,0.058473,0.038982,0.000000,0.000000,36.000000,4.000000,0.000000,0.000000,0.000000,0.000000,0.055688,0.058473,0.038982,0.000000,0.000000,36.000000,4.000000,0.000000,0.000000,0.000000,0.000000:
// measure 0
0000
0000
0000
0000
,  // measure 1
0000
0000
0000
0000
,  // measure 2
0000
0000
0000
0000
,  // measure 3
1001
1001
0000
0000
,  // measure 4
1000
0000
0000
0000
,  // measure 5
0001
0000
0000
0000
,  // measure 6
0010
0000
0000
0000
,  // measure 7
0100
0000
0000
0000
,  // measure 8
1000
1000
0000
0000
,  // measure 9
0001
0000
0000
0000
,  // measure 10
0010
0000
0000
0000
,  // measure 11
0001
0000
0001
0000
,  // measure 12
0001
0000
0000
0000
,  // measure 13
1001
0000
0000
0000
,  // measure 14
0010
0010
0010
0000
,  // measure 15
0010
0000
0000
0000
,  // measure 16
1000
1000
0000
0000
,  // measure 17
0010
0010
0000
0000
,  // measure 18
0001
0001
0000
0000
,  // measure 19
0100
0000
0000
0000
,  // measure 20
0010
0010
0010
0010
,  // measure 21
0010
0000
0000
0000
,  // measure 22
0100
0100
0100
0100
,  // measure 23
0100
0000
0000
0000
,  // measure 24
1001
0000
0000
0000
;
