#TITLE:snow motion;
#SUBTITLE:;
#ARTIST:こふ;
#TITLETRANSLIT:;
#SUBTITLETRANSLIT:;
#ARTISTTRANSLIT:kofu;
#GENRE:;
#CREDIT:Silverhawke;
#MENUCOLOR:;
#METERTYPE:DDR;
#BANNER:[Qualifier Singles & Doubles] - snow motion.png;
#BACKGROUND:[Qualifier Singles & Doubles] - snow motion-bg.png;
#LYRICSPATH:;
#CDTITLE:cdtitle.png;
#MUSIC:[Qualifier Singles & Doubles] - snow motion.mp3;
#OFFSET:-0.028;
#SAMPLESTART:21.237;
#SAMPLELENGTH:15.000;
#SELECTABLE:YES;
#LISTSORT:;
#BPMS:0.000=181.000;
#STOPS:;
#BGCHANGES:;
#ATTACKS:;

//---------------dance-single - ----------------
#NOTES:
     dance-single:
     :
     Hard:
     9:
     0.716,0.663,0.402,0.444,0.059:
0000
0000
0000
0000
,
0000
0000
0000
0000
,
0000
0000
0000
0000
,
0000
0000
0000
0000
,
1000
0000
1200
0000
0000
0310
0000
0011
,
0000
0001
0000
1000
0100
1000
0000
0001
,
0100
0102
0013
2100
,
3010
0101
1100
1001
,
0001
0100
0001
0001
0100
0001
0100
0010
,
1000
0100
0100
1000
0100
1000
1000
0000
,
1000
0100
1000
1000
0010
1000
0010
0010
,
0100
0001
0100
0100
0001
0010
0001
0000
,
1000
0100
0010
0100
1000
0001
0100
0010
,
0100
0001
0010
0100
1000
0001
0100
0000
,
0010
0010
1000
0100
0010
0010
0001
0011
,
0000
1100
0000
1010
0000
0101
2000
0000
,
3002
0000
0103
0000
2000
0000
3100
0010
,
0000
0110
0000
1000
0000
1001
0000
0002
,
1000
0000
0103
0000
2000
0000
3010
0100
,
0000
0101
0000
0010
0000
1010
0000
0200
,
0001
0000
0310
0000
0002
0000
1003
0100
,
0000
0011
0000
0100
0000
1010
0000
0002
,
0000
0000
0103
0000
0010
1000
0100
0002
,
0000
0100
0000
0103
0000
1000
0010
0100
,
0001
0000
0101
0000
1000
0000
1100
0001
,
0100
0001
1000
0100
1000
0100
0010
0002
,
0100
0003
0101
0000
0010
0000
1010
0100
,
0001
0100
0010
1000
0010
1000
0001
0010
,
0200
0000
1300
0200
0000
0301
0000
0200
,
0000
2300
0000
3020
0000
0230
0000
0302
,
0000
0000
1003
0100
0000
0010
0000
0011
,
0000
1100
0000
1010
0000
0101
0000
0110
,
1001
0100
0001
0100
0010
1000
0010
1000
,
0001
0010
0100
0100
0001
0010
0100
0100
,
0000
0001
1000
0001
0010
0100
0010
0100
,
1000
0010
0100
0100
1000
0010
0100
0100
,
0000
1000
0001
1000
0100
0010
0100
0010
,
0001
0100
0010
0010
0001
0100
0010
0010
,
0000
0001
1000
0001
0100
0010
0100
0010
,
1000
0100
0100
0100
0110
0000
1001
0000
,
0000
0001
0001
0001
0101
0000
1010
0000
,
1000
0100
0001
0100
1000
1000
1002
0000
,
0003
0000
0100
0010
0100
0000
0001
0000
1000
0000
1000
0000
0100
0000
0000
0000
,
0001
0000
0100
0000
1000
0000
0100
0000
0010
0001
0010
0000
0001
0010
0001
0000
,
0000
1000
1000
1000
1010
0000
0101
0000
,
1000
0100
0100
0001
0100
0100
1000
0001
,
0100
0010
0100
0010
1000
0001
1000
0001
,
1000
0100
0001
1000
0010
0001
1000
0010
,
0200
0000
0302
0000
,
0023
0000
0230
2300
,
3002
0000
0103
0010
0100
0010
1000
0002
,
0000
1003
0001
0020
0000
0130
1000
0001
,
0200
0000
0000
0000
0000
0000
0310
0100
,
0200
0000
0000
0000
0000
0000
0310
0100
,
0100
0001
1000
0100
0010
0100
1000
0002
,
0000
0203
0000
0320
0000
1030
0100
0010
,
0001
0001
0100
0100
,
1000
1000
0010
0010
,
0001
0001
0010
0010
,
1000
1000
0100
0100
,
0001
0010
1000
0100
,
0001
0100
1000
0010
,
0001
0000
0100
0000
0010
1000
0100
0020
,
0000
0001
0000
0031
0000
1000
0100
0010
,
0002
0000
0100
0000
2003
0000
3010
0100
,
0010
0100
0001
0100
0001
0100
0010
2000
,
0001
0000
0100
0000
3002
0000
0013
0100
,
0010
0100
1000
0100
1000
0100
0010
0001
,
0200
0000
1300
0200
0000
0310
0000
2000
,
0000
3200
0000
0302
0000
0203
0000
2300
,
0000
0000
3010
0100
0000
0001
0000
0101
,
0000
1010
0000
1100
0000
0011
0000
1001
,
1000
0000
0100
0000
1000
0000
0100
0000
0010
0100
0000
1000
0000
0000
0001
0000
,
0100
0000
0010
0000
0100
0000
0010
0000
1000
0100
0000
0010
0000
0000
0001
0000
,
0100
0000
0010
0000
0100
0000
0010
0000
1000
0001
0000
0010
0000
0000
0100
0000
,
1000
0000
1000
0000
0001
0000
0100
0000
0010
1000
0000
0010
0000
0000
0100
0000
,
0001
0000
0010
0000
0001
0000
0010
0000
0100
1000
0000
0001
0000
0000
0100
0000
,
0010
1000
0010
0100
1000
0100
0001
0100
,
1000
0100
0010
0100
1000
0100
0001
0020
,
0000
0130
1000
1000
0001
0001
0100
0010
,
2000
0000
3001
0000
0100
0010
1000
0100
,
0000
0000
0012
0000
0000
0000
0103
0000
0000
0000
2010
0000
0000
0000
3100
0010
,
0200
0000
1300
0001
0100
0010
1000
0100
,
0010
0001
0100
1000
0100
0001
0010
1000
,
0020
0000
0130
1000
0000
1001
0000
0001
,
0100
1000
0001
0010
1000
0100
0001
0200
,
0000
0000
0310
0001
0000
1000
0000
1010
,
0000
0101
0000
1100
0000
0011
0000
0110
,
1001
0000
0000
0000
;

//---------------dance-single - ----------------
#NOTES:
     dance-single:
     :
     Medium:
     7:
     0.524,0.516,0.134,0.260,0.000:
0000
0000
0000
0000
,
0000
0000
0000
0000
,
0000
0000
0000
0000
,
0000
0000
0000
0000
,
0001
0000
0002
0000
0000
1003
0000
1000
,
0000
0100
0000
0010
0000
0010
0000
0001
,
2000
3100
0002
0103
,
2000
3010
0002
0013
,
1000
0000
0100
0000
1000
0100
1000
0000
,
0001
0100
0001
0000
1000
0010
1000
0000
,
0001
0000
0100
0000
0001
0100
0001
0000
,
0100
0001
0100
0000
0010
1000
0010
0000
,
1000
0000
0100
0000
0010
0100
1000
0000
,
0100
0010
0001
0000
0010
0100
1000
0000
,
0001
0000
0100
0000
0010
1000
0001
0100
,
0000
1001
0000
0010
0000
1001
1000
0000
,
0002
0000
1003
0000
0020
0000
1030
0100
,
0000
1000
0000
0100
0000
0010
0000
0002
,
0000
0000
1003
0000
0200
0000
1300
0010
,
0000
1000
0000
0010
0000
0100
0000
0002
,
0000
0000
0013
0000
2000
0000
3010
0100
,
0000
0010
0000
0100
0000
1000
0000
0002
,
0000
0000
0010
0000
1003
0100
0010
0001
,
0000
0100
0000
0100
0000
0001
0010
0100
,
2000
0000
3001
0000
0020
0000
0031
0100
,
0000
0001
0000
0100
0000
0010
0000
2000
,
0000
0000
3001
0000
0200
0000
0301
0010
,
0000
0001
0000
0010
0000
0100
0000
1000
,
0100
0000
0010
0100
0000
1000
0000
0001
,
0000
0100
0000
0010
0000
1000
0000
0002
,
0000
0000
0013
0100
0000
1000
0000
1001
,
0000
0010
0000
1001
0000
0100
0000
0010
,
2000
3100
2000
3100
,
1000
0100
0010
0001
1000
0100
0010
0000
,
0002
0103
0002
0103
,
0001
0100
0010
1000
0001
0100
0010
0000
,
2000
3100
0002
0103
,
1000
0010
0100
0001
1000
0010
0100
0000
,
0002
0013
2000
3010
,
0001
1000
0001
0000
1001
0000
0110
0000
,
1000
0100
1000
0100
1000
0000
0001
0000
,
0100
0010
0100
0000
0001
0000
1000
0000
,
0100
0010
0001
0000
0010
0000
0100
0000
,
1000
0010
1000
0010
0100
0000
0001
0000
,
1000
0100
1000
0100
1000
0000
0001
0000
,
0100
0010
0100
0000
0001
0010
0001
0000
,
1000
0100
0010
0000
0010
0100
1000
0000
,
0001
0000
0100
0000
1000
0100
0001
0000
,
1000
0000
0100
0000
,
0010
0000
0001
0100
,
0010
0000
1000
0100
1000
0000
0100
1000
,
0000
1000
0001
1000
0000
1000
0010
0100
,
0020
0000
0000
0000
0030
0000
0100
0010
,
2000
0000
0000
0000
3000
0000
0100
0010
,
0001
0100
1000
0100
,
0001
0010
0100
1000
,
0001
0001
0100
0100
,
0010
0010
1000
1000
,
0100
0100
0010
0010
,
0001
0001
1000
1000
,
0010
0100
0001
0100
,
0010
1000
0100
0010
,
0002
0000
0000
0000
0003
1000
0100
2000
,
0000
0000
0000
0000
3000
0001
0100
0000
,
0010
1000
0010
0000
1000
0000
0100
0000
,
1000
0100
1000
0000
0100
0000
0001
0000
,
0100
0001
0100
0000
0001
0000
0010
0000
,
0001
0010
0001
0000
0010
0000
1000
0000
,
0100
0000
0010
0100
0000
1000
0000
1001
,
0000
0001
0000
1001
0000
1000
0000
0020
,
0000
0000
0130
0001
0000
0010
0000
1000
,
0000
0110
0000
0001
0000
0110
0000
1000
,
0001
0100
0010
0000
0100
0000
0001
0000
,
1000
0100
0010
0000
0100
0000
1000
0000
,
0010
0100
0001
0000
0010
0100
1000
0000
,
0001
0100
1000
0010
,
0001
0000
0100
0000
0010
0100
0001
0000
,
1000
0100
0010
0100
,
1000
0000
0100
0000
0010
0001
1000
0001
,
0000
0001
0100
0000
0010
1000
0100
0000
,
0010
0000
1001
0000
0000
0000
1000
0100
,
0000
0010
0000
0100
0000
1000
0000
0010
,
0100
0000
0001
1000
0000
0100
0000
0010
,
0000
0100
0000
1000
0000
0001
0000
0100
,
0010
0000
1000
0100
0000
0010
0000
0100
,
1000
0100
0000
1000
0001
1000
0100
0020
,
0000
0000
0031
0100
0000
0010
0000
0110
,
0000
0110
0000
0110
0000
0110
0000
0110
,
1000
0000
0000
0000
;

//---------------dance-double - ----------------
#NOTES:
     dance-double:
     :
     Hard:
     9:
     0.698,0.700,0.444,0.570,0.080:
00000000
00000000
00000000
00000000
,
00000000
00000000
00000000
00000000
,
00000000
00000000
00000000
00000000
,
00000000
00000000
00000000
00000000
,
00010000
00000000
02000000
00000000
00000000
13000000
00000000
10100000
,
00000000
00100000
00000000
01100000
01000000
00010000
00000000
00100000
,
00102000
00013000
00021000
00030010
,
01002000
00013000
00020100
00031000
,
00010000
01000000
10000000
00000000
10000000
01000000
00100000
00000000
,
00010000
01000000
00100000
10000000
01000000
00010000
00001000
00000000
,
00001000
00000100
00000001
00000000
00000001
00000100
00000010
00000000
,
00001000
00000100
00000010
00000001
00000100
00001000
00010000
00000000
,
00001000
00100000
01000000
00000000
10000000
01000000
00010000
00000000
,
01000000
10000000
00100000
00010000
00001000
00010000
00000100
00000000
,
00010000
00001000
00000100
00001000
00010000
01000000
10000000
10010000
,
00000000
00011000
00000000
00001001
00000000
00011000
01000000
00000000
,
00020000
00000000
00100000
00000000
20030000
00000000
31000000
00100000
,
00000000
00101000
00000000
00011000
00000000
00010100
00000000
00000200
,
00000000
00000000
00000010
00000000
00002300
00000000
00003001
00000010
,
00000000
00001010
00000000
00011000
00000000
01010000
00000000
02000000
,
00000000
00000000
10000000
00000000
03200000
00000000
00301000
00010000
,
00000000
00010100
00000000
00000110
00000000
00000011
00000000
00000201
,
00000000
00000000
00000010
00000000
00001300
00010000
00100000
20000000
,
00000000
01000000
00000000
31000000
00000000
00100000
00010000
00001000
,
00000200
00000000
00000010
00000000
00002300
00000000
00003001
00000100
,
00000000
00001100
00000000
00011000
00000000
00110000
00000000
00200000
,
00000000
00000000
10000000
00000000
02300000
00000000
03010000
00100000
,
00000000
01100000
00000000
01010000
00000000
00011000
00000000
00001000
,
00000200
00000000
00000301
00000200
00000000
00001300
00000000
00020000
,
00000000
00230000
00000000
00320000
00000000
00030020
00000000
00002030
,
00000000
00000000
00003001
00000010
00000000
00000100
00000000
00010100
,
00000000
00011000
00000000
01001000
00000000
01100000
00000000
10100000
,
10000000
01000000
10000000
01000000
10000000
01000000
01000000
01000000
,
00100000
00001000
00010000
01000000
00100000
00001000
00010000
01000000
,
00000000
00010000
00001000
00010000
00001000
00010000
00010000
00010000
,
00000010
00000100
00000001
00001000
00000010
00000100
00000001
00001000
,
00000000
00000001
00000100
00000001
00000100
00000010
00000010
00000010
,
00010000
00001000
00000100
00000010
00010000
00001000
00000100
00000010
,
00000000
00010000
00001000
00010000
00001000
01000000
01000000
01000000
,
00100000
10000000
10000000
10000000
00010000
00000000
10020000
00000000
,
01030000
00001000
00001000
00001000
00011000
00000000
00020100
00000000
,
00030100
00000010
00000100
00000010
00000001
00000001
00000201
00000000
,
00000300
00000000
00001000
00010000
00001000
00000000
01000000
00000000
00100000
10000000
00100000
00000000
01000000
00000000
00010000
00000000
,
00100000
01000000
00100000
00000000
01000000
00100000
01000000
00000000
00010000
00000000
00001000
00000000
00000010
00000000
00000001
00000000
,
00000000
00001000
00001000
00001000
00001100
00000000
00020100
00000000
,
01030000
00000000
00100000
00010000
00100000
00000000
00010000
10000000
00010000
00000000
10000000
00000000
00100000
00000000
00010000
00000000
,
00000000
00100000
01000000
00001000
00010000
00000010
00000100
00000001
,
00000010
00000001
00000100
00000010
00001000
00010000
01000000
00100000
,
10000000
00000000
20000000
30000000
00000000
10000000
00000000
01000000
,
00000000
01000000
00000000
02000000
03000000
01000000
00000000
01000000
,
00100000
00000000
00200000
00300000
00000000
00100000
00000000
00010000
,
00000000
00010000
00000000
00020000
00030000
00010000
00000000
00010000
,
00001000
00000000
00002000
00003000
00000000
00001000
00000000
00000100
,
00000000
00000100
00000000
00000200
00000300
00000100
00000000
00000100
,
00000010
00000000
00000020
00000030
00000000
00000010
00000000
00000001
,
00000000
00000001
00000000
00000002
00000003
00000001
00000000
00000001
,
00000200
00000000
00000000
00000000
00000320
00000000
00000000
00010030
,
00000000
00001000
00000000
00200000
00000000
01300000
00000000
20000000
,
00000000
00000000
00000000
00000000
32000000
00000000
00000000
03010000
,
00000000
00001000
00000000
00000200
00000000
00000310
00000000
00002000
,
00000000
00000000
00000000
00000000
00003002
00000000
00000000
00000013
,
00000000
00000100
00000000
00020000
00000000
00031000
00000000
02000000
,
00000000
00000000
00000000
00000000
03000000
00100000
10000000
00200000
,
00000000
00000000
00000000
00000000
00300000
01000000
00010000
10000000
,
02000000
00000000
00100000
00000000
03200000
00000000
00301000
00011000
,
00000000
00010000
00000000
00010200
00000000
00000310
00000000
00000002
,
00000000
00000000
00000100
00000000
00000023
00000000
00000130
00010100
,
00000000
00010000
00000000
00012000
00000000
01003000
00000000
00100000
,
20000000
00000000
31000000
00200000
00000000
00301000
00000000
00012000
,
00000000
00003100
00000000
00021000
00000000
02030000
00000000
23000000
,
00000000
00000000
30100000
00010000
00000000
00001000
00000000
00011000
,
00000000
00001001
00000000
00011000
00000000
10010000
00000000
00011000
,
00001000
00000000
00000100
00000000
00000010
00000000
00000100
00000000
00001000
00010000
00000000
01000000
00000000
00000000
10000000
00000000
,
00100000
00000000
01000000
00000000
00010000
00000000
01000000
00000000
00100000
10000000
00000000
01000000
00000000
00100000
00001000
00000000
,
00010000
00000000
00000100
00000000
00000010
00000000
00000100
00000000
00001000
00000010
00000000
00000100
00000000
00000000
00000001
00000000
,
00000100
00000010
00000100
00000000
00001000
00000000
00010000
00000000
00100000
01000000
00000000
00100000
00000000
00000000
10000000
00000000
,
01000000
00000000
00010000
00000000
00001000
00000000
00010000
00000000
00100000
01000000
00000000
00010000
00000000
00000000
00100000
00000000
,
00001000
00000100
00000010
00000100
00001000
00010000
00100000
00010000
,
00001000
00000010
00001000
00010000
01000000
00010000
00001000
00000200
,
00000000
00000310
00010000
01000000
10000000
01000000
00010000
00001000
,
00000200
00000000
00000310
00000000
00001000
00000100
00000010
00000200
,
00000000
00000000
00020300
00000000
00000000
00000000
00032000
00000000
00000000
00000000
00203000
00000000
00000000
00000000
01300000
10000000
,
02000000
00000000
03100000
00001000
00010000
00001000
00000100
00001000
,
00000100
00000001
00000010
00000100
00001000
00000010
00000100
00001000
,
00020000
00000000
00130000
01000000
00000000
00010000
00000000
10000000
,
01000000
00010000
00001000
00000100
00001000
00010000
00100000
20000000
,
00000000
00000000
31000000
00100000
00000000
00001000
00000000
00011000
,
00000000
10010000
00000000
00011000
00000000
00001001
00000000
00011000
,
01000000
00000000
00000000
00000000
;

//---------------dance-double - ----------------
#NOTES:
     dance-double:
     :
     Medium:
     7:
     0.503,0.479,0.117,0.151,0.000:
00000000
00000000
00000000
00000000
,
00000000
00000000
00000000
00000000
,
00000000
00000000
00000000
00000000
,
00000000
00000000
00000000
00000000
,
00010000
00000000
00000200
00000000
00000000
00001300
00000000
00000010
,
00000000
00000100
00000000
00000001
00001000
00000001
00000000
00001000
,
00000100
00010000
00100000
00010000
,
00001000
00000010
00001000
01000000
,
00010000
00000000
10000000
00000000
00010000
01000000
00010000
00000000
,
10000000
00000000
01000000
00000000
00100000
00001000
00100000
00000000
,
00001000
00000000
00010000
00000000
00000010
00001000
00000010
00000000
,
00000100
00000000
00001000
00000000
00010000
00001000
00010000
00000000
,
00001000
00000000
00000100
00000000
00000001
00001000
00000001
00000000
,
00001000
00000000
00000100
00000000
00000010
00000001
00000010
00000000
,
00000001
00000100
00000000
00001000
00000000
00010000
00000000
00100000
,
00000000
10000000
00000000
00010000
00000000
00100000
01100000
00000000
,
20000000
00000000
31000000
00000000
00200000
00000000
00301000
00010000
,
00000000
00000100
00000000
00001000
00000000
00001010
00000000
00000200
,
00000000
00000000
00000301
00000000
00000020
00000000
00000130
00010000
,
00000000
00001000
00000000
00010000
00000000
01000000
00000000
00200000
,
00000000
00000000
00310000
00000000
02000000
00000000
03100000
10000000
,
00000000
01000000
00000000
00100000
00000000
00101000
00000000
00002000
,
00000000
00000000
00010000
00000000
00013000
00000100
00000010
00000200
,
00000000
00000010
00000000
00000310
00000000
00000001
00000100
00000010
,
00002000
00000000
00003100
00000000
00020000
00000000
00031000
01000000
,
00000000
00100000
00000000
10000000
00000000
10010000
00000000
00020000
,
00000000
00000000
00130000
00000000
02000000
00000000
13000000
01000000
,
00000000
00010000
00000000
00001000
00000000
00000100
00000000
00000010
,
00001000
00000000
00000100
00001000
00000000
00000010
00000000
00000100
,
00000000
00001000
00000000
00010000
00000000
00100000
00000000
20000000
,
00000000
00000000
30010000
00100000
00000000
01000000
00000000
10000000
,
00000000
11000000
00000000
00010000
00000000
01010000
00000000
10000000
,
00010000
01000000
00100000
10000000
,
01000000
00100000
01000000
00000000
01000000
00100000
01000000
00000000
,
00010000
00001000
00000010
00000100
,
00001000
00000001
00001000
00000000
00001000
00000001
00001000
00000000
,
00000001
00000100
00001000
00010000
,
00001000
00010000
00001000
00000000
00001000
00010000
00001000
00000000
,
00000100
00000010
00010000
00001000
,
00100000
01000000
01000000
00000000
01100000
00000000
10010000
00000000
,
10000000
01000000
00100000
00000000
01000000
00000000
01000000
00000000
,
00100000
00001000
00100000
00000000
00001000
00001000
00010000
00000000
,
00000010
00000000
00001000
00000000
00000010
00000100
00000010
00000000
,
00000010
00000100
00000010
00000100
00000010
00000010
00000100
00000000
,
00000001
00000100
00000001
00000000
00000100
00000000
00001000
00000000
,
00010000
00001000
00010000
00000000
00001000
00000000
01000000
00000000
,
00100000
10000000
01000000
00000000
00100000
00010000
01000000
00000000
,
00100000
00000000
10000000
00000000
01000000
00010000
00001000
00010000
,
00000100
00000000
00000010
00000000
,
00000001
00000000
00000100
00000010
,
00010000
00000000
00001000
00010000
00001000
00000000
00001000
01000000
,
00000000
01000000
00100000
10000000
00000000
10000000
00010000
00100000
,
01000000
00000000
00000000
00000000
00000000
00000000
10000000
01000000
,
01000000
00000000
00000000
00000000
00000000
00000000
10000000
01000000
,
01000000
00000000
00100000
00000000
00010000
00000000
00001000
00000100
,
00000000
00000010
00000000
00000001
00000000
00001000
00000001
00000000
,
00001000
00000000
00000100
00000000
00010000
00000000
00001000
01000000
,
00000000
00010000
00000000
00100000
00000000
01000000
00000000
10000000
,
00100000
00000000
01000000
00000000
00010000
00000000
00100000
00001000
,
00000000
00010000
00000000
00000010
00000000
00000100
00000000
00000001
,
00000010
00000000
00000001
00000000
00000100
00000000
00000010
00001000
,
00000000
00000100
00000000
00010000
00000000
00001000
00000000
01000000
,
00010000
00000000
10000000
00000000
00010000
00100000
00010000
01000000
,
00000000
00100000
00000000
00100000
00000000
10000000
01000000
00000000
,
00100000
00000000
00001000
00000000
00010000
00000000
00000010
00000100
,
00000000
00001000
00000000
00010000
00000000
00001000
00000000
01000000
,
00010000
00000000
00100000
00000000
01000000
00000000
00010000
00001000
,
00000000
00010000
00000000
00000100
00000000
00000010
00000000
00000001
,
00000100
00000000
00000010
00001000
00000000
00000100
00000000
00010000
,
00000000
00001000
00000000
00010000
00000000
01000000
00000000
00200000
,
00000000
00300000
00010000
10000000
00000000
00100000
00000000
01000000
,
00000000
00010000
00000000
10010000
00000000
10010000
00000000
10000000
,
01000000
00000000
00100000
00000000
01000000
10000000
01000000
00000000
,
00100000
00001000
00010000
00000010
,
00000100
00000000
00000001
00000000
00001000
00000100
00001000
00000000
,
00000010
00000100
00001000
00010000
,
00100000
00000000
01000000
00000000
00010000
00100000
00010000
00000000
,
10000000
01000000
10000000
00000000
00010000
00100000
00010000
00000000
,
10000000
00000000
01000000
00000000
00010000
00001000
00010000
00000100
,
00000000
00000010
00000000
00000001
00000100
00000000
00000010
00000000
,
00002002
00000000
00003003
00000000
00000000
00000001
00000010
00000001
,
00000000
00000100
00000000
00000010
00000000
00010000
00000000
00001000
,
00010000
00000000
00001000
01000000
00000000
00010000
00000000
00100000
,
01000000
00010000
00001000
00000010
,
00001000
00000000
00010000
00100000
00000000
01000000
00000000
00010000
,
00000000
00001000
00000000
00000010
00000000
00000100
00000010
00000200
,
00000000
00000300
00000001
00000010
00000000
00000100
00000000
00001000
,
00000000
00001100
00000000
00000001
00000000
00000101
00000000
00001000
,
00001001
00000000
00000000
00000000
;

//---------------dance-double - ----------------
#NOTES:
     dance-double:
     :
     Easy:
     4:
     0.300,0.369,0.017,0.008,0.000:
00000000
00000000
00000000
00000000
,
00000000
00000000
00000000
00000000
,
00000000
00000000
00000000
00000000
,
00000000
00000000
00000000
00000000
,
00010000
00000000
00010000
00000000
00000000
00010000
00000000
00001000
,
00000000
00001000
00000000
01000000
00000000
01000000
00000000
01000000
,
00100000
10000000
00010000
00100000
,
01000000
10000000
00010000
10010000
,
10000000
01000000
00100000
00010000
,
00100000
01000000
10000000
00000000
,
01000000
00010000
00001000
00000010
,
00001000
00010000
00001000
00000000
,
00000100
00000010
00001000
00000001
,
00000100
00000010
00001000
00000001
,
00000010
00000000
00000100
00000000
00001000
00000000
00000001
00001000
,
00000000
00000001
00000000
00000100
00000000
00000010
00001000
00000000
,
00000100
00000000
00000000
00000000
00010000
00000000
00000000
00001000
,
00000000
01000000
00000000
00010000
00000000
10000000
00000000
01000000
,
00000000
00000000
00000000
00000000
00100000
00000000
00000000
00001000
,
00000000
00010000
00000000
00001000
00000000
00000100
00000000
00000010
,
00000000
00000000
00000000
00000000
00010000
00000000
00000000
00001000
,
00000000
01000000
00000000
00010000
00000000
00100000
00000000
01000000
,
00000000
00000000
00000000
00000000
00000000
10000000
00000000
10000000
,
00000000
00000000
00000000
00000000
00000000
00010000
00010000
00000000
,
01000000
00000000
00000000
00000000
00100000
00000000
00000000
01000000
,
00000000
00001000
00000000
00010000
00000000
00000010
00000000
00001000
,
00000000
00000000
00000000
00000000
00000100
00000000
00000000
00000010
,
00000000
00000001
00000000
00000010
00000000
00000100
00000000
00000000
,
00010000
00000000
00000000
00001000
00000000
00000000
00000000
00010000
,
00000000
00001000
00000000
00010000
00000000
01000000
00000000
00100000
,
00000000
00000000
00000000
00010000
00000000
10000000
00000000
00010000
,
00000000
00010000
00000000
00010000
00000000
00010000
00000000
00010000
,
10000000
01000000
00100000
00000000
,
01000000
00100000
00001000
00000000
,
00100000
00001000
00010000
00000000
,
00001000
00010000
00000100
00000000
,
00010000
00000100
00000010
00000000
,
00000100
00000010
00000001
00000000
,
00000010
00000001
00001000
00000010
,
00000100
00000100
00000100
00000000
,
00000001
00000001
00000010
00000000
,
00000001
00000100
00000010
00000000
,
00010000
00001000
00010000
00000000
,
00001000
01000000
00100000
00000000
,
10000000
01000000
00100000
00000000
,
00001000
01000000
00001000
00010000
,
00001000
00010000
01000000
10000000
,
00100000
01000000
00001000
00010000
,
00000010
00000000
00000000
00000000
00000000
00000000
00000000
00000100
,
00000000
00000000
00000000
00000000
,
00001000
00000000
00000000
00000000
00000000
00000000
00000000
00010000
,
00000000
00000000
00000000
00000000
,
01000000
00000000
00000000
00000000
00000000
00000000
00000000
00100000
,
00000000
00000000
00000000
00000000
,
00001000
00000000
00000000
00000000
00000000
00000000
00000000
00010000
,
00000000
00000000
00000000
00000000
,
00000100
00000000
00000100
00000000
,
00000010
00000000
00000010
00000000
,
00000001
00000000
00000001
00000000
,
00000100
00000000
00000100
00000000
,
00001000
00000000
00001000
00000000
,
00010000
00000000
00010000
00000000
,
00100000
00000000
00000000
00000000
00100000
00000000
00000000
00200000
,
00000000
00300000
00000000
10000000
,
10000000
00000000
01000000
00000000
,
00100000
00001000
00010000
00001000
,
00000100
00000000
00000010
00000000
,
00001000
00000100
00000010
00000001
,
00001000
00000000
00000010
00000000
,
00000100
00001000
00010000
00001000
,
01000000
00000000
00000000
00000000
00010000
00000000
00000000
10000000
,
00000000
10000000
00000000
10000000
00000000
10000000
00000000
10000000
,
01000000
00100000
01000000
00000000
,
10000000
00010000
10000000
00000000
,
01000000
00010000
00001000
00000000
,
00010000
00001000
00010000
00000000
,
00001000
00000100
00000010
00000000
,
00001000
00000100
00000010
00000000
,
00000001
00000100
00000010
00001000
,
00000100
00000000
00000100
00000000
,
00010000
00011000
00000000
00001000
,
01000000
00010000
00100000
00000000
,
01000000
10000000
00010000
00000000
,
01000000
00001000
00010000
00000000
,
00000100
00001000
00000010
00000100
,
00000001
00000000
00000001
00000000
,
00000010
00000000
00000100
00000000
00000100
00000000
00000000
00010000
,
00000000
00010000
00000000
00010000
00000000
00010000
00000000
00010000
,
00001000
00000000
00000000
00000000
;

//---------------dance-single - ----------------
#NOTES:
     dance-single:
     :
     Easy:
     4:
     0.261,0.295,0.000,0.008,0.000: // measure 1
0000
0000
0000
0000
,  // measure 2
0000
0000
0000
0000
,  // measure 3
0000
0000
0000
0000
,  // measure 4
0000
0000
0000
0000
,  // measure 5
0001
0100
0000
0100
,  // measure 6
0010
1000
0000
1000
,  // measure 7
0100
0010
0000
0010
,  // measure 8
0001
1000
0010
0000
,  // measure 9
0100
0100
0001
0000
,  // measure 10
0001
0001
1000
0000
,  // measure 11
1000
1000
0100
0000
,  // measure 12
0100
0100
0010
0000
,  // measure 13
0010
0010
0001
0000
,  // measure 14
0001
0001
1000
0000
,  // measure 15
1000
1000
0010
0000
,  // measure 16
0200
0000
0300
0000
,  // measure 17
0001
0000
1000
0000
,  // measure 18
0010
0100
0001
1000
,  // measure 19
0100
0000
0010
0000
,  // measure 20
0100
1000
0001
0010
,  // measure 21
0100
0000
1000
0000
,  // measure 22
0010
0100
0001
0010
,  // measure 23
0100
0000
0010
0000
,  // measure 24
0001
0001
0001
0000
,  // measure 25
1000
0000
0010
0000
,  // measure 26
0100
0001
0010
0100
,  // measure 27
1000
0000
0100
0000
,  // measure 28
0010
0001
0100
0001
,  // measure 29
1000
0000
0100
0000
,  // measure 30
0010
0100
1000
0100
,  // measure 31
0010
0000
0001
0000
,  // measure 32
0100
0100
0100
0000
,  // measure 33
0010
0000
0010
0000
,  // measure 34
0010
0100
0010
0000
,  // measure 35
0100
0000
0100
0000
,  // measure 36
0100
0010
0100
0000
,  // measure 37
0001
0000
0001
0000
,  // measure 38
0001
1000
0001
0000
,  // measure 39
1000
0000
1000
0000
,  // measure 40
1000
0001
1000
0000
,  // measure 41
0100
0000
0100
0000
,  // measure 42
0010
0001
0100
0000
,  // measure 43
0010
1000
0100
0000
,  // measure 44
0010
0100
1000
0000
,  // measure 45
0010
0100
0001
0000
,  // measure 46
1000
0001
0100
0000
,  // measure 47
0001
1000
0100
0000
,  // measure 48
0001
0100
1000
0010
,  // measure 49
0100
0000
0000
0000
,  // measure 50
0001
0000
0000
0000
,  // measure 51
1000
0000
0000
0000
,  // measure 52
0100
0000
0000
0000
,  // measure 53
0010
0000
0000
0000
,  // measure 54
0001
0000
0000
0000
,  // measure 55
0100
0000
0000
0000
,  // measure 56
0010
0000
0000
0000
,  // measure 57
1000
0000
1000
0000
,  // measure 58
0100
0000
0100
0000
,  // measure 59
0001
0000
0001
0000
,  // measure 60
0010
0000
0010
0000
,  // measure 61
1000
0000
1000
0000
,  // measure 62
0100
0000
0100
0000
,  // measure 63
0001
0000
0001
0000
,  // measure 64
0010
0000
0010
0000
,  // measure 65
1000
0000
0100
0000
,  // measure 66
0010
0100
1000
0000
,  // measure 67
0010
0000
0100
0000
,  // measure 68
0001
1000
0100
0000
,  // measure 69
0010
0000
0001
0000
,  // measure 70
0100
0010
1000
0000
,  // measure 71
0100
0000
0010
0000
,  // measure 72
0001
1000
0001
0000
,  // measure 73
1000
0100
1000
0000
,  // measure 74
0001
0100
0001
0000
,  // measure 75
1000
0010
0100
0000
,  // measure 76
0001
0010
0100
0000
,  // measure 77
1000
0001
0100
0000
,  // measure 78
0001
1000
0100
0000
,  // measure 79
1000
0001
0010
0100
,  // measure 80
1000
0000
0010
0000
,  // measure 81
0100
0100
0000
0001
,  // measure 82
1000
0000
0100
0000
,  // measure 83
0010
0001
0100
0000
,  // measure 84
0010
1000
0100
0001
,  // measure 85
0100
0000
0010
0000
,  // measure 86
0001
0100
1000
0100
,  // measure 87
0010
0000
1000
0000
,  // measure 88
0001
1000
0001
1000
,  // measure 89
0010
0000
0000
0000
;

//---------------dance-single - ----------------
#NOTES:
     dance-single:
     :
     Beginner:
     1:
     0.105,0.147,0.000,0.000,0.000: // measure 1
0000
0000
0000
0000
,  // measure 2
0000
0000
0000
0000
,  // measure 3
0000
0000
0000
0000
,  // measure 4
0000
0000
0000
0000
,  // measure 5
0010
0000
0000
0000
,  // measure 6
0010
0000
0000
0000
,  // measure 7
0010
0000
0010
0000
,  // measure 8
0010
0000
0000
0000
,  // measure 9
0100
0000
0000
0000
,  // measure 10
0100
0000
0000
0000
,  // measure 11
0100
0000
0000
0000
,  // measure 12
0100
0000
0000
0000
,  // measure 13
0001
0000
0000
0000
,  // measure 14
0001
0000
0000
0000
,  // measure 15
1000
0000
1000
0000
,  // measure 16
1000
0000
0000
0000
,  // measure 17
0100
0000
0000
0000
,  // measure 18
0000
0000
0000
0000
,  // measure 19
0100
0000
0000
0000
,  // measure 20
0000
0000
0000
0000
,  // measure 21
0100
0000
0000
0000
,  // measure 22
0000
0000
0000
0000
,  // measure 23
0100
0000
0000
0000
,  // measure 24
0000
0000
0000
0000
,  // measure 25
0010
0000
0000
0000
,  // measure 26
0000
0000
0000
0000
,  // measure 27
0010
0000
0000
0000
,  // measure 28
0000
0000
0000
0000
,  // measure 29
0010
0000
0000
0000
,  // measure 30
0000
0000
0000
0000
,  // measure 31
0010
0000
0000
0000
,  // measure 32
0000
0000
0000
0000
,  // measure 33
0001
0000
0000
0000
,  // measure 34
0001
0000
0001
0000
,  // measure 35
0001
0000
0000
0000
,  // measure 36
1000
0000
1000
0000
,  // measure 37
1000
0000
0000
0000
,  // measure 38
0010
0000
0010
0000
,  // measure 39
0010
0000
0000
0000
,  // measure 40
0100
0000
0100
0000
,  // measure 41
0100
0000
0000
0000
,  // measure 42
0001
0000
0000
0000
,  // measure 43
1000
0000
1000
0000
,  // measure 44
1000
0000
0000
0000
,  // measure 45
0100
0000
0000
0000
,  // measure 46
0010
0000
0000
0000
,  // measure 47
0001
0000
0001
0000
,  // measure 48
0001
0000
0000
0000
,  // measure 49
1000
0000
0000
0000
,  // measure 50
0000
0000
0000
0000
,  // measure 51
0010
0000
0000
0000
,  // measure 52
0000
0000
0000
0000
,  // measure 53
0100
0000
0000
0000
,  // measure 54
0000
0000
0000
0000
,  // measure 55
0001
0000
0000
0000
,  // measure 56
0000
0000
0000
0000
,  // measure 57
0010
0000
0000
0000
,  // measure 58
0010
0000
0000
0000
,  // measure 59
0100
0000
0000
0000
,  // measure 60
0100
0000
0000
0000
,  // measure 61
1000
0000
0000
0000
,  // measure 62
1000
0000
0000
0000
,  // measure 63
0001
0000
0000
0000
,  // measure 64
0001
0000
0000
0000
,  // measure 65
0100
0000
0000
0000
,  // measure 66
0001
0000
0000
0000
,  // measure 67
1000
0000
0000
0000
,  // measure 68
0100
0000
0000
0000
,  // measure 69
0010
0000
0000
0000
,  // measure 70
0001
0000
0000
0000
,  // measure 71
1000
0000
0000
0000
,  // measure 72
0010
0000
0000
0000
,  // measure 73
0100
0000
0100
0000
,  // measure 74
0100
0000
0000
0000
,  // measure 75
0001
0000
0001
0000
,  // measure 76
0001
0000
0000
0000
,  // measure 77
1000
0000
1000
0000
,  // measure 78
1000
0000
0000
0000
,  // measure 79
0100
0000
0100
0000
,  // measure 80
0100
0000
0000
0000
,  // measure 81
0010
0000
0000
0000
,  // measure 82
0001
0000
0000
0000
,  // measure 83
1000
0000
0000
0000
,  // measure 84
0010
0000
0010
0000
,  // measure 85
0010
0000
0000
0000
,  // measure 86
0100
0000
0100
0000
,  // measure 87
0100
0000
0000
0000
,  // measure 88
0001
0000
0001
0000
,  // measure 89
0001
0000
0000
0000
;
