#TITLE:みんなのマイマイマー;
#SUBTITLE:;
#ARTIST:ビートまりお(COOL&CREATE) + ARM(IOSYS);
#TITLETRANSLIT:minna no maimaimaa;
#SUBTITLETRANSLIT:;
#ARTISTTRANSLIT:beat Mario(COOL&CREATE) + ARM(IOSYS);
#GENRE:;
#CREDIT:;
#BANNER:;
#BACKGROUND:;
#LYRICSPATH:;
#CDTITLE:;
#MUSIC:[Qualifier Singles & Doubles] - minna no maimaimaa.ogg;
#OFFSET:-0.343;
#SAMPLESTART:78.516;
#SAMPLELENGTH:11.029;
#SELECTABLE:YES;
#BPMS:0.000=175.000
;
#STOPS:
;
#BGCHANGES:;
#KEYSOUNDS:;
#ATTACKS:;

//---------------dance-single - ----------------
#NOTES:
     dance-single:
     :
     Hard:
     8:
     0.583,0.526,0.487,0.104,0.030,402.000,56.000,12.000,0.000,0.000,0.000,0.583,0.526,0.487,0.104,0.030,402.000,56.000,12.000,0.000,0.000,0.000:
0000
0000
0000
0000
,
0000
0000
0000
0000
,
0000
0000
0000
0000
,
0000
0000
0000
0000
,
0000
0000
0000
0000
0000
0000
0000
1001
,
0000
1000
0100
0000
0100
0000
0000
1001
,
0000
0001
0100
0000
0100
0000
0000
0000
,
0000
1010
0000
0011
,
0200
0000
0300
0000
,
1010
0000
0011
0000
1010
0000
0001
1000
,
0100
1000
0001
0000
0100
0000
0010
0000
,
1000
0000
0000
1000
0000
0000
0010
0000
0100
0000
0001
0000
0010
0000
1000
0000
,
0010
0100
0010
0001
0010
0100
0010
0000
,
0011
0000
1010
0000
0011
0000
1000
0001
,
0100
0001
1000
0000
0100
0000
0010
0000
,
0002
0103
2000
3100
,
0001
0010
0100
1000
0001
0000
0100
0000
,
0010
1000
0001
0000
0010
1000
0001
0000
,
1000
0001
0100
0001
1000
0000
0100
0000
,
0010
0001
1000
0000
0010
0001
1000
0000
,
0001
1000
0100
1000
0010
0010
0100
0000
,
0002
0203
0310
0000
,
2000
3200
0310
0000
,
1100
0000
0101
0000
,
2002
0000
0000
3003
,
0001
1000
0010
0000
1000
0001
0100
0000
,
0001
1000
0010
0100
0001
0000
1001
0000
,
1000
0100
0010
0000
0001
0010
0100
0000
,
1000
0100
0010
0001
0100
0100
0010
0000
,
1000
0010
1000
0010
0100
0010
0100
0010
,
1000
0010
0100
0001
0010
0100
1000
0000
,
0001
1000
0100
0001
0100
1000
0100
0010
,
0000
0110
0110
0000
,
0010
0001
0000
0010
0100
1000
0000
0100
,
0010
0001
0100
0010
1000
0000
1001
0000
,
0001
0010
0100
0010
0001
0100
0010
0100
,
0001
1000
0100
0010
0100
0000
0110
0000
,
0100
1000
0000
0100
0010
0001
0000
0010
,
0100
1000
0001
1000
0001
0000
1001
0000
,
0001
0010
0100
1000
0010
0100
0001
0000
,
1000
0001
0100
0000
0110
0110
0110
0000
,
0100
0001
0000
1000
0010
0100
0000
0001
,
1000
0100
1000
0001
0100
0000
0110
0000
,
0010
1000
0001
1000
0100
0010
0001
1000
,
0010
0100
0010
0100
0010
0000
0110
0000
,
0010
1000
0000
0001
0100
0010
0000
0100
,
0001
1000
0100
1000
0001
0000
1001
0000
,
0001
0100
0010
0100
0001
0010
0100
1000
,
0010
0100
0010
0100
0010
0000
0000
0101
,
0000
0100
0001
0000
1000
0000
0000
1100
,
0000
0100
1000
0000
0001
0000
0000
0011
,
0000
0001
1000
0000
0010
0000
0000
1010
,
0000
1000
0001
0000
0100
0000
0000
0110
,
0000
0100
0001
0000
1000
0000
0000
1001
,
0000
0001
0100
0000
0010
0000
0000
0000
,
0010
0000
0000
0000
0010
0000
0000
0000
1000
0000
0000
0000
1000
0000
0000
0000
0100
0000
0000
0000
0000
0002
0000
0000
,
0000
0100
0100
0103
,
1100
0000
0110
0000
0011
0000
0001
0100
,
0010
0100
0001
0000
1001
0000
0001
1000
,
0100
0000
1000
0001
0100
0001
0010
0001
,
0100
0100
0110
0000
,
0101
0000
0110
0000
1010
0000
1000
0001
,
0010
0001
1000
0000
1001
0000
0001
0010
,
0100
0000
0010
0001
1000
0001
0100
0010
,
0100
0000
0000
0100
0000
0000
0100
0000
0110
0000
0000
0000
0000
0000
0000
0000
,
1010
0000
0110
0000
0101
0000
0100
0001
,
0100
0010
0100
0000
0010
1000
0010
0100
,
0010
0001
0010
0100
0001
0010
0100
1000
,
0001
0001
1001
0000
,
0011
0000
0110
0000
1100
0000
0100
0010
,
0100
0001
0100
0000
0100
1000
0001
0000
,
0000
0011
0000
1010
,
0100
0000
0000
0100
0000
0000
0100
0000
0100
0000
0000
0000
0000
0000
0000
0000
,
0011
0000
1010
0000
0011
0000
1000
0001
,
0100
0001
1000
0000
0100
0000
0010
0000
,
0001
0000
0000
0001
0000
0000
0010
0000
0100
0000
1000
0000
0010
0000
0001
0000
,
0010
0100
0010
1000
0010
0100
0010
0000
,
1010
0000
0011
0000
1010
0000
0001
1000
,
0100
1000
0001
0000
0100
0000
0010
0000
,
2000
3100
0002
0103
,
1000
0010
0100
0001
0010
1000
1000
0000
;

//---------------dance-single - ----------------
#NOTES:
     dance-single:
     :
     Beginner:
     1:
     0.107,0.210,0.096,0.000,0.000,75.000,11.000,0.000,0.000,0.000,0.000,0.107,0.210,0.096,0.000,0.000,75.000,11.000,0.000,0.000,0.000,0.000:
0000
0000
0000
0000
,
0000
0000
0000
0000
,
0000
0000
0000
0000
,
0000
0000
0000
0000
,
0000
0000
0000
0000
,
0000
0000
0000
0000
,
0000
0000
0000
0000
,
0000
0000
0000
0000
,
0000
0000
0000
0000
,
1000
0000
0000
0000
,
1000
0000
0000
0000
,
0001
0000
0000
0000
,
0001
0000
0000
0000
,
1000
0000
0000
0000
,
0001
0000
0000
0000
,
0001
0000
0000
0000
,
1000
0000
0000
0000
,
0001
0000
0000
0000
,
0001
0000
0000
0000
,
1000
0000
0000
0000
,
1000
0000
0000
0000
,
0010
0000
0000
0000
,
0010
0000
0000
0000
,
0010
0000
0010
0000
,
0010
0000
0000
0000
,
1000
0000
0000
0000
,
1000
0000
1000
0000
,
0001
0000
0000
0000
,
0001
0000
0001
0000
,
1000
0000
0000
0000
,
1000
0000
0000
0000
,
0001
0000
0000
0000
,
0000
1001
0000
0000
,
0010
0000
0000
0000
,
0010
0000
0000
0000
,
0100
0000
0000
0000
,
0100
0000
0000
0000
,
0001
0000
0000
0000
,
1000
0000
0000
0000
,
0001
0000
0000
0000
,
1000
0000
1001
0000
,
1000
0000
0000
0000
,
1000
0000
0000
0000
,
0001
0000
0000
0000
,
1001
0000
0000
0000
,
0010
0000
0000
0000
,
0100
0000
0000
0000
,
0010
0000
0000
0000
,
0110
0000
0000
0000
0000
0000
0000
0110
,
0000
0000
0000
0000
0000
0000
0000
0110
,
0000
0000
0000
0000
0000
0000
0000
0110
,
0000
0000
0000
0000
0000
0000
0000
0110
,
0000
0000
0000
0000
0000
0000
0000
1001
,
0000
0000
0000
0000
0000
0000
0000
1001
,
0000
0000
0000
0000
,
0000
0000
0000
0000
,
0000
0000
0000
0000
,
1000
0000
0000
0000
,
0001
0000
0000
0000
,
1000
0000
0000
0000
,
1000
0000
0000
0000
,
0001
0000
0000
0000
,
1000
0000
0000
0000
,
0001
0000
0000
0000
,
0001
0000
0000
0000
,
0100
0000
0000
0000
,
0010
0000
0000
0000
,
0100
0000
0000
0000
,
0100
0000
0000
0000
,
0010
0000
0000
0000
,
0100
0000
0000
0000
,
0000
0010
0000
0010
,
0000
0000
0000
0000
,
1000
0000
0000
0000
,
1000
0000
0000
0000
,
0001
0000
0000
0000
,
0001
0000
0000
0000
,
1000
0000
0000
0000
,
0001
0000
0000
0000
,
1000
0000
0000
0000
,
0001
0000
0000
1001
;

//---------------dance-single - ----------------
#NOTES:
     dance-single:
     :
     Medium:
     6:
     0.446,0.456,0.504,0.096,0.000,290.000,58.000,11.000,0.000,0.000,0.000,0.446,0.456,0.504,0.096,0.000,290.000,58.000,11.000,0.000,0.000,0.000:
0000
0000
0000
0000
,
0000
0000
0000
0000
,
0000
0000
0000
0000
,
0000
0000
0000
0000
,
0000
0000
0000
0000
0000
0000
0000
1001
,
0000
0000
0001
0000
0100
0000
0000
1001
,
0000
1000
0100
0000
,
0000
0010
0000
0010
,
0200
0000
0300
0000
,
1000
0000
1000
0000
1100
0000
0000
1000
,
0000
0001
1000
0000
1001
0000
0000
0000
,
0001
0000
0001
0000
0100
0010
0100
0010
,
0100
0100
0101
0000
,
0001
0000
0001
0000
0011
0000
0000
0001
,
0000
1000
0001
0000
1001
0000
0000
0000
,
0020
0000
0230
0000
,
0310
0010
0110
0000
,
0001
0100
1000
0100
,
0001
0000
0010
0000
0100
0010
0100
0000
,
1000
0100
0001
0100
,
0010
0100
0010
0000
0001
0010
0001
0000
,
2000
0000
3010
0000
,
0002
0000
0013
0000
,
1100
0000
0101
0000
,
2002
0000
0000
3003
,
1000
0100
0001
0100
,
1000
0100
1000
0100
0010
0000
0110
0000
,
0001
0100
1000
0100
,
0001
0100
0001
0100
0010
0000
0110
0000
,
1000
0010
0100
0001
,
1000
0100
0010
0001
,
0100
0010
0100
0010
0100
0010
0100
0010
,
0000
1001
1001
0000
,
0001
0000
1000
0001
0100
0000
0000
0000
,
0001
0000
1000
0000
0001
1000
0100
0000
,
1000
0000
0100
0000
0010
0100
1000
0000
,
0001
0000
0100
0000
0010
0100
0001
0000
,
1000
0000
0010
0000
0100
0001
1000
0000
,
0001
0010
0110
0110
,
0010
0000
0100
1000
0001
0000
1000
0000
,
1001
0000
1001
0000
0010
0010
0010
0000
,
1000
0001
0100
0000
0001
0000
1000
0000
,
0001
1000
0100
0000
1000
0000
0001
0000
,
1000
0001
0000
0001
1000
0000
0010
0000
,
0110
0110
0110
0000
,
0001
0000
0100
0000
0001
0100
0001
0000
,
1000
0000
0100
0000
1000
0100
1000
0000
,
1100
0101
0011
1010
,
1100
0000
0101
0000
1001
0000
0000
1001
,
0000
0000
0001
0000
0100
0000
0000
1001
,
0000
0000
1000
0000
0100
0000
0000
0110
,
0000
0000
0010
0000
0100
0000
0000
0110
,
0000
0000
0100
0000
0010
0000
0000
0011
,
0000
0000
0001
0000
1000
0000
0000
1010
,
0000
1000
0001
0000
,
0020
0000
0000
0000
0000
0000
0000
0030
,
0000
0000
0000
0000
,
0110
0000
0110
0000
1001
0000
0000
1000
,
0000
0001
1000
0000
1001
0000
0001
1000
,
0010
0000
0100
0000
0001
0000
1000
0001
,
0010
0010
0110
0000
,
0110
0000
0110
0000
1001
0000
0000
0001
,
0000
1000
0001
0000
1001
0000
1000
0001
,
0010
0000
0100
0000
0010
0001
1000
0000
,
1010
1010
0101
0000
,
0001
0000
0001
0000
0101
0000
0100
0001
,
0000
0001
0100
0000
0101
0000
0100
0001
,
1000
0000
0100
0000
0100
1000
0100
1000
,
0001
0001
0011
0000
,
1000
0000
1000
0000
1100
0000
0100
1000
,
0000
1000
0100
0000
1100
0000
0100
1000
,
0001
0100
0000
0100
,
0020
0000
0030
0000
,
0001
0000
0001
0000
0101
0000
0000
0001
,
0000
1000
0001
0000
1001
0000
0000
0000
,
1000
0000
1000
0000
0100
0010
0100
0010
,
0100
0100
1100
0000
,
1000
0000
1000
0000
1010
0000
0000
1000
,
0000
0001
1000
0000
1001
0000
0000
0000
,
0020
0000
0230
0000
,
0310
0000
1000
0000
0001
1000
1001
0000
;

//---------------dance-single - ----------------
#NOTES:
     dance-single:
     :
     Easy:
     3:
     0.241,0.281,0.182,0.087,0.000,163.000,21.000,10.000,0.000,0.000,0.000,0.241,0.281,0.182,0.087,0.000,163.000,21.000,10.000,0.000,0.000,0.000:
0000
0000
0000
0000
,
0000
0000
0000
0000
,
0000
0000
0000
0000
,
0000
0000
0000
0000
,
0000
0000
0000
0000
0000
0000
0000
1001
,
0000
0000
0000
0000
0000
0000
0000
0110
,
0000
0000
0000
0000
,
0000
0110
0000
1001
,
0000
0000
0000
0000
,
1000
0001
1000
0000
,
0010
0100
0010
0000
,
1000
0001
0010
0100
,
1000
0001
0010
0000
,
0100
0010
0100
0000
,
0001
1000
0001
0000
,
0002
0003
2000
3000
,
0100
0100
0100
0000
,
0000
1000
0000
1000
,
0000
1000
1000
0001
,
0000
0001
0000
0001
,
1000
1000
0001
0001
,
0200
0000
0300
0000
,
0020
0000
0030
0000
,
0100
0000
0010
0000
,
0220
0000
0330
0000
,
0000
1000
0000
1000
,
0000
1000
1000
0001
,
0000
0001
0000
0001
,
1000
1000
0001
0001
,
0000
0100
0100
0010
,
0010
0100
0100
0010
,
0100
0010
0100
0100
,
0000
1001
0000
0000
,
1000
0000
0000
0000
,
1000
0000
0000
0000
,
0001
0000
0001
0000
,
1000
0000
1000
0000
,
0010
0000
0000
0000
,
0100
0000
0000
0000
,
0010
0000
0010
0000
,
0100
0000
0110
0000
,
0100
0000
0000
0000
,
0001
0000
0000
0000
,
1000
0000
1000
0000
,
1001
0000
0000
0000
,
0001
0000
0000
0000
,
0100
0000
0000
0000
,
0100
0100
0010
0010
,
0100
0000
0100
0000
0110
0000
0000
0110
,
0000
0000
0000
0000
0000
0000
0000
0110
,
0000
0000
0000
0000
0000
0000
0000
0110
,
0000
0000
0000
0000
0000
0000
0000
0110
,
0000
0000
0000
0000
0000
0000
0000
1001
,
0000
0000
0000
0000
0000
0000
0000
1001
,
0000
0000
0000
0000
,
2002
0000
0000
0000
0000
0000
0000
3003
,
0000
0000
0000
0000
,
0010
0010
0010
0000
,
0100
0100
0100
0000
,
0001
0000
1000
0000
,
0001
0000
1000
0000
,
0100
0100
0100
0000
,
0010
0010
0010
0000
,
0001
0000
1000
0000
,
1001
0000
1001
0000
,
1000
1000
1000
0000
,
0001
0001
0001
0000
,
0010
0000
0100
0000
,
0100
0000
0010
0000
,
0001
0001
0001
0000
,
1000
1000
1000
0000
,
0000
0110
0000
1001
,
0000
0000
0000
0000
,
0001
1000
0001
0000
,
0010
0100
0010
0000
,
0001
1000
0010
0100
,
0001
1000
0010
0000
,
1000
0001
1000
0000
,
0100
0010
0100
0000
,
2000
3000
0002
0003
,
0100
0100
0010
1001
;

//---------------dance-double - ----------------
#NOTES:
     dance-double:
     :
     Easy:
     3:
     0.223,0.246,0.122,0.043,0.000,161.000,14.000,5.000,0.000,0.000,0.000,0.223,0.246,0.122,0.043,0.000,161.000,14.000,5.000,0.000,0.000,0.000:
00000000
00000000
00000000
00000000
,
00000000
00000000
00000000
00000000
,
00000000
00000000
00000000
00000000
,
00000000
00000000
00000000
00000000
,
00000000
00000000
00000000
00000000
00000000
00000000
00000000
10010000
,
00000000
00000000
00000000
00000000
00000000
00000000
00000000
10010000
,
00000000
00000000
00000000
00000000
,
00000000
00100000
00000000
10000000
,
10000000
00000000
00000000
00000000
,
01000000
00010000
00001000
00000000
,
00010000
00001000
00000010
00000000
,
00001000
00000000
00000010
00000000
,
00000001
00000000
00000100
00000000
,
00000100
00001000
00010000
00000000
,
00001000
00010000
00100000
00000000
,
00100000
00000000
10000000
00000000
,
01000000
00000000
01100000
00000000
,
01000000
00000000
00100000
00000000
,
01000000
00010000
00001000
00000000
,
00010000
00000000
00001000
00000000
,
00001000
00000010
00000001
00000000
,
00000200
00000000
00000300
00000000
,
00000200
00000000
00000300
00000000
,
00000110
00000000
00001001
00000000
,
00000220
00000000
00000330
00000000
,
00000001
00000000
00000100
00000000
,
00000100
00001000
00010000
00000000
,
00001000
00000000
00010000
00000000
,
00100000
00100000
10000000
00000000
,
00010000
10000000
01000000
00000000
,
10000000
01000000
00100000
00000000
,
00010000
00100000
01000000
10000000
,
00000000
10010000
00000000
00000000
,
00000000
10000000
00000000
01000000
,
00000000
00010000
00000000
01000000
,
00000000
00100000
00000000
01000000
,
00000000
00010000
00010000
00010000
,
00000000
00001000
00000000
00000010
,
00000000
00000100
00000000
00000010
,
00000000
00000001
00000000
00000100
,
00000000
00001000
00001000
00000000
,
00000000
00010000
00000000
00100000
,
00000000
10000000
00000000
01000000
,
00000000
00100000
00000000
00010000
,
00000000
00010000
00010000
00010000
,
00000000
00001000
00000000
00000100
,
00000000
00000010
00000000
00000001
,
00000000
00001000
00000000
00000010
,
00000000
00000000
00000100
00000000
00000100
00000000
00000000
00000110
,
00000000
00000000
00000000
00000000
00000000
00000000
00000000
00000110
,
00000000
00000000
00000000
00000000
00000000
00000000
00000000
00000110
,
00000000
00000000
00000000
00000000
00000000
00000000
00000000
00000110
,
00000000
00000000
00000000
00000000
00000000
00000000
00000000
00000110
,
00000000
00000000
00000000
00000000
00000000
00000000
00000000
00000110
,
00000000
00000000
00000000
00000000
,
00000020
00000000
00000000
00000000
00000000
00000000
00000000
00000030
,
00000000
00000000
00000000
00000000
,
00000001
00000010
00001000
00000000
,
00010000
01000000
10000000
00000000
,
01000000
00000000
00010000
00000000
,
00100000
00000000
10000000
00000000
,
10000000
00100000
00010000
00000000
,
00001000
00000100
00000001
00000000
,
00000100
00000000
00001000
00000000
,
00000001
00000000
00000100
00000000
,
00000001
00000100
00001000
00000000
,
00010000
00100000
10000000
00000000
,
00100000
00000000
10000000
00000000
,
01000000
00000000
00010000
00000000
,
10000000
01000000
00010000
00000000
,
00001000
00000010
00000001
00000000
,
00000000
00000010
00000000
00000001
,
00000001
00000000
00000000
00000000
,
00000100
00001000
00010000
00000000
,
00001000
00010000
00100000
00000000
,
00100000
00000000
10000000
00000000
,
01000000
00000000
00010000
00000000
,
01000000
00010000
00001000
00000000
,
00010000
00001000
00000010
00000000
,
00000010
00000000
00000001
00000000
,
00000100
00000000
00000000
00000110
;

//---------------dance-double - ----------------
#NOTES:
     dance-double:
     :
     Medium:
     6:
     0.423,0.386,0.374,0.070,0.000,290.000,43.000,8.000,0.000,0.000,0.000,0.423,0.386,0.374,0.070,0.000,290.000,43.000,8.000,0.000,0.000,0.000: // measure 0
00000000
00000000
00000000
00000000
,  // measure 1
00000000
00000000
00000000
00000000
,  // measure 2
00000000
00000000
00000000
00000000
,  // measure 3
00000000
00000000
00000000
00000000
,  // measure 4
00000000
00000000
00000000
00000000
00000000
00000000
00000000
10010000
,  // measure 5
00000000
00000000
10000000
00000000
10000000
00000000
00000000
10010000
,  // measure 6
00000000
00010000
00010000
00000000
,  // measure 7
00000000
10010000
00000000
11000000
,  // measure 8
02000000
00000000
03000000
00000000
,  // measure 9
01000000
00100000
00010000
00001000
,  // measure 10
00000100
00001000
00000010
00000000
00000100
00000000
00000000
00000000
,  // measure 11
00001000
00000000
00000001
00000000
00001000
00000010
00000100
00000001
,  // measure 12
00000100
00000001
00001000
00000000
,  // measure 13
00000001
00000000
00000100
00000000
00001000
00000000
00000100
00001000
,  // measure 14
00010000
00000000
00001000
00010000
00100000
00000000
00000000
00000000
,  // measure 15
10100000
00000000
01010000
00000000
,  // measure 16
00100000
10000000
00010000
00100000
01000000
00000000
00000000
00000000
,  // measure 17
10000000
01000000
00010000
01000000
,  // measure 18
00100000
00000000
00010000
00000000
00001000
00000100
00000010
00000000
,  // measure 19
00000100
00000010
00000001
00001000
,  // measure 20
00000010
00000100
00000001
00000000
00000100
00000010
00001000
00000000
,  // measure 21
00000001
00000001
00000011
00000000
,  // measure 22
00001000
00001000
00001100
00000000
,  // measure 23
00001001
00000000
00011000
00000000
,  // measure 24
20020000
00000000
00000000
30030000
,  // measure 25
10000000
00100000
01000000
00010000
,  // measure 26
00010000
00100000
01000000
00100000
00010000
00000000
00000010
00000000
,  // measure 27
00001000
00000010
00000001
00001000
,  // measure 28
00000010
00000100
00001000
00000100
00000010
00000000
00010000
00000000
,  // measure 29
00002000
01000000
00010000
00103000
,  // measure 30
00020000
00000100
00001000
00030010
,  // measure 31
00000010
00001000
00000001
00000000
00000010
00000001
00000100
00000000
,  // measure 32
00000000
00000110
00000110
00000000
,  // measure 33
00000100
00000110
00000000
00000001
,  // measure 34
00000010
00000110
00000000
00000100
,  // measure 35
00001000
00001001
00000000
00000001
,  // measure 36
00000100
00000000
00000010
00000000
00000100
00001000
00010000
00000000
,  // measure 37
00100000
01100000
00000000
01000000
,  // measure 38
00010000
01010000
00000000
00010000
,  // measure 39
10000000
11000000
00000000
01000000
,  // measure 40
00100000
00000000
01000000
00000000
01000000
00010000
00001000
00000000
,  // measure 41
00000010
00000000
00000001
00000010
00000000
00000010
00000001
00000000
,  // measure 42
00000100
00000000
00000001
00000100
00000000
00000100
00000001
00000000
,  // measure 43
00001000
00000000
00000010
00000100
00000000
00000100
00000010
00000000
,  // measure 44
00000100
00001000
00010000
00100000
,  // measure 45
01000000
00000000
00100000
01000000
00000000
01000000
00100000
00000000
,  // measure 46
10000000
00000000
00010000
10000000
00000000
10000000
00010000
00000000
,  // measure 47
00100000
00000000
00010000
00100000
00000000
00100000
00010000
00000000
,  // measure 48
01000000
00000000
10000000
00000000
01000000
00000000
00000000
01100000
,  // measure 49
00000000
00000000
01000000
00000000
01000000
00000000
00000000
01100000
,  // measure 50
00000000
00000000
00100000
00000000
00100000
00000000
00000000
01100000
,  // measure 51
00000000
00000000
01000000
00000000
01000000
00000000
00000000
01100000
,  // measure 52
00000000
00000000
00100000
00000000
00100000
00000000
00000000
10010000
,  // measure 53
00000000
00000000
10000000
00000000
00010000
00000000
00000000
10010000
,  // measure 54
00000000
00010000
10000000
00000000
,  // measure 55
20000000
00000000
00000000
00000000
32000000
00000000
00000000
03010000
,  // measure 56
00000000
00000000
00000000
00000000
,  // measure 57
01010000
01100000
11000000
01000000
,  // measure 58
00010000
00000000
00001000
00000000
00000010
00000000
00000001
00000010
,  // measure 59
00000001
00000000
00000001
00001000
00000001
00000000
00000001
00000100
,  // measure 60
00000001
00000100
00001000
00000000
,  // measure 61
00001100
00000110
00000101
00000100
,  // measure 62
00001000
00000000
00010000
00000000
00100000
00000000
10000000
00100000
,  // measure 63
10000000
00000000
10000000
00010000
10000000
00000000
01000000
00000000
,  // measure 64
00100000
00100000
01100000
00000000
,  // measure 65
00110000
01100000
10100000
00100000
,  // measure 66
00010000
00000000
00001000
00000000
00000100
00000000
00000001
00000100
,  // measure 67
00000010
00000000
00000100
00000010
00000001
00000000
00001000
00000000
,  // measure 68
00000010
00000001
00000010
00000000
,  // measure 69
00001010
00000110
00000011
00000010
,  // measure 70
00001000
00000000
00010000
00000000
01000000
00000000
10000000
01000000
,  // measure 71
00000000
01010000
00000000
10100000
,  // measure 72
20000000
00000000
30000000
00000000
,  // measure 73
01000000
00100000
00010000
00001000
,  // measure 74
00000100
00001000
00000010
00000000
00000100
00000000
00000000
00000000
,  // measure 75
00001000
00000000
00000001
00000000
00001000
00000010
00000100
00000001
,  // measure 76
00000100
00000001
00001000
00000000
,  // measure 77
00000001
00000000
00000100
00000000
00001000
00000000
00000100
00001000
,  // measure 78
00010000
00000000
00001000
00010000
00100000
00000000
00000000
00000000
,  // measure 79
10100000
00000000
00110000
00000000
,  // measure 80
00010000
00100000
01000000
00010000
00001000
00000000
00011000
00000000
;

//---------------dance-double - ----------------
#NOTES:
     dance-double:
     :
     Hard:
     8:
     0.528,0.456,0.408,0.087,0.043,368.000,47.000,10.000,0.000,0.000,0.000,0.528,0.456,0.408,0.087,0.043,368.000,47.000,10.000,0.000,0.000,0.000: // measure 0
00000000
00000000
00000000
00000000
,  // measure 1
00000000
00000000
00000000
00000000
,  // measure 2
00000000
00000000
00000000
00000000
,  // measure 3
00000000
00000000
00000000
00000000
,  // measure 4
00000000
00000000
00000000
00000000
00000000
00000000
00000000
10010000
,  // measure 5
00000000
00010000
01000000
00000000
00100000
00000000
00000000
01100000
,  // measure 6
00000000
00100000
10000000
00000000
01000000
00000000
00000000
00000000
,  // measure 7
00000000
11000000
00000000
00110000
,  // measure 8
00020000
00000000
00000000
00030000
,  // measure 9
00101000
00000000
00011000
00000000
00010010
00000000
00000010
00001000
,  // measure 10
00000000
00001000
00000100
00000000
00000001
00000000
00000100
00000000
,  // measure 11
00001000
00000000
00000000
00001000
00000000
00000000
00001000
00000000
00000100
00000000
00000010
00000000
00000001
00000000
00000100
00000000
,  // measure 12
00001000
00000000
00001000
00000100
00000001
00000000
00001000
00000000
,  // measure 13
00010100
00000000
00011000
00000000
01001000
00000000
01000000
00010000
,  // measure 14
00000000
00010000
01000000
00100000
10000000
00000000
01000000
00000000
,  // measure 15
00200000
10300000
02000000
13000000
,  // measure 16
01000000
00010000
00001000
00000010
00000001
00000000
00000100
00000000
,  // measure 17
00001000
00000100
00000001
00000100
,  // measure 18
00000010
00001000
00000010
00001000
00000001
00000000
00000001
00000000
,  // measure 19
00000010
00000100
00001000
00000001
,  // measure 20
00000100
00000001
00000010
00000000
00000001
00001000
00000010
00000000
,  // measure 21
00000200
00001000
00001300
00000000
,  // measure 22
00002000
00010000
00013000
00000000
,  // measure 23
00011000
00000000
01010000
00000000
,  // measure 24
02200000
00000000
00000000
03300000
,  // measure 25
00100000
10000000
00010000
00000000
10000000
00010000
01000000
00000000
,  // measure 26
00100000
01000000
00010000
00100000
01000000
00000000
00001000
00000000
,  // measure 27
01000000
00010000
00001000
00000000
00010000
00001000
00000010
00000000
,  // measure 28
00000010
00000100
00001000
00000010
00000100
00000000
00010000
00000000
,  // measure 29
00000100
00000000
00000001
00000000
00001000
00000000
00000100
00001000
,  // measure 30
00000001
00000100
00000010
00000001
,  // measure 31
00000001
00000010
00000100
00000001
00001000
00000100
00010000
00001000
,  // measure 32
00000000
00011000
10010000
00000000
,  // measure 33
10000000
00000000
01000000
01000000
00000000
10000000
01000000
00000000
,  // measure 34
00100000
00000000
00010000
00010000
00000000
00100000
00010000
00000000
,  // measure 35
10000000
00000000
00100000
00100000
00000000
10000000
00010000
00000000
,  // measure 36
00100000
00000000
00000000
00000000
01000000
00000000
00000000
00010000
00000100
00000000
00000010
00000000
00000001
00000000
00000000
00000000
,  // measure 37
00001001
00000000
00000010
00000010
00000000
00001000
00000001
00000000
,  // measure 38
00000100
00000000
00000010
00000010
00000000
00000100
00000001
00000000
,  // measure 39
00000100
00000000
00001000
00001000
00000000
00000100
00000001
00000000
,  // measure 40
00000100
00000000
00000000
00000000
00000010
00000000
00000000
00001000
00100000
00000000
01000000
00000000
00010000
00000000
00000000
00000000
,  // measure 41
10010000
00000000
10000000
10000000
00100000
01000000
00010000
00000000
,  // measure 42
10000000
00000000
01000000
01000000
00010000
00001000
00000010
00000000
,  // measure 43
00000100
00000000
00001000
00001000
00000100
00000010
00000001
00000000
,  // measure 44
00000100
00000000
00000000
00000000
00001000
00000000
00000000
00000100
00000001
00000000
00001000
00000000
00000010
00000000
00000000
00000000
,  // measure 45
00000110
00000000
00000100
00000100
00000001
00000100
00000010
00000000
,  // measure 46
00000001
00000000
00000010
00000010
00000100
00001000
00010000
00000000
,  // measure 47
01000000
00000000
10000000
10000000
01000000
00100000
00010000
00000000
,  // measure 48
10000000
00000000
00100000
00000000
01000000
00000000
00000000
01100000
,  // measure 49
00000000
01000000
00010000
00000000
00010000
00000000
00000000
10010000
,  // measure 50
00000000
10000000
01000000
00000000
01000000
00000000
00000000
00110000
,  // measure 51
00000000
00010000
01000000
00000000
01000000
00000000
00000000
10100000
,  // measure 52
00000000
10000000
01000000
00000000
01000000
00000000
00000000
01010000
,  // measure 53
00000000
01000000
00100000
00000000
00100000
00000000
00000000
11000000
,  // measure 54
00000000
10000000
00010000
00000000
00010000
00000000
00000000
00000000
,  // measure 55
10000000
00000000
00000000
00000000
01000000
00000000
00000000
00000000
00010000
00000000
00000000
00000000
00001000
00000000
00000000
00000000
00000100
00000000
00000000
00000000
00000000
00000002
00000000
00000000
,  // measure 56
00000000
00000100
00000100
00000103
,  // measure 57
00000101
00000000
00001010
00000000
00000101
00000000
00000001
00001000
,  // measure 58
00000100
00001000
00000010
00000000
00000100
00000000
00000010
00010000
,  // measure 59
00001000
00000000
00001000
00100000
00010000
01000000
00100000
10000000
,  // measure 60
00100000
10000000
11000000
00000000
,  // measure 61
11000000
00000000
00110000
00000000
11000000
00000000
01000000
10000000
,  // measure 62
00010000
10000000
00100000
00000000
01000000
00000000
01000000
00001000
,  // measure 63
00010000
00000000
00010000
00000100
00000010
00000001
00000100
00000001
,  // measure 64
00000010
00000000
00000000
00000010
00000000
00000000
00000010
00000000
00000011
00000000
00000000
00000000
00000000
00000000
00000000
00000000
,  // measure 65
00000011
00000000
00001100
00000000
00000011
00000000
00000010
00000001
,  // measure 66
00000100
00001000
00000100
00000000
00000010
00000000
00000010
00010000
,  // measure 67
00001000
00000000
00001000
00100000
00010000
01000000
00100000
00010000
,  // measure 68
00100000
00100000
01100000
00000000
,  // measure 69
01010000
00000000
10100000
00000000
01010000
00000000
01000000
00010000
,  // measure 70
00100000
01000000
00010000
00000000
01000000
00000000
01000000
00010000
,  // measure 71
00001000
00011000
00000000
00001001
,  // measure 72
00000010
00000000
00000000
00000010
00000000
00000000
00000010
00000000
00000010
00000000
00000000
00000000
00000000
00000000
00000000
00000000
,  // measure 73
00010010
00000000
00011000
00000000
00101000
00000000
00100000
00010000
,  // measure 74
00000000
00010000
01000000
00000000
10000000
00000000
01000000
00000000
,  // measure 75
00010000
00000000
00000000
00010000
00000000
00000000
00010000
00000000
01000000
00000000
00100000
00000000
10000000
00000000
01000000
00000000
,  // measure 76
00010000
00000000
00010000
01000000
10000000
00000000
00010000
00000000
,  // measure 77
01001000
00000000
00011000
00000000
00010100
00000000
00000100
00001000
,  // measure 78
00000000
00001000
00000100
00000010
00000001
00000000
00000100
00000000
,  // measure 79
00000020
00000031
00000200
00000301
,  // measure 80
00000001
00000100
00000010
00001000
00000100
00000001
00000001
00000000
;
