#TITLE:Valanga;
#SUBTITLE:;
#ARTIST:DJ TOTTO;
#TITLETRANSLIT:;
#SUBTITLETRANSLIT:;
#ARTISTTRANSLIT:;
#CREDIT:;
#BANNER:[Qualifier Singles & Doubles] - Valanga.png;
#BACKGROUND:[Qualifier Singles & Doubles] - Valanga-bg.png;
#LYRICSPATH:;
#CDTITLE:cdtitle.png;
#MUSIC:[Qualifier Singles & Doubles] - Valanga.ogg;
#OFFSET:-10.749;
#SAMPLESTART:21.080;
#SAMPLELENGTH:12.000;
#SELECTABLE:YES;
#BPMS:0.000=186.000;
#STOPS:;
#BGCHANGES:;

//---------------dance-single - ----------------
#NOTES:
     dance-single:
     :
     Hard:
     9:
     0.656,0.834,0.396,0.215,0.177:
1000
0000
0001
0100
0010
0000
0100
0100
,
0000
0001
0001
0000
1000
0000
0010
0000
,
0001
0000
1000
0010
0100
0010
0010
0000
,
0000
0100
0010
0000
1000
0001
0100
0000
,
0010
1000
0100
0000
0100
1000
0000
1000
,
0001
0000
0001
1000
0000
1000
0010
0100
,
0000
0010
1000
0100
0010
0001
0100
0010
,
0100
0001
0100
0010
1000
0100
0010
0001
0010
0100
1000
0010
0100
0000
0000
0000
,
0010
1000
0010
0000
1000
0010
1000
0000
,
0010
1000
0010
0000
0010
1000
0001
0000
,
0100
0010
0100
0000
0010
0100
0010
0000
,
0100
0010
0100
0000
0010
0010
0100
0010
,
0100
0001
0100
0000
0001
0100
0001
0000
,
0100
0001
0100
0000
0001
0100
0010
1000
,
0100
0001
0100
1000
0010
0001
0010
1000
,
0100
1000
0001
0100
0001
1000
0100
0010
,
0001
1000
0001
0000
0001
0100
0001
0000
,
0001
1000
0001
0000
0001
0100
0001
0000
,
0001
0010
0001
0000
0001
0100
0001
0000
,
0001
0010
0001
0000
0001
0010
0100
1000
,
0010
1000
0100
0000
0010
0001
0100
0000
,
0010
0100
0001
0000
0100
0010
1000
0001
,
0010
0000
0100
0000
0100
0010
0001
1000
,
0000
0100
0000
0010
0002
0000
0000
0000
,
1003
1010
0000
0010
1010
0000
1000
1010
,
0000
0010
1010
0000
1000
0000
0001
0000
,
0010
0011
0000
0001
0011
0000
0010
0011
,
0000
0001
0011
0000
0001
0000
1000
0000
,
0100
1100
0000
1000
1100
0000
0100
1100
,
0000
1000
1100
0000
1000
0000
0001
0000
,
0100
0101
0000
0001
0101
0000
0100
0101
,
0000
0001
0101
0000
0002
0103
0020
1030
,
0200
1000
0010
0001
,
0320
0001
0230
0010
,
2300
0001
0001
3001
,
0002
0000
0000
0203
0000
0000
0310
1000
0001
0010
0100
1000
,
0200
0010
0000
0010
0010
0000
0010
0310
,
0200
1000
1000
0000
0310
0001
1000
0010
,
1000
0010
0100
0000
0000
0000
0010
1000
0001
0000
0000
0000
0010
0100
1000
0000
,
0000
0000
0001
0100
0010
0000
0100
0001
1000
0100
0010
0001
1000
0100
0010
0002
,
2000
0000
0000
0000
,
0000
0000
0000
0000
3003
0000
1000
0001
1000
0000
0010
0000
0100
0000
0001
0000
,
1000
0000
0000
0001
0010
0000
0000
0010
0001
0000
0100
0000
0001
0000
1000
0000
,
0000
0000
0002
0000
0000
0000
0103
0010
1000
0000
0100
0000
0010
0000
0100
0000
,
1000
0000
0000
0001
0000
0000
0100
0000
0000
0001
0000
0000
1000
0000
0100
0000
,
0020
0000
0000
0000
0030
0000
0001
1000
0100
0000
1000
0000
0001
0000
0100
0000
,
0020
0000
0130
0000
0010
1000
1000
0001
,
0000
0000
1001
0000
0000
0000
1000
0001
1000
0000
0000
0100
0000
0000
1000
0000
,
0002
0000
0000
0000
0000
0000
0103
0000
0010
0000
0000
0100
0000
0000
0001
0000
,
0020
0000
0000
0000
0000
0000
0130
1000
0001
0000
0100
0000
0001
0000
1000
0000
,
0100
0000
0000
0010
0001
0000
0000
0001
1000
0000
0100
0000
0010
0000
0001
0000
,
0000
0000
0200
0000
0000
0000
0310
0100
0001
0000
0010
0000
0100
0000
0010
0000
,
0001
0000
0000
0100
0000
0000
0010
0000
0000
1000
0000
0000
0010
0000
1000
0000
,
0200
0000
0000
0000
0000
0000
0310
0001
1000
0000
1000
0000
0010
0000
1000
0000
,
0200
0000
0310
0000
0100
0010
0001
1000
,
0000
0000
0010
0000
0100
0001
0100
0000
1000
0000
0100
0000
0020
0000
0000
0000
,
0200
0030
0000
0002
0000
0000
0000
0000
,
0000
0000
0003
0300
,
0001
0001
1001
0000
1000
1000
1001
0000
,
0001
0001
1001
0000
1000
1000
1001
0000
,
0010
0010
0110
0000
0100
0100
0110
0000
,
0010
0010
0110
0000
0100
0001
0010
0100
,
1000
1000
1100
0000
0100
0100
0110
0000
,
0010
0010
0011
0000
0001
0001
0011
0010
,
0100
1000
0100
1000
0001
0100
0001
0010
,
0001
0100
1000
0100
0010
1000
0100
0010
,
0001
0100
1100
0000
1000
0100
0101
0000
,
0001
0010
1010
0000
1000
0010
0011
0000
,
0001
0010
1010
0000
1000
0010
0011
0000
,
0001
0100
1100
0000
1000
0100
0001
0010
,
0100
0010
1100
0000
0010
0001
1010
0000
,
0100
0010
1001
0000
1000
0001
0010
0100
,
1100
1100
0000
0110
0110
0000
0011
0011
,
0000
0000
1001
0000
1001
0000
0001
0010
0100
0010
0001
0010
0100
1000
0020
0000
,
0000
0000
0000
0000
,
0000
0000
0000
0000
,
0000
0000
0000
0000
,
0000
0000
0030
0000
;

//---------------dance-double - ----------------
#NOTES:
     dance-double:
     :
     Hard:
     9:
     0.648,0.818,0.482,0.181,0.129:
10000000
00000000
00010000
01000000
00000000
00100000
01000000
00010000
,
00000000
00100000
00000000
00000000
00001000
00010000
00000000
00000000
,
00000010
00000000
00000100
00000001
00000010
00000000
00000100
00010000
,
00000000
00000000
00000100
00000000
00000010
00000001
00000000
00000000
,
00000010
00000100
00001000
00000100
,
00010000
00100000
10000000
00100000
,
01000000
00100000
10000000
01000000
00100000
00010000
00001000
00000100
,
00000010
00000100
00001000
00010000
00100000
01000000
10010000
00000000
,
01000000
00010000
00100000
00000000
01000000
10000000
00100000
00000000
,
01000000
00010000
00100000
00000000
01000000
10000000
00100000
00000000
,
00100000
01000000
00100000
00000000
01000000
00100000
10000000
00000000
,
00010000
00100000
01000000
00000000
00100000
00001000
00010000
00000100
,
00000010
00000001
00000100
00000000
00000010
00001000
00000100
00000000
,
00000010
00000001
00000100
00000000
00000010
00001000
00000100
00000010
,
00000001
00000010
00000100
00001000
00000100
00000010
00000100
00001000
,
00010000
00100000
00010000
00100000
01000000
10000000
01000000
00100000
,
00010000
01000000
10000000
00000000
10000000
01000000
00010000
00000000
,
00010000
01000000
10000000
00000000
10000000
01000000
00010000
00000000
,
00010000
00100000
00001000
00000000
00001000
00010000
00000100
00000000
,
00000100
00010000
00001000
00000000
00010000
00000100
00001000
00000100
,
00000001
00000100
00000010
00000000
00000010
00000001
00000100
00000000
,
00000100
00001000
00000100
00000000
00000100
00000010
00001000
00000010
,
00000100
00000001
00000010
00000100
00000010
00000001
00001000
00000100
,
00000000
00001000
00000000
00000010
00020000
00000000
00000000
00030000
,
00001000
00011000
00000000
00010000
00011000
00000000
00001000
00011000
,
00000000
00010000
00011000
00000000
00010000
00000000
00100000
00000000
,
01000000
11000000
00000000
10000000
11000000
00000000
01000000
11000000
,
00000000
10000000
11000000
00000000
10000000
00000000
00010000
00000000
,
00100000
00101000
00000000
00001000
00101000
00000000
00100000
00101000
,
00000000
00001000
00101000
00000000
00001000
00000000
00010000
00000000
,
00000100
00010100
00000000
00010000
00010100
00000000
00000100
00010100
,
00000000
00010000
00010100
00000000
00000100
00000010
00000001
00001000
,
00000020
00000100
00001000
00000100
,
00002030
00000100
00003020
00001000
,
00020030
00001000
00000100
00001000
,
00030200
00020300
00230000
20300000
,
30100000
01000000
00000000
01000000
00100000
00000000
10000000
00100000
,
00000000
00100000
01000000
00000000
01000000
00001000
00010000
00000100
,
00010000
00001000
00010000
00000000
00000000
00000000
00001000
00010000
00001000
00000000
00000000
00000000
00001000
00100000
00001000
00000000
,
00000000
00000000
00010000
00000100
00010000
00000000
00000000
00000000
00010000
00000000
00001000
00000000
00000010
00000000
00000001
00000000
,
00000022
00000000
00000000
00000000
,
00000000
00000000
00000000
00000000
00000033
00000000
00000010
00000100
00001000
00000000
00000100
00000000
00010000
00000000
00001000
00000000
,
00100000
00000000
00000000
01000000
10000000
00000000
00000000
10000000
00100000
00000000
01000000
00000000
00010000
00000000
00100000
00000000
,
00000000
00000000
00001000
00000000
00000000
00000000
00010000
00000100
00001000
00000000
00000100
00000000
00000001
00000000
00000100
00000000
,
00000110
00000000
00000000
00001100
00000000
00000000
00011000
00000000
00000000
00110000
00000000
00000000
00100000
00000000
01000000
00000000
,
20000000
00000000
00000000
00000000
30000000
00000000
00100000
10000000
00100000
00000000
01000000
00000000
00010000
00000000
00100000
00000000
,
00210000
00000000
00301000
00000000
00001000
00100000
00001000
00010000
,
00000000
00000000
00000100
00000000
00000000
00000000
00000001
00000100
00000010
00000000
00000000
00000001
00000000
00000000
00001000
00000000
,
00000020
00000000
00000000
00000000
00000000
00000000
00000130
00000000
00000001
00000000
00000000
00001000
00000000
00000000
00000100
00000000
,
00020000
00000000
00000000
00000000
00000000
00000000
00031000
01000000
00100000
00000000
10000000
00000000
01000000
00000000
00100000
00000000
,
00010000
00000000
00000000
00100000
00001000
00000000
00000000
00001000
01000000
00000000
10000000
00000000
01000000
00000000
00010000
00000000
,
00000000
00000000
00100000
00000000
00000000
00000000
01000000
10000000
00010000
00000000
00100000
00000000
00001000
00000000
00010000
00000000
,
00011000
00000000
00000000
00001100
00000000
00000000
00000110
00000000
00000000
00000011
00000000
00000000
00000001
00000000
00000100
00000000
,
00000020
00000000
00000000
00000000
00000000
00000000
00000130
00000001
00000010
00000000
00000100
00000000
00001000
00000000
00000100
00000000
,
00012000
00000000
01003000
00000000
00100000
01000000
00100000
20000000
,
00000000
00000000
30010000
00000000
00100000
01000000
10000000
00000000
01000000
00000000
00010000
00000000
00001000
00000000
00000000
00000000
,
00001200
00000000
00000000
00000020
00000000
00000000
00000000
00000000
,
00000330
00000000
00000000
00000000
00000000
00000000
00000000
00000000
00000010
00000001
00001000
00000010
00000100
00000001
00000010
00000100
,
00001000
00000100
00001100
00000000
00000100
00010000
00011000
00000000
,
00001000
00100000
00110000
00000000
00010000
01000000
01100000
00000000
,
01000000
00010000
01010000
00000000
00010000
10000000
11000000
00000000
,
01000000
00100000
01100000
00000000
01000000
00100000
00001000
00000010
,
00000001
00001000
00001010
00000000
00001000
00000001
00001001
00000000
,
00000001
00000100
00001001
00000000
00000001
00001000
00000100
00010000
,
00100000
10000000
00100000
01000000
00100000
00010000
00100000
00001000
,
00010000
00000100
00000001
00000100
00000010
00000001
00000100
00000010
,
00001000
00000100
00010100
00000000
00001000
00100000
00110000
00000000
,
00100000
01000000
11000000
00000000
10000000
01000000
00100000
00010000
,
00000100
00010000
00010100
00000000
00010000
00000100
00000110
00000000
,
00000010
00000001
00001001
00000000
00000001
00001000
00000010
00010000
,
00001000
00100000
00101000
00000000
00100000
01000000
11000000
00000000
,
10000000
00010000
01010000
00000000
01000000
00010000
10000000
01000000
,
01100000
00110000
00000000
00110000
00011000
00000000
00011000
00010100
,
00000000
00000000
00010100
00000000
00001100
00000000
00001000
00000100
00000010
00000001
00000010
00000100
00010000
00001000
00020000
00000000
,
00000000
00000000
00000000
00000000
,
00000000
00000000
00000000
00000000
,
00030000
00000000
00000000
00000000
;

//---------------dance-single - ----------------
#NOTES:
     dance-single:
     :
     Medium:
     7:
     0.467,0.567,0.043,0.172,0.026:
0001
0000
1000
0100
0000
0100
1000
0000
,
0000
0100
0010
0001
1000
0000
0001
0000
,
0100
0000
0010
1000
0000
0010
0100
0000
,
0000
0100
0001
0010
0100
0000
0010
0000
,
0001
0010
0100
1000
,
0001
0010
0100
1000
,
1000
0100
0010
0001
0010
0100
1000
0100
,
0010
0100
1000
0100
0010
0001
1001
0000
,
0001
0100
0001
0000
0100
0001
0100
0000
,
0001
0100
0001
0000
0100
0001
0100
0000
,
0001
0100
0001
0000
0100
0001
0100
0000
,
0001
0100
0001
0000
0101
0000
1010
0000
,
1000
0010
1000
0000
0010
1000
0010
0000
,
1000
0010
1000
0000
0010
1000
0010
0000
,
1000
0100
0010
0001
,
0010
0100
1000
0010
,
0100
0010
0100
0000
0010
0100
0010
0000
,
0100
0010
0100
0000
0010
0100
0010
0000
,
0100
0010
0100
0000
0010
0100
0010
0000
,
0100
0010
0100
0000
0100
0000
0010
0000
,
1000
0001
1000
0000
0001
1000
0001
0000
,
1000
0001
1000
0000
0001
0010
0100
0010
,
0001
0000
1000
0000
0100
1000
0010
0100
,
0000
0010
0000
1000
0000
0000
0000
0000
,
0001
0001
0000
1000
1000
0000
0010
0010
,
0000
0100
0100
0000
0000
0000
0000
0000
,
0010
0010
0000
0100
0100
0000
0001
0001
,
0000
1000
1000
0000
0000
0000
0000
0000
,
0100
0100
0000
1000
1000
0000
0010
0010
,
0000
0100
0100
0000
0000
0000
0000
0000
,
0010
0010
0000
0100
0100
0000
0001
0001
,
0000
1000
1000
0000
0001
0000
0100
0000
,
0002
0000
0000
0000
,
2003
0000
3200
0000
,
0320
0000
0000
0000
,
0230
2300
3002
0203
,
0302
0000
0000
0000
,
2003
0000
3200
0000
,
2300
0000
0000
0000
,
3020
0000
0000
0130
0001
0010
0100
1000
,
2002
0000
0000
0000
,
0000
0000
0000
0000
0000
0000
0003
3000
0000
0000
0000
0000
0000
0000
0000
0000
,
0001
0000
0100
0000
0001
1000
0001
1000
,
0000
0010
0000
1000
0010
0000
0100
0000
,
0010
0000
0000
1000
0000
0000
0010
0000
0000
1000
0000
0000
0010
0000
0100
0000
,
0002
0000
0000
1003
0100
0010
0001
0010
,
0100
0000
0010
0000
0001
0100
0001
0100
,
0000
0000
0001
0000
0000
0000
1000
0000
0100
0000
0000
1000
0000
0000
0010
0000
,
0100
0000
0000
0000
0000
0000
0000
0000
0010
0000
0000
0100
0000
0000
0001
0000
,
1000
0000
0000
0001
0100
0000
0010
0000
,
1000
0000
0010
0000
0100
0010
1000
0001
,
0000
0010
0000
0100
0010
0001
1000
0001
,
1000
0000
0000
0010
0000
0000
0100
0000
0000
0001
0000
0000
1000
0000
0001
0000
,
0200
0000
0000
0310
1000
0001
0010
0100
,
1000
0000
0100
0000
1000
0100
0010
0001
,
0000
1000
0100
0001
0100
0010
0001
0000
,
2000
0000
0000
0020
0000
0000
0000
0000
,
0000
0000
0000
3030
,
1000
0001
0100
0000
0001
1000
0100
0000
,
1000
0001
0100
0000
0001
1000
0100
0000
,
1000
0001
0100
0000
0001
1000
0100
0000
,
1000
0001
0100
0000
0001
0000
1000
0000
,
0001
1000
0010
0000
1000
0001
0010
0000
,
0001
1000
0010
0000
1000
0001
0010
0100
,
1000
0100
1000
0010
,
0100
0001
0100
0001
,
0001
0100
1000
0000
1000
0100
0001
0000
,
0001
0100
1000
0000
1000
0100
0001
0000
,
0001
0010
1000
0000
1000
0010
0001
0000
,
0001
0010
1000
0000
0010
0000
0110
0000
,
0100
0010
1000
0000
1000
0010
0100
0000
,
0100
0010
1000
0000
0100
0010
0100
0010
,
1000
1000
0000
0001
0001
0000
0100
0100
,
0000
0010
0010
0100
0001
0010
0100
2000
,
0000
0000
0000
0000
,
0000
0000
0000
0000
,
0000
0000
0000
0000
,
0000
0000
3000
0000
;

//---------------dance-single - ----------------
#NOTES:
     dance-single:
     :
     Easy:
     4:
     0.321,0.334,0.146,0.344,0.000:
0001
0000
0000
0100
0000
0000
0001
0000
,
0000
0100
0010
0000
,
1000
0000
0000
0010
0000
0000
1000
0000
,
0000
0100
0010
0000
,
0100
0000
0000
0010
0000
0000
0001
0000
,
0000
1000
0000
0000
0001
0000
0100
0000
,
0001
0010
0100
1000
,
0001
0010
0100
1001
,
0001
0100
0001
0010
,
0001
0100
0001
0010
,
0001
0100
0001
0010
,
0001
0100
0001
1000
,
0100
1000
0100
0010
,
0100
1000
0100
0010
,
0001
0001
0010
0010
,
0001
0001
1000
1000
,
0010
0100
0010
1000
,
0010
0100
0010
1000
,
0010
0100
0010
1000
,
0010
0100
0010
1000
,
0001
0010
0001
0100
,
0001
1000
0001
0010
,
0100
0010
0001
1000
,
0010
0100
0001
0000
,
1001
0000
0000
0000
1001
0000
0000
1001
,
0000
1001
0000
0000
,
0110
0000
0000
0000
0110
0000
0000
0110
,
0000
0110
0000
0000
,
0101
0000
0000
0000
0101
0000
0000
0101
,
0000
0101
0000
0000
,
1010
0000
0000
0000
1010
0000
0000
1010
,
0000
1010
0000
0000
,
0020
0000
0000
0000
,
0230
0000
0302
0000
,
2000
0000
0000
3003
,
1000
0100
0010
0001
,
0020
0000
0000
0000
,
0032
0000
2003
0000
,
3020
0000
0000
0000
,
0200
0000
0000
0000
,
0330
0000
0000
0000
,
0000
0000
0000
0000
,
0010
1000
0100
1000
,
0010
0100
0001
0010
,
0100
0010
0100
0010
,
0200
0300
1000
0100
,
0020
0031
0010
0001
,
1000
0010
0100
0001
,
2000
0000
3001
0100
,
0020
0000
0130
0001
,
1000
0100
1000
0010
,
0100
0001
0010
0100
,
0010
0100
1000
0010
,
0200
0300
0010
1000
,
0002
1003
1000
0100
,
0010
0100
1000
0100
,
2000
0000
0000
0020
0000
0000
0000
0000
,
0000
0000
0000
3030
,
0020
0000
0000
0000
,
0230
0000
0302
0000
,
2000
0000
0000
3003
,
2000
3001
0002
1003
,
2000
0000
0000
0000
,
3200
0000
2300
0000
,
3020
0000
0000
0000
,
0230
0000
0302
0000
,
2003
0000
0000
0000
,
3200
0000
2300
0000
,
3020
0000
0000
0000
,
0230
0301
0200
0310
,
2000
0000
0000
0000
,
3020
0000
0230
0000
,
0301
1000
0000
1000
0001
0000
0001
1000
,
0000
1000
0002
0000
0000
0000
0000
2000
,
0000
0000
0000
0000
,
0000
0000
0000
0000
,
0000
0000
0000
0000
,
0000
0000
3003
0000
;

//---------------dance-double - ----------------
#NOTES:
     dance-double:
     :
     Medium:
     7:
     0.491,0.567,0.189,0.172,0.026:
10000000
00000000
00010000
00100000
00000000
00100000
01000000
00000000
,
00000000
01000000
00100000
00000000
00011000
00000000
00000000
00000000
,
00000010
00000000
00000100
00000001
00000000
00000001
00000010
00000000
,
00000000
00000010
00000100
00000000
00010100
00000000
00000000
00000000
,
00000100
00010000
00001000
01000000
,
00010000
01000000
00100000
10000000
,
01000000
00100000
00010000
00001000
,
00010000
00000100
00000001
00000100
00000010
00000001
00001000
00000000
,
00000001
00001000
00000010
00000000
00001000
00000001
00000010
00000000
,
00000001
00001000
00000010
00000000
00001000
00000001
00000010
00000000
,
00000001
00001000
00000100
00000000
00001000
00000001
00000100
00000000
,
00000001
00001000
00000100
00000000
00001000
00000100
00010000
00001000
,
00100000
00010000
01000000
00000000
00100000
01000000
00010000
00000000
,
00010000
10000000
01000000
00000000
01000000
10000000
01000000
00100000
,
00010000
00100000
00001000
00010000
,
00000100
00000010
00000001
00000010
,
00000100
00010000
00001000
00000000
00001000
00100000
00010000
00000000
,
00100000
00001000
00010000
00000000
00010000
00000100
00001000
00000000
,
00000100
00010000
00001000
00000000
00100000
00001000
00010000
00000000
,
00010000
00000100
00001000
00000000
00001000
00000010
00000100
00000001
,
00000010
00000100
00001000
00000000
00000100
00010000
00001000
00000000
,
00001000
00100000
01000000
00000000
00100000
00010000
01000000
00100000
,
10000000
00000000
01000000
00000000
00100000
01000000
10000000
00010000
,
00000000
01000000
00000000
00100000
00000000
00000000
00000000
00000000
,
10000000
01000000
00000000
01000000
00100000
00000000
00100000
00010000
,
00000000
00100000
00001000
00000000
00000000
00000000
00000000
00000000
,
00010000
00000100
00000000
00000100
00010000
00000000
00010000
00000100
,
00000000
00000010
00000001
00000000
00000000
00000000
00000000
00000000
,
00000001
00000010
00000000
00000010
00000100
00000000
00000100
00001000
,
00000000
00000100
00010000
00000000
00000000
00000000
00000000
00000000
,
00001000
00100000
00000000
00100000
01000000
00000000
01000000
10000000
,
00000000
10000000
00010000
00000000
01000000
00100000
10000000
00000000
,
02000000
00000000
00000000
00000000
,
03200000
00000000
00302000
00000000
,
00023000
00000000
00000000
00000000
,
00032000
00003020
00000032
00000023
,
00000230
00000000
00000000
00000000
,
00020300
00000000
00032000
00000000
,
00013000
00010000
00000000
00001000
00001000
00000000
00010000
00010000
,
00000000
00100000
00100000
00000000
01000000
10000000
00100000
01000000
,
00200000
00000000
00000000
00000000
,
00000000
00000000
00000000
01300000
01000000
00000000
10010000
00000000
,
00010000
00000000
01000000
00000000
00100000
10000000
00010000
00100000
,
00000000
01000000
00000000
00100000
00010000
01000000
00100000
10000000
,
00010000
00000000
00000000
00100000
00000000
00000000
00001000
00000000
00000000
00010000
00000000
00000000
00000100
00000000
00000010
00000000
,
00000002
00000000
00000003
00000010
00000100
00001000
00000001
00000100
,
00000010
00000000
00001010
00000000
00001000
00000100
00001000
00000010
,
00000000
00000000
00000100
00000000
00000000
00000000
00000010
00000000
00001000
00000000
00000000
00000100
00000000
00000000
00010000
00000000
,
00002000
00000000
00000000
00000000
00000000
00000000
00013000
00000000
00001000
00000000
00000000
00100000
00000000
00000000
01000000
00000000
,
20000000
00000000
00000000
00010000
30010000
00000000
01000000
00000000
,
00100000
00000000
01000000
00000000
00100000
10000000
00010000
00100000
,
00000000
00001000
00000000
00010000
00001000
00000100
00000001
00000100
,
00000010
00000000
00000000
00000001
00000000
00000000
00000100
00000000
00000000
00000010
00000000
00000000
00001000
00000000
00000100
00000000
,
00020000
00000000
00030000
00001000
00010000
00000000
01000000
00000000
,
00100000
00000000
01100000
00000000
01000000
00100000
00010000
10000000
,
00000000
00010000
01000000
10000000
01000000
00010000
00100000
01000000
,
00200000
00000000
00000000
00002000
00000000
00000000
00000000
00000000
,
00000000
00000000
00003000
00300000
,
00100000
00011000
00000010
00011000
,
00100000
00011000
00000010
00011000
,
00100000
00011000
00000010
00011000
,
00100000
00000000
00011000
00000000
00100000
00001000
00010000
00000100
,
00001000
01010000
01000000
00001100
,
00000100
00000000
01010000
00000000
01000000
00100000
10000000
01000000
,
00100000
00001000
00010000
00001000
,
00000100
00000001
00000100
00001000
,
00000100
00010000
00001000
00000000
00001000
00100000
10000000
00000000
,
10000000
00100000
01000000
00000000
01000000
00100000
00010000
00000000
,
01000000
00100000
10100000
00000000
10000000
00010000
00110000
00000000
,
00100000
00001000
00101000
00000000
00100000
00001000
00000100
00000001
,
00000100
00000010
00000011
00000000
00000001
00000100
00000101
00000000
,
00000100
00000010
00000110
00000000
00000010
00001000
00000100
00010000
,
00001000
00001000
00000000
00100000
00100000
00000000
01000000
01000000
,
00000000
00100000
00100000
01000000
10000000
00010000
01000000
02200000
,
00000000
00000000
00000000
00000000
,
00000000
00000000
00000000
00000000
,
00000000
00000000
00000000
00000000
,
00000000
00000000
03300000
00000000
;

//---------------dance-double - ----------------
#NOTES:
     dance-double:
     :
     Easy:
     6:
     0.385,0.467,0.258,0.267,0.000:
10000000
00000000
00000000
00100000
00000000
00000000
01000000
00000000
,
00000000
00010000
00100000
00000000
00110000
00000000
00000000
00000000
,
00100000
00000000
00000000
00001000
00000000
00000000
00010000
00000000
,
00000000
00000100
00001000
00000000
00001100
00000000
00000000
00000000
,
00001000
00000001
00000010
00000001
,
00001000
00000010
00000110
00000000
,
00000010
00001000
00000100
00010000
,
00001000
00000000
01000000
00000000
00100000
01000000
01100000
00000000
,
01000000
00010000
01000000
00100000
,
01000000
00010000
01000000
00100000
,
10000000
00010000
10000000
01000000
,
10000000
00010000
10000000
01000000
,
00100000
00010000
00100000
00001000
,
00100000
00010000
00100000
00001000
,
00010000
00010000
00001000
00001000
,
00100000
00100000
00001000
00001000
,
00010000
00000100
00010000
00001000
,
00010000
00000100
00010000
00001000
,
00100000
01000000
00100000
00010000
,
00100000
01000000
00100000
00010000
,
01000000
00100000
01000000
00010000
,
01000000
00100000
10000000
00010000
,
00100000
00001000
00010000
00000100
,
00000010
00000001
00000000
00000000
,
00000011
00000000
00000000
00000000
00000011
00000000
00000000
00001100
,
00000000
00010100
00000000
00000000
,
00011000
00000000
00000000
00000000
00110000
00000000
00000000
11000000
,
00000000
10010000
00000000
00000000
,
11000000
00000000
00000000
00000000
00110000
00000000
00000000
10010000
,
00000000
01010000
00000000
00000000
,
00110000
00000000
00000000
00000000
00011000
00000000
00000000
00001100
,
00000000
00000110
00000000
00000000
,
00000002
00000000
00000000
00000000
,
00000203
00000000
00000320
00000000
,
00002030
00000000
00000000
00000000
,
00003200
00020300
00032000
00203000
,
02300000
00000000
00000000
00000000
,
03200000
00000000
02300000
00000000
,
13000000
00010000
00000000
00010000
01000000
00000000
01000000
00100000
,
00000000
00100000
10000000
00000000
10000000
01000000
00100000
00010000
,
00200000
00000000
00000000
00000000
,
00000000
00000000
00000000
00310000
00100000
00000000
01000000
00000000
,
10000000
01000000
00100000
00010000
,
01000000
00001000
00010000
00000100
,
00000001
00000000
00000100
00000000
00000010
00000000
00000001
00000100
,
00000002
00000003
00000100
00000010
,
00001010
00000010
00010000
00001000
,
00100000
10000000
00100000
00010000
,
20000000
30000000
00010000
01000000
,
00200000
00000000
00300000
01000000
00100000
00000000
10000000
00000000
,
00010000
00100000
00001000
00010000
,
00000100
00000001
00000100
00000010
,
00000001
00000000
00001000
00000000
00000010
00000000
00000100
00000010
,
00002000
00003000
00001000
00100000
,
01000000
11000000
01000000
00100000
,
00010000
00000000
10000000
01000000
00100000
00010000
10000000
00000000
,
00200000
00000000
00000000
02000000
00000000
00000000
00000000
00000000
,
00000000
00000000
00000000
00000000
00000000
03300000
00000000
00000000
,
02000000
00000000
00000000
00000000
,
03020000
00000000
00230000
00000000
,
00002000
00000000
00000000
00303000
,
00002000
00103000
00200000
00310000
,
02000000
00000000
00000000
00000000
,
03100000
10000000
01000000
00010000
,
00002000
00000000
00000000
00000000
,
00023000
00030200
00000302
00000203
,
00000310
00000011
00000001
00000101
,
00000100
00000110
00000010
00001010
,
00001000
00011000
00001000
00101000
,
00100000
00110000
00100000
01100000
,
10000000
01000000
10000000
00000000
01000000
00100000
01000000
00000000
,
00100000
00010000
00100000
00000000
00100000
00001000
00010000
00000100
,
00001000
00000010
00000000
00000010
00001000
00000000
00001000
00000010
,
00000000
00000010
00001000
00000001
00000010
00000100
00001000
00000002
,
00000000
00000000
00000000
00000000
,
00000000
00000000
00000000
00000000
,
00000000
00000000
00000000
00000000
,
00000000
00000000
00000003
00000000
;

//---------------dance-single - ----------------
#NOTES:
     dance-single:
     :
     Beginner:
     2:
     0.160,0.286,0.138,0.000,0.000: // measure 1
0100
0000
0000
0000
,  // measure 2
0010
0000
0000
0000
,  // measure 3
1000
0000
0000
0000
,  // measure 4
0010
0000
0000
0000
,  // measure 5
0100
0000
0000
0000
,  // measure 6
0001
0000
0000
0000
,  // measure 7
1000
0000
0000
0000
,  // measure 8
0010
0000
0000
0000
,  // measure 9
0100
0000
0100
0000
,  // measure 10
0100
0000
0000
0000
,  // measure 11
0001
0000
0001
0000
,  // measure 12
0001
0000
0000
0000
,  // measure 13
1000
0000
1000
0000
,  // measure 14
1000
0000
0000
0000
,  // measure 15
0010
0000
0100
0000
,  // measure 16
1000
0000
0001
0000
,  // measure 17
1000
1000
0000
0000
,  // measure 18
0001
0000
0000
0000
,  // measure 19
0100
0100
0000
0000
,  // measure 20
0010
0000
0000
0000
,  // measure 21
0100
0001
0000
0000
,  // measure 22
1000
0000
0001
0000
,  // measure 23
0100
0000
0001
0000
,  // measure 24
1000
0000
0000
0000
,  // measure 25
1001
0000
0000
1001
,  // measure 26
0000
0000
0010
0000
,  // measure 27
0110
0000
0000
0110
,  // measure 28
0000
0000
0001
0000
,  // measure 29
1001
0000
0000
1001
,  // measure 30
0000
0000
0010
0000
,  // measure 31
0110
0000
0000
0110
,  // measure 32
0000
0000
0100
0000
,  // measure 33
0001
0000
0000
0000
,  // measure 34
1000
0000
0100
0000
,  // measure 35
0010
0000
0000
0000
,  // measure 36
0100
0100
1000
1000
,  // measure 37
0010
0000
0000
0000
,  // measure 38
0100
0000
0000
0000
,  // measure 39
0001
0000
0000
0000
,  // measure 40
1000
0000
0010
0000
,  // measure 41
1001
0000
0000
0000
,  // measure 42
0000
0000
0000
0000
,  // measure 43
0001
0000
1000
0000
,  // measure 44
0010
0000
1000
1000
,  // measure 45
0001
0000
0100
0000
,  // measure 46
0010
0000
0000
0000
,  // measure 47
0100
0000
0001
0000
,  // measure 48
1000
0000
1000
0000
,  // measure 49
0001
0000
0000
0000
,  // measure 50
1000
0000
0010
0000
,  // measure 51
1001
0000
0000
0000
,  // measure 52
0100
0000
0000
0000
,  // measure 53
0010
0000
0010
0000
,  // measure 54
1000
0000
0000
0000
,  // measure 55
1001
0000
0000
0000
,  // measure 56
0001
0000
0000
0000
,  // measure 57
0100
0000
0000
0000
,  // measure 58
0000
0000
0000
0000
,  // measure 59
0010
0000
0100
0000
,  // measure 60
0010
0000
1000
0000
,  // measure 61
0100
0000
0000
0000
,  // measure 62
0010
0001
0010
0001
,  // measure 63
1000
0000
0000
0000
,  // measure 64
0100
0000
1000
0000
,  // measure 65
0010
0000
0000
0000
,  // measure 66
0100
0000
0001
0000
,  // measure 67
1000
0000
1000
0000
,  // measure 68
0001
0000
0001
0000
,  // measure 69
0100
0000
0100
0000
,  // measure 70
0010
0000
0010
0000
,  // measure 71
0110
0000
1001
0000
,  // measure 72
0110
0000
1001
0000
,  // measure 73
1000
0000
0001
0000
,  // measure 74
0000
0000
0100
0000
0000
0000
0000
1001
;
