#TITLE:ポップミュージック論;
#SUBTITLE:;
#ARTIST:ギラギラメガネ団;
#TITLETRANSLIT:Pop Music Ron;
#SUBTITLETRANSLIT:;
#ARTISTTRANSLIT:Giragira Megane-dan;
#CREDIT:;
#BANNER:Pop Music Ron.png;
#BACKGROUND:Pop Music Ron-bg.png;
#LYRICSPATH:;
#CDTITLE:;
#MUSIC:Pop Music Ron.mp3;
#OFFSET:-1.396;
#SAMPLESTART:61.560;
#SAMPLELENGTH:16.420;
#SELECTABLE:YES;
#BPMS:0.000=190.000;
#STOPS:;
#BGCHANGES:;

//---------------dance-single - ----------------
#NOTES:
     dance-single:
     :
     Hard:
     8:
     0.743,0.728,0.607,0.588,0.024:
0000
0000
0000
0000
,
0000
0000
0000
0000
,
0000
0000
0000
0000
,
0000
0000
0000
0000
,
1000
1000
0000
0100
0010
0010
0000
0001
,
0100
0100
0000
0010
0001
0001
0000
0010
,
1000
0000
0000
0100
1000
0000
1000
0000
0001
0000
0000
0100
0001
0000
0001
0000
,
1000
0000
0000
0010
1000
0000
1000
0000
0001
0000
0010
0000
0100
0000
1000
0000
,
0001
0100
1000
0100
0010
0000
0100
0000
,
0101
1100
1002
0103
,
0001
0001
0010
0010
0100
0100
1000
0000
,
0001
0100
0010
1000
0002
0000
1003
0000
,
0001
0010
1000
0010
0100
0000
0010
0000
,
0011
1010
2001
3100
,
1000
1000
0010
0010
0100
0100
0001
0000
,
1000
0100
0010
0001
2000
0000
3001
0000
,
2010
0000
0000
0001
0000
0000
3100
0000
,
0002
0000
0000
1000
0000
0000
0103
0000
,
0020
0000
0000
1000
0000
0000
0031
0000
,
0200
0000
0000
1000
0000
0000
0301
0000
,
0102
0000
0000
0100
0000
0000
1003
0000
,
2100
0000
0000
0100
0000
0000
3001
0000
,
0012
1003
2010
3001
,
1000
0001
0001
0000
0100
0010
1000
0001
,
2000
0000
0010
0000
3100
1000
0010
0100
,
0002
0000
0010
0000
0103
0001
0100
1000
,
0200
0000
0010
0010
0310
0000
1001
0000
,
1000
0010
0010
1000
0001
0010
1000
0010
,
0001
0100
0010
1000
0002
0000
1003
0000
,
0101
1100
2001
3100
,
1000
1000
0010
0010
0001
0001
0010
0000
,
1000
0100
0001
0100
2000
0000
3001
0000
,
2000
3020
0230
0302
,
2003
0000
0010
0010
0000
0001
3001
0000
,
0002
0023
0230
2300
,
3002
0000
0010
0010
0000
1000
1003
0000
,
0001
0101
1000
1100
,
0001
0010
0100
1000
0001
0001
1000
1000
,
0001
1010
1001
1100
,
1000
0010
0001
0020
0000
0100
0100
0130
,
0001
0101
1001
0011
,
0001
0010
1000
0010
0001
0100
1000
0100
,
0110
0000
1010
0000
1001
0000
1000
0100
,
0110
0000
0011
0000
1000
0010
0100
0001
,
1000
0100
0000
0001
0100
0000
1001
0000
,
0001
0100
0000
1000
0100
0000
1001
0000
,
0010
0000
0100
0000
1001
1001
1001
0000
,
1000
0100
0001
0010
1000
0000
1001
0000
,
0002
0023
0230
2300
,
3002
0000
0010
0000
0103
0001
0100
0010
,
2000
3020
0230
0302
,
2003
0100
3100
1000
0002
0100
0103
0000
,
1010
0000
0011
0000
1002
0000
0103
0001
,
0101
1100
2001
3100
,
2010
3100
0011
1100
,
1000
0010
0010
0000
0100
0001
0001
1000
,
0002
0203
0320
2030
,
3002
0000
0100
0000
0013
0000
0100
0010
,
2000
3200
0320
0032
,
1003
0100
0001
0100
1000
1000
0001
0001
,
0011
0000
0101
0000
1001
0001
0100
0010
,
1010
0000
1001
0000
1100
1000
0010
0100
,
0002
0023
2030
3200
,
0302
0000
1000
1003
0000
0001
0100
0010
,
1010
0000
1000
0100
0001
0100
0010
0001
,
1001
0000
0001
0100
1000
0100
0010
1000
,
0001
0010
0010
0100
1000
1000
1001
0000
,
1000
0000
0010
0100
0010
0000
0000
0000
1000
0000
0100
0010
0100
0000
0000
0000
,
1000
0010
0001
0010
0100
0000
0010
0000
,
1010
0011
2001
3010
,
1000
1000
0100
0100
0010
0010
0001
0000
,
1000
0010
0100
0001
2000
0001
3001
0000
,
1000
0100
0001
0100
0010
0000
0100
0000
,
1100
0101
1002
0013
,
0001
0001
0100
0100
0010
0010
1000
0000
,
0001
0010
0100
1000
0002
0000
1003
0000
,
0001
0010
0000
1000
0010
0000
1001
0000
,
1000
0010
0000
0001
0010
0000
1001
0000
,
0100
0000
0010
0000
1001
1001
1001
0000
,
0001
0010
1000
0100
0001
0000
0000
0000
;

//---------------dance-double - ----------------
#NOTES:
     dance-double:
     :
     Hard:
     8:
     0.694,0.690,0.742,0.578,0.014:
00000000
00000000
00000000
00000000
,
00000000
00000000
00000000
00000000
,
00000000
00000000
00000000
00000000
,
00000000
00000000
00000000
00000000
,
10000000
10000000
00000000
01000000
00010000
00010000
00000000
00001000
,
00000010
00000010
00000000
00000001
00000100
00000100
00000000
00001000
,
00010000
00000000
00000000
00010000
00100000
00000000
10000000
00000000
01000000
00000000
00000000
01000000
00010000
00000000
00001000
00000000
,
00000010
00000000
00000000
00000010
00000001
00000000
00001000
00000000
00000001
00000000
00000100
00000000
00001000
00000000
00010000
00000000
,
00100000
10000000
01000000
10000000
00020000
00000000
10030000
00000000
,
10100000
01100000
01020000
01030000
,
00010000
00010000
00100000
00100000
00001000
00001000
00010000
00000000
,
00000100
00001000
00000010
00000100
00000002
00000000
00001003
00000000
,
00000100
00000001
00000010
00000001
00002000
00000000
00003001
00000000
,
00000101
00000110
00002010
00003010
,
00001000
00001000
00000100
00000100
00010000
00010000
00001000
00000000
,
00100000
00010000
01000000
00100000
20000000
00000000
30010000
00000000
,
20000000
00000000
00000000
01000000
00000000
00000000
30010000
00000000
,
00200000
00001000
00000000
00310000
,
00000020
00000000
00000000
00010000
00000000
00000000
00001030
00000000
,
00000002
00000000
00000000
00000100
00000000
00000000
00001003
00000000
,
00020100
00000000
00000000
00001000
00000000
00000000
00030010
00000000
,
00102000
00000000
00000000
00010000
00000000
00000000
01003000
00000000
,
00120000
10030000
20100000
30010000
,
10000000
00010000
00010000
00000000
10000000
01000000
00010000
00001000
,
00000020
00000001
00000100
00000031
,
00002000
00000010
00010000
00003010
,
00020000
00001000
01000000
00031000
,
00100000
01000000
00100000
00000000
00010000
10000000
10000000
10000000
,
01010000
00000000
00000000
00000000
,
00001010
00000000
00000000
00000000
,
00011000
00000000
00000000
00000000
,
00000001
00000100
00001000
00010000
00100000
10000000
00010000
00000000
,
20000000
32000000
03020000
02030000
,
03200000
00000000
00001000
00001000
00301000
00000000
00100000
00000000
,
00002000
00003020
00000032
00000203
,
00002300
00000000
00010000
00010000
00013000
00000000
00001000
00000000
,
00010000
00110000
10100000
10010000
,
10000000
01000000
00010000
00001000
00000100
00000001
00001000
00000000
,
00000001
00000011
00000110
00001100
,
00000100
00001000
00100000
02000000
00000000
10000000
13000000
00000000
,
01000000
01100000
10100000
10010000
,
10000000
01000000
00010000
01000000
10000000
00100000
00010000
00001000
,
00000100
00000000
00000101
00000000
00000011
00000000
00000010
00001000
,
00010000
00000000
00110000
00000000
10100000
00000000
10000000
00010000
,
10000000
01000000
00000000
00010000
00001000
00000000
00000011
00000000
,
00000001
00000100
00000000
00001000
00010000
00000000
10100000
00000000
,
10000000
00000000
00010000
00000000
00011000
00011000
00011000
00000000
,
00000010
00000001
00000100
00001000
00010000
00000000
00011000
00000000
,
00020000
00230000
20300000
32000000
,
03020000
00001000
00030100
00011000
,
00002000
00003020
00000032
00000203
,
00002300
00010000
00003100
00010000
,
00110000
10100000
20010000
31000000
,
11000000
01010000
00021000
00030100
,
00001200
00000310
00000011
00001100
,
00000101
00001010
00010100
00101000
,
00200000
20300000
32000000
03020000
,
00032000
00000100
00003010
00000011
,
00000002
00000203
00002300
00023000
,
00230000
10000000
01300000
10010000
,
11000000
11000000
11000000
01010000
,
00011000
00011000
00011000
00001100
,
00000101
00000101
00000101
00000011
,
00001010
00000000
00000000
00010100
00000000
00000000
00110000
00000000
,
10010000
00000000
10000000
01000000
00010000
01000000
00100000
00010000
,
00001000
00000000
00000100
00000001
00000010
00001000
00000010
00000100
,
00002000
00000000
00003010
00000020
00000000
00000130
00000200
00000000
,
00001000
00000310
00010100
00011000
,
00100000
10000000
01000000
10000000
00020000
00000000
10030000
00000000
,
10100000
01100000
01020000
01030000
,
00010000
00010000
00100000
00100000
00001000
00001000
00010000
00000000
,
00000100
00001000
00000010
00000100
00000002
00001000
00001003
00000000
,
00000100
00000001
00000010
00000001
00002000
00000000
00003001
00000000
,
00000101
00000110
00002010
00003010
,
00001000
00001000
00000100
00000100
00010000
00010000
00001000
00000000
,
00100000
00010000
01000000
00100000
20000000
00000000
30010000
00000000
,
10000000
01000000
00000000
00010000
00001000
00000000
00000011
00000000
,
00000001
00000100
00000000
00001000
00010000
00000000
10100000
00000000
,
10000000
00000000
00010000
00000000
00011000
00011000
00011000
00000000
,
00000010
00000001
00000100
00001000
00010000
00000000
00000000
00000000
;

//---------------dance-single - ----------------
#NOTES:
     dance-single:
     :
     Easy:
     4:
     0.395,0.421,0.270,0.087,0.000:
0000
0000
0000
0000
,
0000
0000
0000
0000
,
0000
0000
0000
0000
,
0000
0000
0000
0000
,
1001
0000
1001
0000
,
0110
0000
0110
0000
,
1100
0000
0011
0000
,
0101
0000
1010
0000
,
1000
0100
0010
0001
,
0010
0100
1000
0000
,
0001
0001
1000
1000
,
0010
0010
0100
0100
,
0001
0010
0100
1000
,
0100
0010
0001
0000
,
1000
1000
0010
0010
,
0100
0100
0001
0001
,
2000
0000
3001
0000
,
0200
0000
0310
0000
,
2000
0000
3001
0000
,
0020
0000
0130
0000
,
0020
0000
0031
0000
,
0200
0000
0310
0000
,
1000
0100
0010
0100
,
1000
0010
0100
0100
,
0002
0010
0010
0013
,
0200
1000
1000
1300
,
0002
0100
0100
0103
,
0001
0010
0100
1000
,
1100
0000
0000
0000
,
0011
0000
0000
0000
,
0101
0000
0000
0000
,
1010
0000
1001
0000
,
1000
0100
0010
0001
,
0010
0100
1000
0000
,
0001
0100
0010
1000
,
0010
0100
0001
0000
,
1000
0100
0001
0100
,
1000
0010
0001
0010
,
1000
1000
0010
0010
,
0100
0100
0001
0001
,
1000
1000
0100
0100
,
0010
0010
0001
0001
,
1000
1000
1000
1000
,
0001
0001
0001
0001
,
0010
0000
0100
0010
,
0001
0000
0100
0010
,
1000
1000
0001
0001
,
0010
0010
0010
1001
,
1000
0100
0001
0100
,
1000
1000
1000
1000
,
0001
0100
1000
0100
,
0001
0001
0001
0001
,
1000
0010
1000
0010
,
0100
0001
0100
0001
,
1000
0100
0010
0001
,
0010
0100
1000
1001
,
0001
0010
0100
1000
,
0001
0001
0001
0001
,
1000
0010
0100
0001
,
1000
1000
1000
1000
,
0110
0000
0110
0000
,
1001
0000
1001
0000
,
1100
0000
1100
0000
,
0101
0000
0101
0000
,
1010
0000
1010
0000
,
0011
0000
0011
0000
,
1000
0100
0010
0001
,
1000
0010
0100
0001
,
1000
0100
0010
0001
,
0010
0100
1000
0000
,
0001
0001
1000
1000
,
0010
0010
0100
0100
,
0001
0010
0100
1000
,
0100
0010
0001
0000
,
1000
1000
0010
0010
,
0100
0100
0001
0001
,
1000
0000
0010
0100
,
0001
0000
1000
0100
,
0010
0010
0001
0001
,
0100
0010
1001
0000
;

//---------------dance-single - ----------------
#NOTES:
     dance-single:
     :
     Medium:
     6:
     0.625,0.651,0.723,0.472,0.000:
0000
0000
0000
0000
,
0000
0000
0000
0000
,
0000
0000
0000
0000
,
0000
0000
0000
0000
,
1000
0001
0000
0000
1000
0001
0000
0000
,
0100
0010
0000
0000
0100
0010
0000
0000
,
1000
1100
0001
0101
,
1000
0000
1001
0000
1000
0010
0100
0001
,
1000
0000
0010
0100
0010
0000
1000
0000
,
1100
0101
1002
0103
,
0001
0010
0001
0000
1000
0010
1000
0000
,
0001
1000
0001
0000
0101
0000
1100
0000
,
0001
0000
0100
0010
0100
0000
0001
0000
,
0011
1010
2001
3010
,
1000
0100
1000
0000
0001
0100
0001
0000
,
1000
0001
1000
0000
1010
0000
0011
0000
,
2000
3000
0020
0030
,
0200
0300
0002
0003
,
0020
0030
0200
0300
,
2000
3000
0002
0003
,
2200
3300
0002
0003
,
2020
3030
0002
0003
,
1000
0010
0100
0001
,
1000
0100
1000
0000
0001
0010
0100
1000
,
0002
0010
0100
1003
,
2000
0010
0100
3001
,
0020
0100
1000
0031
,
0200
1000
0001
0310
,
1001
0000
0100
0000
,
1001
0000
0010
0000
,
1100
0000
0101
0000
,
1000
0010
0100
0001
2000
0000
3001
0000
,
1000
0100
0001
0100
,
0010
0001
1001
0000
,
1000
0010
0001
0010
,
0100
0001
1001
0000
,
1100
1100
0101
0101
,
1000
0010
0100
0000
0001
0100
0010
0000
,
1000
0101
0101
0101
,
0001
0010
0001
0010
0000
0100
0100
0000
,
1000
1010
1010
1010
,
1000
0010
0100
0000
0001
0100
0010
0000
,
1100
1100
0101
0101
,
1010
1010
0011
0011
,
1000
0001
0000
1000
0001
0000
0100
0000
,
0001
1000
0000
0001
1000
0000
0100
0000
,
0010
0000
0010
0000
0100
0100
0100
0000
,
1000
0001
1000
0001
1000
0000
1001
0000
,
2000
3020
0230
0302
,
2003
0010
3100
1001
,
0002
0023
0230
2300
,
3002
0010
0103
1001
,
2000
3020
0230
0310
,
2000
3200
0320
0130
,
1010
0100
0011
0100
,
1100
0011
0101
1010
,
2000
3020
0230
0302
,
2003
0010
3100
1001
,
0002
0023
0230
2300
,
3002
0010
0103
1001
,
0101
0101
0101
1000
,
1100
1100
1100
0001
,
0011
0011
1010
1010
,
1001
0000
0000
0110
0000
0000
1001
0000
,
0110
0000
1000
0010
1000
0010
1000
0000
,
0110
0000
0001
0010
0001
0010
0001
0000
,
1000
0100
0100
1000
0001
0001
1000
0000
,
0010
0100
0010
0000
1000
0001
1000
0000
,
0001
0000
0100
0010
0100
0000
0001
0000
,
0011
1010
2001
3010
,
1000
0100
1000
0000
0001
0100
0001
0000
,
1000
0001
1000
0000
1010
0000
0011
0000
,
1000
0000
0010
0100
0010
0000
1000
0000
,
1100
0101
1002
0103
,
0001
0010
0001
0000
1000
0010
1000
0000
,
0001
1000
0001
0000
0101
0000
1100
0000
,
1000
0001
0000
1000
0001
0000
0100
0000
,
0001
1000
0000
0001
1000
0000
0100
0000
,
0010
0000
0010
0000
0100
0100
0100
0000
,
1000
0001
1000
0001
1000
0000
0000
0000
;

//---------------dance-double - ----------------
#NOTES:
     dance-double:
     :
     Easy:
     4:
     0.373,0.383,0.279,0.087,0.000: // measure 1
00000000
00000000
00000000
00000000
,  // measure 2
00000000
00000000
00000000
00000000
,  // measure 3
00000000
00000000
00000000
00000000
,  // measure 4
00000000
00000000
00000000
00000000
,  // measure 5
11000000
00000000
11000000
00000000
,  // measure 6
01010000
00000000
01010000
00000000
,  // measure 7
00011000
00000000
00011000
00000000
,  // measure 8
00001001
00000000
00001001
00000000
,  // measure 9
00000001
00000010
00000100
00001000
,  // measure 10
00000100
00000010
00000001
00000000
,  // measure 11
00000100
00000100
00001000
00001000
,  // measure 12
00010000
00010000
00100000
00100000
,  // measure 13
10000000
01000000
00100000
01000000
,  // measure 14
10000000
00100000
01000000
00000000
,  // measure 15
00010000
00010000
00100000
00100000
,  // measure 16
00001000
00001000
00010000
00010000
,  // measure 17
00000100
00000000
00000100
00000000
,  // measure 18
00000010
00000000
00000010
00000000
,  // measure 19
00000001
00000000
00000001
00000000
,  // measure 20
00000100
00000000
00000100
00000000
,  // measure 21
00001010
00000000
00000100
00000000
,  // measure 22
00011000
00000000
00100000
00000000
,  // measure 23
10000000
00100000
01000000
00010000
,  // measure 24
10000000
10000000
00010000
00010000
,  // measure 25
20000000
00000000
31000000
00000000
,  // measure 26
00200000
00000000
00310000
00000000
,  // measure 27
02000000
00000000
03010000
00000000
,  // measure 28
00200000
00000000
00301000
00000000
,  // measure 29
00011000
00000000
00000000
00000000
,  // measure 30
00001100
00000000
00000000
00000000
,  // measure 31
00000011
00000000
00000000
00000000
,  // measure 32
00001001
00000000
00001001
00000000
,  // measure 33
00000001
00000100
00001000
00010000
,  // measure 34
00010000
00100000
10000000
00000000
,  // measure 35
10000000
01000000
00010000
00001000
,  // measure 36
00001000
00000010
00000001
00000000
,  // measure 37
00001000
00000010
00000100
00000001
,  // measure 38
00001000
00000100
00000010
00000001
,  // measure 39
00001000
00001000
00000001
00000001
,  // measure 40
00000100
00000100
00000010
00000010
,  // measure 41
00001000
00001000
00000100
00000100
,  // measure 42
00010000
00010000
00001000
00001000
,  // measure 43
00100000
00100000
00100000
00100000
,  // measure 44
01000000
01000000
01000000
01000000
,  // measure 45
10000000
00000000
00010000
01000000
,  // measure 46
00100000
00000000
10000000
01000000
,  // measure 47
00100000
00100000
01000000
01000000
,  // measure 48
10000000
00010000
10000000
10010000
,  // measure 49
10000000
00100000
01000000
00010000
,  // measure 50
20000000
00000000
30010000
00000000
,  // measure 51
10000000
01000000
00100000
00010000
,  // measure 52
20000000
00000000
30010000
00000000
,  // measure 53
10000000
00100000
00010000
00000000
,  // measure 54
00001000
00000100
00000001
00000000
,  // measure 55
00001001
00000000
00000110
00000000
,  // measure 56
00000001
00000010
00000100
00001000
,  // measure 57
00000001
00000100
00000010
00001000
,  // measure 58
00000002
00000000
00001003
00000000
,  // measure 59
00000001
00000010
00000100
00001000
,  // measure 60
00000002
00000000
00001003
00000000
,  // measure 61
00010100
00000000
00010100
00000000
,  // measure 62
00101000
00000000
00101000
00000000
,  // measure 63
01010000
00000000
01010000
00000000
,  // measure 64
10100000
00000000
10100000
00000000
,  // measure 65
10000000
01000000
11000000
00000000
,  // measure 66
00010000
01000000
01010000
00000000
,  // measure 67
10000000
01000000
00010000
00001000
,  // measure 68
00000020
00000000
00000130
00000100
,  // measure 69
00000001
00000010
00000100
00001000
,  // measure 70
00000100
00000010
00000001
00000000
,  // measure 71
00000100
00000100
00001000
00001000
,  // measure 72
00010000
00010000
00100000
00100000
,  // measure 73
10000000
01000000
00100000
01000000
,  // measure 74
10000000
00100000
01000000
00000000
,  // measure 75
00010000
00010000
00100000
00100000
,  // measure 76
00001000
00001000
00010000
00010000
,  // measure 77
00000100
00000010
00000001
00000001
,  // measure 78
00000100
00000010
00001000
00001000
,  // measure 79
00000001
00000001
00000010
00000010
,  // measure 80
00000100
00000100
00001001
00000000
;

//---------------dance-double - ----------------
#NOTES:
     dance-double:
     :
     Medium:
     6:
     0.632,0.651,0.742,0.540,0.000: // measure 1
00000000
00000000
00000000
00000000
,  // measure 2
00000000
00000000
00000000
00000000
,  // measure 3
00000000
00000000
00000000
00000000
,  // measure 4
00000000
00000000
00000000
00000000
,  // measure 5
10000000
01000000
00000000
00000000
00100000
00010000
00000000
00000000
,  // measure 6
01000000
00001000
00000000
00000000
00100000
00001000
00000000
00000000
,  // measure 7
00010000
00001100
00010000
01010000
,  // measure 8
00010000
00000000
00011000
00000000
00010000
00001000
00000010
00000001
,  // measure 9
00001000
00000000
00000010
00000100
00000010
00000000
00001000
00000000
,  // measure 10
00001100
00000101
00001002
00000103
,  // measure 11
00000001
00000010
00000001
00000000
00000010
00000100
00000010
00000000
,  // measure 12
00000100
00001000
00000100
00000000
00020000
00000000
00031000
00000000
,  // measure 13
00100000
00000000
10000000
01000000
10000000
00000000
00100000
00000000
,  // measure 14
01010000
11000000
20010000
31000000
,  // measure 15
10000000
00100000
01000000
00000000
00010000
01000000
00100000
00000000
,  // measure 16
10000000
01000000
00100000
00010000
02000000
00000000
03010000
00000000
,  // measure 17
00200000
00300000
00002000
00003000
,  // measure 18
00020000
00030000
00000200
00000300
,  // measure 19
00002000
00003000
00000020
00000030
,  // measure 20
00000200
00000300
00000002
00000003
,  // measure 21
00002200
00003300
00000020
00000030
,  // measure 22
00000202
00000303
00000020
00000030
,  // measure 23
00001100
00001000
00011000
00010000
,  // measure 24
00100000
10000000
01000000
00000000
10000000
01000000
00100000
00010000
,  // measure 25
20000000
00100000
30010000
10000000
,  // measure 26
00020000
00100000
10030000
00010000
,  // measure 27
02000000
00100000
03010000
01000000
,  // measure 28
00020000
00100000
01030000
00010000
,  // measure 29
00011000
00000000
00000000
00000000
,  // measure 30
00000110
00000000
00000000
00000000
,  // measure 31
00000011
00000000
00000000
00000000
,  // measure 32
00001100
00000000
00000000
00000101
00000000
00000000
00001001
00000000
,  // measure 33
00000001
00000100
00001000
00010000
,  // measure 34
00100000
00000000
10000000
00010000
20000000
00000000
31000000
00000000
,  // measure 35
10000000
01000000
00010000
00001000
,  // measure 36
00000010
00000000
00000001
00001000
00000002
00000000
00001003
00000000
,  // measure 37
00000001
00000101
00001100
00001001
,  // measure 38
00000001
00000100
00001000
00000000
00010000
01000000
10000000
00000000
,  // measure 39
00100000
10010000
10010000
10010000
,  // measure 40
10000000
01000000
00100000
00010000
00000000
10000000
10000000
00000000
,  // measure 41
00010000
00011000
00011000
00011000
,  // measure 42
00000010
00000001
00000100
00000000
00000010
00001000
00000100
00000000
,  // measure 43
00000011
00000011
00000011
00000100
,  // measure 44
00001010
00001010
00001010
00000100
,  // measure 45
00001000
00000001
00000000
00001000
00000001
00000000
00000110
00000000
,  // measure 46
00000001
00001000
00000000
00000001
00001000
00000000
00000110
00000000
,  // measure 47
00001100
00000000
00011000
00000000
00100000
00100000
00100000
00000000
,  // measure 48
10000000
01000000
00100000
00010000
10000000
00000000
10010000
00000000
,  // measure 49
20000000
32000000
03020000
00032000
,  // measure 50
00003020
00000001
00000130
00001001
,  // measure 51
00000002
00000203
00002300
00203000
,  // measure 52
20300000
01000000
30010000
10010000
,  // measure 53
20000000
30200000
02300000
03010000
,  // measure 54
20000000
32000000
03200000
00310000
,  // measure 55
00021000
00030100
00012000
00103000
,  // measure 56
00001100
00000011
00000101
00001010
,  // measure 57
00000002
00000203
00002300
00023000
,  // measure 58
00230000
10000000
00310000
10010000
,  // measure 59
20000000
32000000
03020000
00032000
,  // measure 60
00003020
00000001
00000130
00000110
,  // measure 61
00000011
00000011
00000011
00000100
,  // measure 62
00001010
00001010
00001010
00000100
,  // measure 63
00011000
00011000
01010000
01010000
,  // measure 64
10100000
00000000
00000000
00110000
00000000
00000000
10010000
00000000
,  // measure 65
01100000
00000000
10000000
01000000
10000000
01000000
10000000
00000000
,  // measure 66
00110000
00000000
00000100
00010000
00000100
00010000
00000100
00000000
,  // measure 67
00000110
00000000
00000000
00000011
00000000
00000000
00001001
00000000
,  // measure 68
00000001
00000100
00001000
00000000
00010000
00100000
10000000
00000000
,  // measure 69
00010000
00000000
01000000
00100000
01000000
00000000
00010000
00000000
,  // measure 70
00110000
10100000
20010000
30100000
,  // measure 71
10000000
01000000
10000000
00000000
01000000
00100000
01000000
00000000
,  // measure 72
00100000
00010000
00100000
00000000
00002000
00000000
00013000
00000000
,  // measure 73
00000100
00000000
00000001
00000010
00000001
00000000
00000100
00000000
,  // measure 74
00001010
00000011
00001002
00000013
,  // measure 75
00000001
00000100
00000010
00000000
00001000
00000010
00000100
00000000
,  // measure 76
00000001
00000010
00000100
00001000
00000020
00000000
00000130
00000000
,  // measure 77
00001000
00000001
00000000
00001000
00000001
00000000
00000110
00000000
,  // measure 78
00000001
00001000
00000000
00000001
00001000
00000000
00000110
00000000
,  // measure 79
00001100
00000000
00011000
00000000
00100000
00100000
00100000
00000000
,  // measure 80
10000000
01000000
00100000
00010000
10000000
00000000
00000000
00000000
;
