#TITLE:Kiss The Stars (Kat Krazy Radio Edit);
#SUBTITLE:;
#ARTIST:Pixie Lott;
#TITLETRANSLIT:;
#SUBTITLETRANSLIT:;
#ARTISTTRANSLIT:;
#GENRE:;
#CREDIT:hooky;
#BANNER:Kiss The Stars (Kat Krazy Radio Edit).png;
#BACKGROUND:Kiss The Stars (Kat Krazy Radio Edit)-bg.png;
#LYRICSPATH:;
#CDTITLE:;
#MUSIC:Kiss The Stars (Kat Krazy Radio Edit).ogg;
#OFFSET:-0.258000;
#SAMPLESTART:45.119999;
#SAMPLELENGTH:15.000000;
#SELECTABLE:YES;
#DISPLAYBPM:128.000000;
#BPMS:0.000000=128.000000
;
#STOPS:
;
#BGCHANGES:;
#KEYSOUNDS:;
#ATTACKS:;

//---------------dance-single - ----------------
#NOTES:
     dance-single:
     :
     Beginner:
     1:
     0.153376,0.153073,0.138191,0.000000,0.000000,88.000000,13.000000,0.000000,0.000000,0.000000,0.000000,0.153376,0.153073,0.138191,0.000000,0.000000,88.000000,13.000000,0.000000,0.000000,0.000000,0.000000:
0000
0000
0000
0000
,
0000
0000
0000
0000
,
0000
0000
0000
0000
,
0000
0000
0000
0000
,
0100
0000
0000
0010
,
0001
0000
0000
1000
,
0100
0000
0000
1000
,
0010
0000
0000
0000
,
1000
0000
1000
0000
,
1000
0000
1000
0000
,
0001
0000
1000
0000
,
0001
0000
0010
0000
,
0001
0000
0001
0000
,
0001
0000
0001
0000
,
1000
0000
0100
0000
,
1000
0000
0010
0000
,
0100
0000
0001
0000
,
1000
1000
1000
0000
,
0100
0000
0010
0000
,
0001
0001
0001
0000
,
0100
0000
0010
0000
,
1000
1000
1000
0000
,
0100
0000
1000
0000
,
0010
0000
1000
0000
,
0001
0000
1000
0000
,
0001
1000
1001
0000
,
1000
0000
0010
0000
,
0100
0001
1001
0000
,
1000
0000
0100
0000
,
0010
0001
0110
0000
,
0010
0000
1000
0000
,
0100
0000
1000
0000
,
1001
0000
0000
0000
,
0110
0000
0000
0000
,
1001
0000
0110
0000
,
1001
0000
0000
0000
,
0110
0000
0000
0000
,
1001
0000
0000
0000
,
0110
0000
1001
0000
,
0110
0000
0000
0000
,
1000
0000
1000
0000
,
0001
0000
0001
0000
,
0100
0000
1000
0000
,
0001
0000
0001
0000
,
1000
0000
0001
0000
,
0010
0000
0010
0000
,
0001
0000
0100
0000
,
0010
0000
1000
0000
,
0001
0000
0000
0000
;

//---------------dance-single - ----------------
#NOTES:
     dance-single:
     :
     Easy:
     3:
     0.244491,0.310929,0.063780,0.233861,0.000000,133.000000,6.000000,22.000000,0.000000,0.000000,0.000000,0.244491,0.310929,0.063780,0.233861,0.000000,133.000000,6.000000,22.000000,0.000000,0.000000,0.000000:
0000
0000
0000
0000
,
0000
0000
0000
0000
,
0000
0000
0000
0000
,
0000
0000
0000
0000
,
1000
1000
0001
0000
,
0001
0001
0010
0000
,
0020
0030
0200
0300
,
0020
0000
0000
0030
,
1000
0100
1000
0010
,
0100
0000
0100
0000
,
0001
0010
0001
0100
,
0010
0000
0010
0000
,
1000
0100
1000
0010
,
0100
0000
0100
0000
,
0001
0010
0001
0000
,
0100
0010
1000
0100
,
0100
1000
0010
0100
,
0002
0000
2000
3003
,
1000
0010
0100
0010
,
2000
0000
0002
3003
,
0100
0010
1000
0100
,
2000
0000
0002
3003
,
0010
0001
0100
0010
,
0022
0033
2200
3300
,
2000
0000
3001
0000
,
0100
0010
0110
0000
,
0020
0000
1030
0000
,
1000
0001
0011
0000
,
0002
0000
0103
0000
,
0010
1000
1001
0000
,
0200
0000
0310
0000
,
1000
0100
1000
0000
,
0010
0010
0100
0000
,
0100
0100
0001
0000
,
0001
0010
0100
0010
,
0001
0000
0001
0001
,
1000
0000
1000
1000
,
0010
0000
0010
0100
,
0001
1000
0100
1000
,
0010
0000
0010
0000
,
0100
0001
1000
0100
,
2000
0000
0001
3001
,
0010
0100
0001
0010
,
0002
0000
1000
1003
,
1000
0010
0100
0001
,
0020
0000
0100
0130
,
1000
0010
0100
0001
,
0010
0010
0100
0010
,
2002
0000
0000
3003
;

//---------------dance-single - ----------------
#NOTES:
     dance-single:
     :
     Medium:
     5:
     0.296123,0.285018,0.053150,0.106300,0.000000,180.000000,5.000000,10.000000,0.000000,0.000000,0.000000,0.296123,0.285018,0.053150,0.106300,0.000000,180.000000,5.000000,10.000000,0.000000,0.000000,0.000000:
0000
0000
0000
0000
,
0000
0000
0000
0000
,
0000
0000
0000
0000
,
0000
0000
0000
0000
,
1000
0000
1000
0000
0010
0100
0001
0000
,
0010
0010
0010
0000
,
0001
0000
0100
0000
0010
1000
0100
0000
,
0001
0000
0010
0000
,
0010
0010
0100
0001
,
0010
0001
1000
1000
,
0010
0100
0010
0000
0010
0000
0010
0000
,
1000
0001
1000
0000
0001
0000
0001
0000
,
0100
0010
1000
0100
,
1000
0000
1000
0000
1000
0010
1000
0000
,
0100
0000
0100
0000
1000
0100
1000
0000
,
0100
0000
0010
0000
0001
0100
0001
0000
,
0010
0010
0100
0100
,
1000
0001
1001
0000
,
1000
1000
0001
0001
,
0100
0010
0110
0000
,
0010
1000
0100
0010
,
0001
0100
0101
0000
,
0010
1000
0100
1000
,
1000
0100
1000
0000
0022
0000
0033
0000
,
0100
0100
0010
0010
,
1000
0100
1000
0000
0020
0000
0030
0000
,
0100
0001
0010
0010
,
0001
0100
0001
0001
,
1000
0000
1000
0000
0010
0100
0010
0000
,
0010
0000
1000
0100
0020
0000
0030
0000
,
0010
0000
0001
0000
0100
0010
1000
0000
,
0100
0000
0100
0000
1000
0100
0010
0000
,
0001
0001
1000
1000
,
0001
0001
1000
1000
,
0010
0100
0010
0100
,
0020
0000
0200
0330
,
0001
0010
0001
0100
,
0010
1000
0100
0100
,
1000
0001
1000
0001
1000
0000
1000
0000
,
0002
0000
0200
0303
,
0001
0100
0010
1000
,
0100
0100
0010
0010
,
1000
0100
0001
0100
,
1000
0100
0001
0001
,
0001
0010
0100
1000
,
0010
0010
0100
0100
,
0001
0010
0001
0100
,
0010
0000
1000
0000
0100
1000
0010
0000
,
2002
0000
0000
3003
;

//---------------dance-single - ----------------
#NOTES:
     dance-single:
     :
     Hard:
     7:
     0.419127,0.416698,0.170081,0.063780,0.005315,254.000000,16.000000,6.000000,0.000000,0.000000,0.000000,0.419127,0.416698,0.170081,0.063780,0.005315,254.000000,16.000000,6.000000,0.000000,0.000000,0.000000:
0000
0000
0000
0000
,
0000
0000
0000
0000
,
0000
0000
0000
0000
,
0000
0000
0000
0000
,
1000
0000
1000
0100
1000
0010
1000
0100
,
0000
0010
0000
0001
0100
0000
0100
0000
,
0010
0000
1000
0100
0001
0100
1000
0010
,
0000
1000
0000
0010
0110
0000
1001
0000
,
0110
0000
0010
1000
0100
0001
0100
1000
,
0000
1000
0000
0010
0100
0000
0100
0000
,
0001
0000
0001
0100
1000
0100
0001
0010
,
0000
0010
0000
0100
0010
0000
0001
0000
,
1000
0000
0010
0001
0010
1000
0010
0001
,
0000
0001
0000
0010
0100
0000
0010
0000
,
1000
0000
1000
0010
0001
0010
1000
0010
,
0000
0000
0100
0000
0010
0000
0010
0000
0100
0000
0001
0000
0100
0000
0010
0100
,
0010
0000
1000
0100
0010
0100
1000
1000
,
0011
0110
1100
1001
,
0001
1000
0010
0100
0010
0000
1000
0100
,
0001
0100
1000
0000
1001
0000
0010
0010
,
0100
0000
0100
0100
0010
1000
0100
0010
,
0001
0000
1000
0000
0100
0010
0011
0000
,
0001
0100
0010
0010
1100
0000
0100
0010
,
0200
0300
0020
0030
2200
0000
3300
0000
,
0010
0001
0000
0100
1000
0000
0100
0010
,
0000
1000
0001
0100
0010
0100
0010
1000
,
0100
0010
0000
0001
0100
0000
1000
0010
,
0000
0100
0010
0100
0110
0000
1001
0000
,
0100
1000
0000
0010
0001
0000
0010
0100
,
0000
0001
1000
0010
0100
0010
0100
0001
,
0010
0100
0000
1000
0010
0000
0001
0100
,
0000
0010
0100
0010
1000
0100
0001
0100
,
1000
0000
1000
0000
0010
0001
0010
0000
,
0100
0000
0100
0000
0010
0100
0010
0000
,
1000
0010
0001
0010
1000
0100
0001
0100
,
1000
0000
1000
0000
0100
0010
0001
0000
,
0001
0000
0001
0000
0100
1000
0100
0000
,
0010
0000
0010
0000
0100
0010
0100
0000
,
0001
0100
1000
0100
0001
0010
1000
0010
,
0001
0000
0001
0000
0010
1000
0100
0000
,
0110
0000
1001
0010
0001
0010
0001
0000
,
1000
0000
1000
0000
0010
0100
0010
0000
,
1000
0000
1000
0100
0010
0001
0100
0000
,
0010
0000
0010
0000
1000
0010
0001
0000
,
0100
0000
1000
0010
0100
0010
1000
0000
,
0100
0000
0100
0000
0010
0001
0100
0000
,
1000
1000
0010
0010
,
0001
0001
0100
0100
,
2002
0000
0000
0000
,
3003
0000
0000
0000
;

//---------------dance-double - ----------------
#NOTES:
     dance-double:
     :
     Hard:
     7:
     0.417609,0.416698,0.340161,0.148821,0.000000,229.000000,32.000000,14.000000,0.000000,0.000000,0.000000,0.417609,0.416698,0.340161,0.148821,0.000000,229.000000,32.000000,14.000000,0.000000,0.000000,0.000000:
00000000
00000000
00000000
00000000
,
00000000
00000000
00000000
00000000
,
00000000
00000000
00000000
00000000
,
00000000
00000000
00000000
00000000
,
00110000
00000000
01000000
00001000
00000010
00001000
00000000
00010000
,
00000000
00000010
00000000
00000100
00000001
00000000
00000001
00000000
,
00001100
00000000
00000010
00010000
01000000
00010000
00000000
00001000
,
00000000
01000000
00000000
10000000
00100000
00000000
10000000
00000000
,
01100000
00000000
10000000
00100000
00010000
00100000
00010000
00001000
,
00000000
00000010
00000000
00000001
00000100
00000000
00000100
00000000
,
00011000
00000000
00000010
00000100
00000010
00000000
00000110
00000000
,
00011000
00000000
00100000
01000000
00100000
00000000
01100000
00000000
,
00001010
00000000
00000001
00000100
00001000
00000100
00001000
00010000
,
00000000
01000000
00000000
10000000
00100000
00000000
00100000
00000000
,
00011000
00000000
01000000
00100000
01000000
00000000
01100000
00000000
,
00011000
00000000
00000100
00000010
00000100
00000000
00000110
00000000
,
00000001
00000010
00000100
00001000
00010000
00100000
01000000
10000000
,
10100000
10100000
10100000
00110000
,
00001000
00010000
00001000
00000000
00000100
00001000
00000100
00000000
,
00000101
00000101
00000011
00001100
,
00001000
00100000
10000000
00000000
01000000
00010000
00000010
00000000
,
00000100
00000100
00000101
00101000
,
10000000
00010000
01000000
01000000
00001000
00001000
00000010
00000000
,
00000001
00001000
00000010
00020000
00002000
00000000
00033000
00000000
,
00010000
00010000
00000000
00001000
00001000
00000000
00000010
00000010
,
00000000
00000001
00000001
00000100
00000010
00001000
00000100
00000000
,
00100000
00100000
00000000
00010000
00010000
00000000
01000000
01000000
,
00000000
00000000
00001000
00010000
00000100
00010000
00001000
01000000
,
00001000
00001000
00000000
00100000
00100000
00000000
00000100
00000100
,
00000000
00000010
00000010
00000000
00000001
00001000
00100000
00000000
,
10000000
10000000
00000000
01000000
01000000
00000000
00010000
00010000
,
00000000
00000010
00000010
00000000
00000100
00000010
00001000
00000000
,
00000100
00000000
00000110
00000000
00000001
00001000
00000001
00000000
,
00000100
00000000
00010000
00000000
01000000
00100000
10000000
00000000
,
01000000
00100000
01000000
00100000
02000000
00000000
03100000
00000000
,
00022000
00003000
00000100
00030100
,
00000010
00000000
00000101
00000000
00000010
00010000
00000100
00000000
,
00010000
00000000
00101000
00000000
01000000
00100000
10000000
00000000
,
00001000
00010000
00001000
00010000
00002000
00000000
00013000
00000000
,
00000220
00000000
00000000
00000330
,
00011000
00000000
00000100
00000010
00001000
01000000
00100000
01000000
,
00020000
00000000
10000000
10030000
,
00101000
00000000
01000000
00000010
00000100
00000001
00010000
00001000
,
00200000
00000000
00001000
00301000
,
00011000
00000000
00100000
01000000
00010000
00000010
00000100
00000010
,
00002000
00000000
00000001
00003001
,
00010100
00000000
00000010
01000000
00100000
10000000
00001000
00010000
,
00000200
00000000
00010000
00010300
,
00020002
00000000
00000000
00000000
,
00030003
00000000
00000000
00000000
;

//---------------dance-double - ----------------
#NOTES:
     dance-double:
     :
     Medium:
     5:
     0.303715,0.362750,0.116930,0.106300,0.000000,179.000000,11.000000,10.000000,0.000000,0.000000,0.000000,0.303715,0.362750,0.116930,0.106300,0.000000,179.000000,11.000000,10.000000,0.000000,0.000000,0.000000:
00000000
00000000
00000000
00000000
,
00000000
00000000
00000000
00000000
,
00000000
00000000
00000000
00000000
,
00000000
00000000
00000000
00000000
,
00000001
00000000
00000001
00000000
00000100
00000010
00001000
00000000
,
00000100
00000100
00000100
00000000
,
00100000
00000000
01000000
00000000
10000000
00100000
01000000
00000000
,
00010000
00000000
00100000
00000000
,
00010000
00010000
01000000
00010000
,
00100000
00010000
10000000
10000000
,
00100000
01000000
00100000
00000000
10000000
00000000
01000000
00000000
,
00001000
00000010
00001000
00000000
00000100
00000000
00000100
00000000
,
01000000
00100000
10000000
01000000
,
10000000
00000000
00010000
00000000
00000100
00010000
10000000
00000000
,
01000000
00000000
01000000
00000000
10000000
01000000
10000000
00000000
,
00000100
00000000
01000000
00000000
00000010
00010000
00000010
00000000
,
00100000
00100000
00001000
00001000
,
00010000
00010000
00011000
00000000
,
00000100
00000100
00000010
00000010
,
00001001
00000100
00000110
00000000
,
01000000
00000000
00010000
00000000
00100000
00100000
00100000
00000000
,
00000010
00010000
00001100
00000000
,
00100000
00001000
01000100
00000000
,
01000000
00000100
01000000
00000200
02000000
00000000
03000300
00000000
,
01000000
01000000
00100000
00100000
,
10000000
01000000
10000000
00000000
00200000
00000000
00300000
00000000
,
01000000
00001000
00100000
00100000
,
00010100
00000001
00000001
00001000
,
00000100
00000000
01000000
00000000
00100000
01000000
00100000
00000000
,
00100000
00000000
10000000
01000000
00200000
00000000
00300000
00000000
,
00001000
00000000
00000100
00000000
00000001
00000010
00000100
00000000
,
00010000
00000000
00010000
00000000
00000010
00010000
00001000
00000000
,
00011000
00000000
00011000
00000000
00001000
01000000
00100000
00000000
,
00011000
00000000
00011000
00000000
00000100
00000010
00010000
00000000
,
00000100
00010000
00001000
02000000
,
00000200
00000000
00000000
03000300
,
00010000
00000100
01000000
00010000
,
00100000
00010000
01000000
01000000
,
00001000
01000000
00001000
01000000
00001000
00000000
01000000
00000000
,
00000200
00000000
00200000
00300300
,
00010000
01000000
00100000
10000000
,
01000000
01000000
00100000
00100000
,
00001000
00000010
00000001
00000100
,
00000010
00000010
00001000
00001000
,
00000100
01000000
00100000
10000000
,
01000000
01000000
00100000
00100000
,
00001000
00000000
00001000
00000000
,
00000100
00000010
00001000
00000100
,
00200200
00000000
00000000
00300300
;

//---------------dance-double - ----------------
#NOTES:
     dance-double:
     :
     Easy:
     3:
     0.247528,0.310929,0.074410,0.233861,0.000000,134.000000,7.000000,22.000000,0.000000,0.000000,0.000000,0.247528,0.310929,0.074410,0.233861,0.000000,134.000000,7.000000,22.000000,0.000000,0.000000,0.000000:
// measure 0
00000000
00000000
00000000
00000000
,  // measure 1
00000000
00000000
00000000
00000000
,  // measure 2
00000000
00000000
00000000
00000000
,  // measure 3
00000000
00000000
00000000
00000000
,  // measure 4
10000000
10000000
00010000
00000000
,  // measure 5
00010000
00010000
00100000
00000000
,  // measure 6
00200000
00300000
02000000
03000000
,  // measure 7
00200000
00000000
00000000
00300000
,  // measure 8
00000001
00000010
00000001
00000100
,  // measure 9
00000010
00000000
00000010
00000000
,  // measure 10
00001000
00000100
00001000
00000010
,  // measure 11
00000100
00000000
00000100
00000000
,  // measure 12
00000010
01000000
00100000
10000000
,  // measure 13
01000000
00000000
01000000
00000000
,  // measure 14
00100000
00010000
00100000
00000000
,  // measure 15
01000000
10000000
00100000
01000000
,  // measure 16
00000100
00001000
00000100
00000010
,  // measure 17
00000002
00000000
00002000
00003003
,  // measure 18
00000001
00000100
00000010
00000100
,  // measure 19
00000002
00001000
00002000
00003003
,  // measure 20
00000010
00100000
01000000
10000000
,  // measure 21
20000000
00000000
00020000
30030000
,  // measure 22
00100000
00010000
01000000
00100000
,  // measure 23
20200000
30300000
02020000
03030000
,  // measure 24
00000002
00000000
00001003
00000000
,  // measure 25
00000010
00000100
00000110
00000000
,  // measure 26
00200000
00000000
00310000
00000000
,  // measure 27
10000000
00010000
01010000
00000000
,  // measure 28
00002010
00000000
00003010
00000000
,  // measure 29
00000100
00000001
00001001
00000000
,  // measure 30
02000000
00000000
03100000
00000000
,  // measure 31
10000000
01000000
10000000
00000000
,  // measure 32
00000010
00000010
00000100
00000000
,  // measure 33
00000010
00000010
00001000
00000000
,  // measure 34
00001000
00000100
00000010
00000100
,  // measure 35
00001000
00000000
00001000
00001000
,  // measure 36
00100000
00000000
10000000
10000000
,  // measure 37
01000000
00000000
00100000
00010000
,  // measure 38
01000000
00100000
10000000
01000000
,  // measure 39
00100000
00000000
00100000
00000000
,  // measure 40
00000010
00001000
00000001
00000010
,  // measure 41
00000002
00000000
00001000
00001003
,  // measure 42
00000100
00000010
00000001
00001000
,  // measure 43
00000200
00000000
00000001
00000301
,  // measure 44
00000100
00001000
00100000
01000000
,  // measure 45
00200000
00000000
01000000
01300000
,  // measure 46
00010000
00100000
01000000
10000000
,  // measure 47
00100000
00100000
01000000
00100000
,  // measure 48
00220000
00000000
00000000
00330000
;
