#VERSION:0.81;
#TITLE:Extraordinary Machine;
#SUBTITLE:;
#ARTIST:Fiona Apple;
#TITLETRANSLIT:;
#SUBTITLETRANSLIT:;
#ARTISTTRANSLIT:;
#GENRE:;
#ORIGIN:;
#CREDIT:;
#BANNER:Extraordinary Machine-bn.png;
#BACKGROUND:Extraordinary Machine-bg.png;
#PREVIEWVID:;
#JACKET:Extraordinary Machine-jacket.png;
#CDIMAGE:;
#DISCIMAGE:;
#LYRICSPATH:;
#CDTITLE:;
#MUSIC:Extraordinary Machine.mp3;
#OFFSET:-0.793;
#SAMPLESTART:57.180;
#SAMPLELENGTH:12.000;
#SELECTABLE:YES;
#BPMS:0.000=85.440;
#STOPS:;
#DELAYS:;
#WARPS:;
#TIMESIGNATURES:0.000=4=4;
#TICKCOUNTS:0.000=4;
#COMBOS:0.000=1;
#SPEEDS:0.000=1.000=0.000=0;
#SCROLLS:0.000=1.000;
#FAKES:;
#LABELS:0.000=Song Start;
#BGCHANGES:;
#KEYSOUNDS:;
#ATTACKS:
;

//---------------dance-single - ----------------
#NOTEDATA:;
#CHARTNAME:;
#STEPSTYPE:dance-single;
#DESCRIPTION:;
#CHARTSTYLE:;
#DIFFICULTY:Beginner;
#METER:1;
#RADARVALUES:0.066,0.084,0.000,0.000,0.000,49.000,0.000,0.000,0.000,0.000,0.000,0.000,0.000,0.066,0.084,0.000,0.000,0.000,49.000,0.000,0.000,0.000,0.000,0.000,0.000,0.000;
#CREDIT:;
#OFFSET:-0.735;
#BPMS:0.000=85.440
;
#STOPS:;
#DELAYS:;
#WARPS:;
#TIMESIGNATURES:0.000=4=4
;
#TICKCOUNTS:0.000=4
;
#COMBOS:0.000=1
;
#SPEEDS:0.000=1.000=0.000=0
;
#SCROLLS:0.000=1.000
;
#FAKES:;
#LABELS:0.000=Song Start
;
#NOTES:
0000
0000
0000
0000
,
0000
0000
0000
0000
,
0000
0000
0000
0000
,
0000
0000
0000
0000
,
1000
0000
1000
0000
,
0001
0000
0000
0000
,
0001
0000
0001
0000
,
1000
0000
0000
0000
,
0010
0000
0010
0000
,
0100
0000
0100
0000
,
0001
0000
0001
0000
,
1000
0000
1000
0000
,
0100
0000
0100
0000
,
1000
0000
1000
0000
,
0001
0000
0001
0000
,
0010
0000
0010
0000
,
0001
0000
0000
0000
,
1000
0000
0000
0000
,
0010
0000
0000
0000
,
0100
0000
0000
0000
,
0001
0000
0001
0000
,
0010
0000
0000
0000
,
0100
0000
0100
0000
,
1000
0000
0000
0000
,
0001
0000
0000
0000
,
1000
0000
0000
0000
,
0010
0000
0010
0000
,
0100
0000
0000
0000
,
0010
0000
0000
0000
,
0100
0000
0000
0000
,
0001
0000
0000
0000
,
1000
0000
0000
0000
,
0001
0000
0001
0000
,
1000
0000
0000
0000
,
0100
0000
0100
0000
,
0010
0000
0100
0100
;

//---------------dance-single - ----------------
#NOTEDATA:;
#CHARTNAME:;
#STEPSTYPE:dance-single;
#DESCRIPTION:;
#CHARTSTYLE:;
#DIFFICULTY:Easy;
#METER:2;
#RADARVALUES:0.157,0.190,0.009,0.057,0.000,109.000,1.000,6.000,0.000,0.000,0.000,0.000,0.000,0.157,0.190,0.009,0.057,0.000,109.000,1.000,6.000,0.000,0.000,0.000,0.000,0.000;
#CREDIT:;
#NOTES:
0000
0000
0000
0000
,
0000
0000
0000
0000
,
0000
0000
0000
0000
,
0000
0000
0000
0000
,
0000
1000
0001
0001
,
0100
0100
0020
0030
,
0010
0010
0100
0100
,
0001
0001
1000
0000
,
0001
0001
1000
1000
,
0010
0010
0100
0100
,
0010
1000
0001
0010
,
0001
1000
1000
0000
,
0001
0001
1000
1000
,
0010
0010
0200
0300
,
0001
0001
1000
1000
,
0100
0100
0010
0000
,
0100
0000
1000
0000
,
0001
0000
0010
0000
,
0001
0001
1000
1000
,
0010
0010
0100
0100
,
0000
0010
1000
0100
,
0010
0100
1000
0000
,
0000
0001
1000
0010
,
0100
0001
1000
0001
,
1000
2000
3000
0001
,
0002
0000
0003
0100
,
0010
1000
0010
0100
,
0001
0001
1000
0000
,
1000
0001
0010
0100
,
1000
1000
0001
0000
,
1000
0010
0100
0001
,
1000
0001
0001
1000
,
0010
0010
0000
0100
,
0100
0001
0010
0001
,
0010
0010
0100
0100
,
1000
0001
0010
2002
,
0000
0000
3003
0000
;

//---------------dance-single - ----------------
#NOTEDATA:;
#CHARTNAME:;
#STEPSTYPE:dance-single;
#DESCRIPTION:;
#CHARTSTYLE:;
#DIFFICULTY:Medium;
#METER:6;
#RADARVALUES:0.269,0.293,0.142,0.019,0.312,182.000,15.000,2.000,0.000,0.000,0.000,0.000,0.000,0.269,0.293,0.142,0.019,0.312,182.000,15.000,2.000,0.000,0.000,0.000,0.000,0.000;
#CREDIT:;
#NOTES:
0000
0000
0000
0000
,
0000
0000
0000
0000
,
0000
0000
0000
0000
,
0000
0000
0000
0000
,
0001
0001
0100
0100
,
0010
0000
1000
0010
0000
0000
1000
0000
1001
0000
0000
0000
,
0001
0001
1000
1000
,
0010
0000
0100
0010
0000
0000
1000
0000
0000
0001
0000
0000
,
0010
0100
1000
0001
,
0100
0000
0100
0010
0000
0000
0100
0000
0100
0010
0000
0000
,
1000
0001
0010
0100
,
1000
0001
1000
0110
,
1000
0100
0010
0100
,
1000
0000
0000
0001
0000
0001
1000
0000
0000
0110
0000
0000
,
0010
0000
0010
1000
0000
0000
0001
0000
0001
1000
0000
0000
,
0100
0000
0000
0010
0000
0000
0100
0000
0000
0100
0000
0100
,
1000
0000
1000
0000
0000
1000
0100
0000
0001
0000
0000
0001
,
0100
0000
1000
0000
0000
1000
0001
0000
0001
0000
0001
0100
,
0010
0000
0010
1000
0000
1000
0001
0000
0001
0010
0000
0000
,
0100
0000
0100
1000
0000
0000
0011
0000
0000
1100
0000
0000
,
0001
0001
0100
0010
,
1000
0001
1000
0000
1000
0000
0000
0000
0000
0000
0000
0000
,
0001
0000
0001
1000
0000
0000
0010
0000
0010
0100
0000
0000
,
0001
0000
1000
0100
0000
0000
0011
0000
0000
1100
0000
0000
,
0001
0000
0001
1000
0000
0000
0010
0000
0010
0100
0000
0100
,
0001
0000
0000
0001
1000
0100
0010
0000
0000
0010
0100
1000
,
0001
0000
0001
1000
0000
1000
0000
0010
0100
0001
0000
0001
,
1000
0000
1000
0100
0000
0010
0100
0000
0000
1001
0000
0000
,
0110
0000
0010
1000
0000
1000
0100
0000
0100
0010
0000
0000
,
0001
0000
1000
0010
0000
0000
0110
0000
0000
0010
0000
0000
,
1000
0000
1000
0100
0000
0100
0010
0000
0100
1000
0000
0001
,
0000
0000
1000
0010
0000
0110
0000
0000
0000
1001
0000
0000
,
0011
0000
0100
1000
0000
0000
0110
0000
0010
1000
0000
1000
,
0001
0000
0000
1000
0100
0010
0001
0000
0000
0001
1000
0010
,
0100
0000
0000
0001
0000
0000
0000
1000
0100
0010
0100
1000
,
0001
0000
0001
1000
0010
0100
0001
0000
0000
2002
0000
0000
,
0000
0000
3003
0000
;

//---------------dance-single - ----------------
#NOTEDATA:;
#CHARTNAME:;
#STEPSTYPE:dance-single;
#DESCRIPTION:;
#CHARTSTYLE:;
#DIFFICULTY:Hard;
#METER:8;
#RADARVALUES:0.397,0.382,0.170,0.019,0.723,274.000,18.000,2.000,0.000,0.000,0.000,0.000,0.000,0.397,0.382,0.170,0.019,0.723,274.000,18.000,2.000,0.000,0.000,0.000,0.000,0.000;
#CREDIT:;
#NOTES:
0000
0000
0000
0000
,
0000
0000
0000
0000
,
0000
0000
0000
0000
,
0000
0000
0000
0000
,
0000
0000
1000
0100
1000
0100
0010
0000
0010
0001
0000
0001
,
1000
0010
1000
0010
0000
0010
0100
0000
1001
0000
0000
0000
,
1000
0000
1000
0100
0010
0100
1000
0000
0001
1000
0000
1000
,
0010
0000
0010
0100
0000
0100
0001
0000
0001
1000
0000
1000
,
0100
0000
0100
0010
0100
1000
0001
1000
0001
1000
0000
1000
,
0010
0100
0010
0100
0000
0101
0000
0000
0001
1000
0000
0000
,
1000
0000
0001
0010
0001
0010
0100
1000
0100
1000
0000
1000
,
0001
0000
0001
0100
0000
0100
0010
0000
0010
1000
0000
0000
,
1010
0000
0010
1000
0010
1000
0100
0000
0100
1000
0001
1000
,
0001
0000
0001
0100
0000
0100
0010
0000
1010
0000
0000
0000
,
0010
0000
0010
1000
0000
1000
0100
0000
0100
0010
0000
0010
,
0100
0000
0100
1000
0000
1000
0001
0000
0001
1000
0000
1000
,
0010
1000
0010
0100
0000
0100
0001
0100
0001
1000
0001
1000
,
0100
0010
0100
1000
0000
0001
0100
0010
0100
0001
1000
0001
,
1000
0001
1000
0100
1000
0100
1000
0010
0100
0010
0000
0010
,
0100
0000
0100
0001
1000
0001
1000
0100
0010
0100
0000
0000
,
1001
0000
0001
1000
0010
0100
0001
0010
0100
1000
0001
1000
,
0100
0010
0100
0000
1001
0000
0110
0000
0000
1010
0000
0000
,
1000
0001
0010
0100
1000
0001
1000
0000
1000
0100
0000
0100
,
0010
0000
0100
1000
0000
0000
0110
0000
0000
1001
0000
0000
,
0101
0000
0001
0100
0000
0000
0110
0000
0010
1000
0100
0010
,
0100
0000
0000
0100
1000
0010
0100
0000
0000
0100
0001
1000
,
0100
1000
0001
0010
0001
1000
0000
0001
1000
0100
0010
0100
,
1000
0000
1000
0001
0100
0010
0100
0000
0000
0110
0000
0000
,
1001
0000
0001
0010
0000
0010
0100
1000
0001
0100
0010
0100
,
0001
0010
0100
1000
0000
1000
0001
0000
0000
0001
0000
0000
,
1000
0001
0100
0010
0100
0010
0100
0000
0100
0001
0000
0100
,
0001
0000
0001
1000
0000
1000
0100
0000
0000
0110
0000
0000
,
1001
0000
0100
0001
0000
0000
1001
0000
0001
0010
0100
1000
,
0001
0000
0000
0001
1000
0100
0010
0000
0000
0010
0100
1000
,
0001
0100
0010
0100
0001
1000
0000
0100
1000
0100
0010
0100
,
1000
0001
0100
0001
1000
0100
1000
0000
0000
2002
0000
0000
,
0000
0000
0000
3003
;

//---------------dance-double - ----------------
#NOTEDATA:;
#CHARTNAME:;
#STEPSTYPE:dance-double;
#DESCRIPTION:;
#CHARTSTYLE:;
#DIFFICULTY:Easy;
#METER:3;
#RADARVALUES:0.151,0.191,0.009,0.019,0.000,109.000,1.000,2.000,0.000,0.000,0.000,0.000,0.000,0.151,0.191,0.009,0.019,0.000,109.000,1.000,2.000,0.000,0.000,0.000,0.000,0.000;
#CREDIT:;
#NOTES:
00000000
00000000
00000000
00000000
,
00000000
00000000
00000000
00000000
,
00000000
00000000
00000000
00000000
,
00000000
00000000
00000000
00000000
,
00010000
00010000
01000000
01000000
,
00001000
00001000
00010000
00000000
,
00010000
00001000
00000100
00000010
,
00000100
00000100
00001000
00000000
,
00001000
00000100
00000010
00000100
,
00001000
00000001
00000100
00000010
,
00000100
00000010
00010000
00001000
,
00100000
00010000
00010000
00000000
,
10000000
01000000
00100000
01000000
,
10000000
10000000
00010000
00000000
,
00010000
01000000
00100000
01000000
,
00001000
00010000
00010000
00000000
,
00001000
00000000
00010000
00000000
,
00001000
00000000
00100000
00000000
,
00001000
00001000
00010000
00010000
,
00000100
00000100
00001000
00000000
,
00001000
00000100
00000010
00000100
,
00000001
00000001
00001000
00000000
,
00001000
00000100
00001000
00010000
,
00001000
00010000
00100000
00000000
,
01000000
01000000
00000000
10000000
,
10000000
00000000
00010000
00100000
,
00001000
00010000
00001000
01000000
,
00100000
01000000
00010000
00000000
,
00001000
00001000
00010000
00001000
,
00000100
00000010
00000100
00000000
,
00000010
00000010
00000001
00000010
,
00000001
00001000
00000100
00000000
,
00000100
00010000
00000000
00010000
,
00001000
00010000
00100000
00000000
,
01000000
01000000
10000000
00010000
,
01000000
00001000
00010000
00022000
,
00000000
00000000
00000000
00033000
;

//---------------dance-double - ----------------
#NOTEDATA:;
#CHARTNAME:;
#STEPSTYPE:dance-double;
#DESCRIPTION:;
#CHARTSTYLE:;
#DIFFICULTY:Medium;
#METER:6;
#RADARVALUES:0.289,0.287,0.180,0.000,0.378,195.000,19.000,0.000,0.000,0.000,0.000,0.000,0.000,0.289,0.287,0.180,0.000,0.378,195.000,19.000,0.000,0.000,0.000,0.000,0.000,0.000;
#CREDIT:;
#NOTES:
00000000
00000000
00000000
00000000
,
00000000
00000000
00000000
00000000
,
00000000
00000000
00000000
00000000
,
00000000
00000000
00000000
00000000
,
10000000
00000000
01000000
00100000
00000000
00000000
00010000
00000000
00000000
00010000
00000000
00000000
,
00010000
00100000
00001000
00010000
00000000
00000000
00011000
00000000
00000000
00000000
00000000
00000000
,
00001000
00000000
00001000
00010000
00000000
00010000
00000100
00000000
00000100
00000010
00000000
00000010
,
00000001
00000001
00001000
00001000
,
00000001
00000000
00000001
00000100
00000000
00000100
00000010
00000000
00000010
00001000
00000000
00000000
,
00000100
00000000
00010000
00001000
00000000
00011000
00000000
00000000
00000000
00011000
00000000
00000000
,
00001000
00000000
00010000
00100000
00000000
00100000
01000000
00000000
01000000
00010000
00000000
00000000
,
10000000
01000000
00100000
10010000
,
10000000
00000000
00000000
10000000
00000000
00000000
00010000
00000000
01000000
00001000
00000000
00000000
,
00010000
00001000
00010000
00011000
,
00101000
00100000
00010000
01000000
,
00010000
00000000
10000000
01000000
00000000
01000000
00100000
00000000
00000000
00000000
00000000
00100000
,
00010000
00000000
00100000
00000000
00000000
00100000
00010000
00000000
01000000
00000000
00000000
01000000
,
00010000
00000000
10000000
00000000
00000000
01000000
10000000
00000000
00100000
01000000
00000000
01000000
,
00010000
00000000
00010000
00100000
00000000
00000000
00010000
00000000
00010000
01000000
00000000
00000000
,
00100000
00000000
00100000
10000000
00000000
10000000
00010000
00000000
00010000
01000000
00000000
00000000
,
00011000
00000000
00000100
00001000
00000000
00000000
00001000
00000000
00000000
00000100
00000000
00000000
,
00000010
00000000
00000010
00000001
00000000
00000000
00000011
00000000
00000000
00000000
00000000
00000000
,
00001100
00000000
00000001
00000100
00000000
00000100
00000010
00000000
00000010
00001000
00000000
00001000
,
00000100
00000000
00000100
00010000
00000000
00000000
00011000
00000000
00000000
00101000
00000000
00000000
,
01010000
00000000
01000000
00010000
00000000
00000000
10010000
00000000
10000000
01000000
10000000
01000000
,
00100000
00000000
00000000
00100000
00010000
01000000
00010000
00000000
00000000
10000000
00000000
00000000
,
00010000
00000000
00010000
00100000
00000000
00100000
00000000
00001000
00100000
00001000
00000000
00001000
,
00010000
00000000
00000000
00010000
00001000
00100000
00001000
00000000
00000000
00001000
00010000
00000100
,
00001000
00000000
00001000
00000100
00000000
00000100
00000010
00000000
00000010
00000001
00000000
00000000
,
00000001
00000000
00000100
00000001
00000000
00001100
00000000
00000000
00000000
00000000
00000000
00000000
,
00000010
00000000
00000001
00000010
00000000
00000010
00000100
00000000
00000100
00001000
00000000
00001000
,
00000001
00000000
00000001
00000100
00000000
00000000
00000110
00000000
00000000
00001001
00000000
00000000
,
00001100
00000000
00000100
00010000
00000000
00000000
00011000
00000000
00001000
00100000
00000000
00100000
,
00010000
00000000
00000000
00010000
00100000
01000000
10000000
00000000
00000000
10000000
00100000
01000000
,
00010000
00000000
10000000
00000000
01000000
00000000
00000000
00100000
00010000
00100000
00000000
01000000
,
00000000
10000000
01000000
00100000
00010000
00001000
00000010
00000000
00000000
00000110
00000000
00000000
;

//---------------dance-double - ----------------
#NOTEDATA:;
#CHARTNAME:;
#STEPSTYPE:dance-double;
#DESCRIPTION:;
#CHARTSTYLE:;
#DIFFICULTY:Hard;
#METER:8;
#RADARVALUES:0.393,0.379,0.236,0.019,0.685,264.000,25.000,2.000,0.000,0.000,0.000,0.000,0.000,0.393,0.379,0.236,0.019,0.685,264.000,25.000,2.000,0.000,0.000,0.000,0.000,0.000;
#CREDIT:;
#NOTES:
// measure 0
00000000
00000000
00000000
00000000
,  // measure 1
00000000
00000000
00000000
00000000
,  // measure 2
00000000
00000000
00000000
00000000
,  // measure 3
00000000
00000000
00000000
00000000
,  // measure 4
10000000
00000000
10000000
01000000
00100000
00010000
00100000
00000000
00100000
00001000
00000000
00001000
,  // measure 5
00010000
00000000
00010000
00001000
00000000
00001000
00010000
00000000
00010100
00000000
00000000
00000000
,  // measure 6
00001100
00000000
00000100
00000010
00000000
00000010
00000001
00000000
00000001
00000100
00000000
00000100
,  // measure 7
00000010
00000000
00000010
00001000
00000000
00001000
00000010
00000000
00000010
00010000
00000000
00010000
,  // measure 8
00001000
00000000
00001000
00100000
00000000
00010000
00100000
00010000
00100000
01000000
00000000
01000000
,  // measure 9
10000000
01000000
00100000
00010000
00000000
00110000
00000000
00000000
00100000
00001000
00000000
00000000
,  // measure 10
00011000
00000000
00010000
00000100
00001000
00000100
00000010
00000001
00000010
00000001
00000000
00000001
,  // measure 11
00000100
00000000
00000100
00000010
00000000
00000010
00001000
00000000
00001000
00000100
00000000
00000000
,  // measure 12
00001100
00000000
00000100
00001000
00010000
00001000
00000100
00000000
00000100
00000010
00000000
00000010
,  // measure 13
00000001
00000000
00000001
00000100
00000000
00000100
00000010
00000000
00000000
00001010
00000000
00000000
,  // measure 14
00011000
00000000
00001000
00010000
00000000
00010000
01000000
00000000
01000000
10000000
00000000
10000000
,  // measure 15
00010000
00000000
00010000
01000000
00100000
00000000
01100000
00000000
00000000
10010000
00000000
10000000
,  // measure 16
01000000
00100000
00010000
00100000
00000000
00100000
00001000
00010000
00001000
00000100
00000000
00000100
,  // measure 17
00000010
00001000
00000001
00000100
00000000
00000100
00000010
00001000
00000100
00010000
00001000
00010000
,  // measure 18
01000000
00000000
01000000
10000000
00010000
10000000
00100000
01000000
00100000
01000000
00000000
01000000
,  // measure 19
00010000
00000000
00010000
10000000
00000000
10000000
01000000
00000000
01000000
00100000
00000000
00000000
,  // measure 20
01100000
00000000
00100000
00010000
01000000
00001000
00010000
00001000
00000100
00000010
00000001
00000010
,  // measure 21
00001000
00000010
00000100
00000000
00001001
00000000
00000000
00000000
00000000
00000100
00001000
00000100
,  // measure 22
00001000
00000100
00000010
00000001
00000010
00000100
00001000
00000000
00001000
00000010
00000000
00000010
,  // measure 23
00000000
00000000
00010000
00001000
00000000
00000000
00011000
00000000
00000000
01010000
00000000
00000000
,  // measure 24
00110000
00000000
00100000
00010000
00000000
00000000
10010000
00000000
00010000
00100000
01000000
10000000
,  // measure 25
01000000
00000000
00000000
01000000
10000000
00100000
01000000
00000000
00000000
01000000
00010000
00100000
,  // measure 26
00010000
01000000
00001000
00010000
00000100
00000010
00000000
00000010
00000001
00000010
00000100
00001000
,  // measure 27
00000000
00001000
00000100
00000010
00000001
00000010
00000100
00000000
00000000
00001001
00000000
00000000
,  // measure 28
00001001
00000000
00000001
00000100
00000000
00000100
00000010
00001000
00000010
00000100
00000001
00001000
,  // measure 29
00000100
00010000
00001000
00000000
00011000
00000000
01010000
00000000
00000000
01100000
00000000
00000000
,  // measure 30
10000000
01000000
10000000
01000000
00100000
00010000
01000000
00000000
01000000
00100000
00000000
00100000
,  // measure 31
01000000
00000000
01000000
00001000
00000000
00000000
00011000
00000000
00000000
00101000
00000000
00000000
,  // measure 32
00011000
00000000
00001000
00010000
00000000
00000000
00110000
00000000
00100000
01000000
10000000
01000000
,  // measure 33
00100000
00000000
00000000
00100000
00010000
01000000
00100000
00000000
00000000
00100000
01000000
00010000
,  // measure 34
10000000
01000000
00100000
00010000
01000000
00100000
00000000
01000000
00001000
00010000
00001000
00010000
,  // measure 35
00000100
00001000
00000100
00000010
00000001
00000010
00000100
00000000
00000000
00022000
00000000
00000000
,  // measure 36
00000000
00000000
00033000
00000000
;
