#TITLE:Dreamin' Feelin';
#SUBTITLE:Anthemic Update;
#ARTIST:DJ Noriken;
#TITLETRANSLIT:;
#SUBTITLETRANSLIT:;
#ARTISTTRANSLIT:;
#CREDIT:;
#BANNER:Dreamin' Feelin'(Anthemic Update).png;
#BACKGROUND:Dreamin' Feelin'(Anthemic Update)-bg.png;
#LYRICSPATH:;
#CDTITLE:;
#MUSIC:Dreamin' Feelin'(Anthemic Update).mp3;
#OFFSET:-0.546;
#SAMPLESTART:68.834;
#SAMPLELENGTH:13.460;
#SELECTABLE:YES;
#BPMS:0.000=170.000;
#STOPS:;
#BGCHANGES:;

//---------------dance-single - ----------------
#NOTES:
     dance-single:
     :
     Hard:
     9:
     0.625,0.640,0.261,0.340,0.111:
0000
0000
0000
0000
,
0000
0000
0000
0000
,
0000
0000
0000
0000
,
0000
0000
0000
0000
,
0000
0000
0000
0000
,
1000
0010
1000
0100
0000
0010
0001
0100
,
0000
0010
1000
0100
0000
0010
0001
0100
,
0000
0010
1000
0001
0000
0010
0001
1000
,
0000
0010
1000
0001
0010
0001
0100
0001
,
0011
0100
1010
0100
,
0101
0000
0010
0000
1100
0000
0010
1000
,
0101
0010
1100
0010
,
0101
0000
1010
0000
1002
0000
1000
1003
,
1001
0100
0010
1000
0100
0010
0001
0000
,
1001
0100
0010
0001
0100
0010
1000
0000
,
1100
0100
0010
0001
0011
0100
0101
0000
,
1001
0000
0101
0000
0010
0010
0010
0000
,
2000
0000
0000
3200
0000
0000
0320
0000
,
0032
0000
0000
0203
0000
0000
0320
0000
,
2030
0000
0000
3200
0000
0000
0302
0000
,
0203
0000
0000
0320
0000
0000
0032
0000
,
2003
0000
0000
3020
0000
0000
0230
0000
,
0302
0000
0000
2003
0000
0000
3200
0000
,
0320
0000
0000
0032
0000
0000
0203
0000
,
2300
0000
0000
3200
0000
0000
0302
0000
,
0013
0001
0010
0100
1000
0100
0010
0001
,
0100
1000
0100
0001
0010
0001
0100
1000
,
0100
0010
0100
0001
1000
0001
0100
0010
,
1000
0100
1000
0001
0010
0001
1000
0100
,
0010
0010
0010
0001
0001
0001
0010
0010
,
0010
0100
0100
0100
1000
1000
0001
0001
,
0100
0100
0100
0010
0010
0010
1000
1000
,
1000
0001
0001
0010
0100
1000
0010
0100
,
0101
0000
0000
0000
1000
0000
0000
0100
0000
0000
0100
0000
0000
0010
0000
0000
,
0001
0000
0000
0000
0100
0010
0000
1000
0000
0000
1000
0000
0000
0100
0000
0000
,
0010
0000
0000
0000
0001
0000
0000
0100
0000
0000
0100
0000
0000
0010
0000
0000
,
1000
0000
0001
0000
0010
0100
0010
0100
0000
0000
1000
0000
0000
0010
0000
0000
,
1000
0000
0000
0000
0001
0000
0000
0100
0000
0000
0100
0000
0000
0010
0000
0000
,
1000
0000
0000
0000
0100
0010
0000
0001
0000
0000
0001
0000
0000
0100
0000
0000
,
0010
0000
0000
0000
1000
0000
0000
0100
0000
0000
0100
0000
0000
0010
0000
0000
,
0001
0000
1000
0000
0010
0100
0010
0100
0001
0000
0010
0000
0100
0000
1000
0000
,
0001
0000
0100
0000
0001
0000
0000
1000
0000
0000
1000
0000
0100
0000
0010
0000
,
0001
0000
0100
0000
0010
0100
0000
0001
0000
0000
0001
0000
0010
0000
0100
0000
,
1000
0000
0010
0000
0100
0000
0000
0001
0000
0000
0001
0000
0010
0000
0100
0000
,
1000
0000
0010
0000
0100
0001
0100
0010
0000
0000
1000
0000
0100
0000
0010
0000
,
0001
0000
1000
0000
0001
0000
0000
0010
0000
0000
0010
0000
0100
0000
1000
0000
,
0010
0000
1000
0000
0001
0100
0000
0001
0000
0000
0010
0000
0100
0000
1000
0000
,
0010
0100
0001
0010
0100
1000
0010
0100
,
1001
0000
0000
1000
0100
0010
0001
2000
,
0000
3002
0000
1003
0100
0010
0001
2000
,
0000
3002
0000
0103
0010
1000
0001
0020
,
0000
0230
0000
0310
0100
1000
0001
0200
,
0000
0320
0000
1030
0100
0001
0100
2000
,
0000
3002
0000
0103
1000
0100
0001
2000
,
0000
3020
0000
1030
0010
0100
0001
0020
,
0000
0230
0000
1300
0010
0100
0001
0020
,
0000
0230
0000
1300
0001
0010
0100
0110
,
0000
1100
0000
0001
0100
0010
1000
1010
,
0000
0011
0000
0100
0001
1000
0100
1100
,
0000
0101
0000
0100
1000
0001
0100
0101
,
0000
1100
0000
1000
0100
1000
0001
0011
,
0000
1100
0000
0010
1000
0001
0100
0101
,
0000
1100
0000
0001
0010
0100
1000
1100
,
0000
0101
0000
1000
0010
0100
0010
1000
,
0002
0000
0023
0000
0100
0100
0130
0000
,
1000
0100
0010
0001
1000
0000
1000
0100
,
0010
0001
1000
0000
1000
0100
0010
0001
,
1000
0001
0100
0010
1000
0000
0001
0100
,
0010
1000
0001
0010
0100
1000
0010
0100
,
0001
0010
0100
0010
0001
0000
1000
0010
,
0100
0010
1000
0000
0001
0010
0001
0100
,
0001
1000
0010
1000
0001
0000
1000
0001
,
0010
0001
1000
0010
0100
0001
1000
0010
,
1000
0100
0001
0100
1000
0000
1000
0100
,
0001
0100
1000
0010
0100
0001
1000
0000
,
0001
0100
1000
0100
0001
0000
0001
0100
,
1000
0100
0010
1000
0100
0010
0001
0100
,
0001
0010
1000
0010
0001
0000
0001
0010
,
1000
0010
0001
0100
0010
1000
0100
0000
,
1000
0010
0001
0010
1000
0000
1000
0100
,
0001
0000
0100
0000
1000
0001
0100
0100
,
1001
0000
0000
0000
;

//---------------dance-double - ----------------
#NOTES:
     dance-double:
     :
     Hard:
     9:
     0.571,0.544,0.142,0.261,0.138:
00000000
00000000
00000000
00000000
,
00000000
00000000
00000000
00000000
,
00000000
00000000
00000000
00000000
,
00000000
00000000
00000000
00000000
,
00000000
00000000
00000000
00000000
,
00001000
00010000
00001000
00100000
00000000
00001000
00010000
00000010
,
00000000
00010000
00001000
01000000
00000000
00001000
00010000
00000100
,
00000000
00010000
00001000
00100000
00000000
00001000
00010000
00000100
,
00000010
00000001
00000100
00000010
00001000
00000100
00010000
00001000
,
01000000
00010000
00100000
01000000
00000000
10000000
00100000
01000000
,
00000000
00010000
00100000
00001000
00000000
00010000
00000100
00000010
,
00000000
00000100
00001000
00000010
00000000
00010000
00001000
01000000
,
00000000
00010000
10000000
01000000
00200000
00000000
00310000
01000000
,
00100000
10000000
01000000
00010000
00000000
00001000
00000100
00000010
,
00001000
00000100
00000010
00000001
00000000
00000100
00000010
00001000
,
00000001
00000010
00000100
00001000
00000010
00010000
00001000
00000000
,
00011000
00000000
00000000
00000000
01001000
00000000
00000000
00000000
01000000
00001000
01000000
00001000
01000000
00000000
00000000
00000000
,
00002000
00000000
00000000
00023000
00000000
00000000
00230000
00000000
,
20300000
00000000
00000000
32000000
00000000
00000000
03020000
00000000
,
00032000
00000000
00000000
00003200
00000000
00000000
00000302
00000000
,
00000023
00000000
00000000
00002030
00000000
00000000
00003020
00000000
,
00000032
00000000
00000000
00000203
00000000
00000000
00000320
00000000
,
00020030
00000000
00000000
00032000
00000000
00000000
00203000
00000000
,
20300000
00000000
00000000
30200000
00000000
00000000
00320000
00000000
,
02030000
00000000
00000000
03002000
00000000
00000000
00023000
00000000
,
00030010
00000100
00000010
00010000
00001000
00010000
01000000
10000000
,
00100000
01000000
00100000
00010000
00001000
00010000
00000100
00000010
,
00000001
00001000
00000001
00000010
00001000
00000010
00000100
00010000
,
00100000
01000000
00100000
10000000
01000000
10000000
00010000
01000000
,
00001000
00001000
00001000
00010000
00010000
00010000
00000010
00000010
,
00000010
00000100
00000100
00000100
00000001
00000001
00001000
00001000
,
00010000
00010000
00010000
01000000
01000000
01000000
00100000
00100000
,
00100000
10000000
10000000
01000000
00100000
00010000
01000000
00010000
,
00200000
00000000
00000000
00000000
00010000
00000000
00000000
00001000
00000000
00000000
00001000
00000000
00000000
00010000
00000000
00000000
,
00302000
00000000
00000000
00000000
00010000
00000000
00000000
01000000
00000000
00000000
01000000
00000000
00000000
00010000
00000000
00000000
,
00003020
00000000
00000000
00000000
00000001
00000000
00000000
00001000
00000000
00000000
00001000
00000000
00000000
00000001
00000000
00000030
,
00000200
00000000
00000000
00000000
00000010
00000000
00000000
00000001
00000000
00000000
00000001
00000000
00000000
00000010
00000000
00000000
,
00020300
00000000
00000000
00000000
00000010
00000000
00000000
00001000
00000000
00000000
00000100
00000000
00000000
00001000
00000000
00000000
,
00230000
00000000
00000000
00000000
01000000
00000000
00000000
00010000
00000000
00000000
01000000
00000000
00000000
10000000
00000000
00000000
,
02300000
00000000
00000000
00000000
00100000
00000000
00000000
10000000
00000000
00000000
00100000
00000000
00000000
00010000
00000000
00000000
,
03002000
00000000
00000000
00000000
00010000
00000000
00000000
01000000
00000000
00000000
00010000
00000000
00000000
00103000
00000000
00000000
,
00001000
00000000
00000000
00000000
00010000
00000000
00000000
00001000
00000000
00000000
00001000
00000000
00000000
01000000
00000000
00000000
,
00100000
00000000
00000000
00000000
10000000
00100000
00000000
01000000
00000000
00000000
01000000
00000000
00000000
00010000
00000000
00000000
,
00100000
00000000
00000000
00000000
00001000
00000000
00000000
00010000
00000000
00000000
00010000
00000000
00000000
00000100
00000000
00000000
,
00000010
00000000
00000010
00000000
00000001
00001000
00000000
00001000
00000000
00000000
00000010
00000000
00000000
00000100
00000000
00000000
,
00000010
00000000
00000000
00000000
00001000
00000000
00000000
00000100
00000000
00000000
00000100
00000000
00000000
00010000
00000000
00000000
,
00100000
00000000
00000000
00000000
01000000
00010000
00000000
00100000
00000000
00000000
00100000
00000000
00000000
01000000
00000000
00000000
,
10000000
00000000
00000000
00000000
00010000
00000000
00000000
01000000
00000000
00000000
01000000
00000000
00000000
00100000
00000000
00000000
,
10010000
00000000
00000000
01000000
00100000
00010000
01000000
00010000
,
00000000
10000000
00000000
01000000
00010000
01000000
00100000
00010000
,
00000000
01000000
00000000
00001000
00010000
00001000
00000010
00001000
,
00000000
00010000
00000000
00001000
00000100
00001000
00010000
00001000
,
00000000
00000100
00000000
00000001
00000010
00001000
00000010
00000001
,
00000000
00000100
00000000
00000010
00010000
00001000
00000100
00000010
,
00000000
00010000
00000000
00001000
01000000
00010000
00100000
01000000
,
00000000
00100000
00000000
01000000
00100000
00010000
01000000
00100000
,
00000000
00010000
00000000
00001000
00000010
00000001
00000100
00001010
,
00000000
00001001
00000000
00000100
00010000
00001000
00010000
00010100
,
00000000
00011000
00000000
00100000
00010000
01000000
00100000
10100000
,
00000000
10010000
00000000
00100000
10000000
01000000
00100000
00110000
,
00000000
10010000
00000000
01000000
00010000
00100000
00001000
00011000
,
00000000
01001000
00000000
01000000
00010000
00100000
00001000
00011000
,
00000000
00010100
00000000
00000100
00001000
00000010
00000100
00000101
,
00000000
00001100
00000000
00000001
00000100
00000001
00000100
00000001
,
00001000
00000000
00000010
00010000
00001000
00000000
00100000
00001000
,
00010000
00000000
00010000
00100000
01000000
00000000
00010000
00000000
,
00010000
00100000
01000000
00000000
00010000
00000000
00001000
00000100
,
00001000
00000000
00000001
00000010
00000100
00000000
00000001
00000000
,
00000001
00000010
00000100
00001000
00000100
00010000
00001000
00100000
,
00001000
00000000
00001000
00000100
00000010
00000000
00001000
00000000
,
00001000
00000100
00000010
00000000
00001000
00000000
00010000
00100000
,
00010000
00000000
10000000
01000000
00100000
00000000
10000000
01000000
,
00100000
00010000
01000000
00100000
00010000
00001000
00000010
00001000
,
00010000
00001000
00000100
00001000
00010000
00000000
00010000
00001000
,
00000100
00001000
00010000
00000000
00010000
00001000
00010000
00000000
,
00001000
00010000
01000000
00010000
00001000
00000000
00001000
00010000
,
01000000
00010000
00001000
00000010
00000001
00000100
00000010
00001000
,
00000010
00000001
00000010
00001000
00000100
00000000
00000010
00001000
,
00000010
00000001
00000100
00000000
00001000
00010000
01000000
00000000
,
00100000
10000000
00100000
00010000
01000000
00000000
00100000
00010000
,
00100000
10000000
01000000
00100000
00010000
01000000
00001000
00010000
,
00011000
00000000
00000000
00000000
;

//---------------dance-single - ----------------
#NOTES:
     dance-single:
     :
     Medium:
     7:
     0.494,0.512,0.158,0.474,0.000:
0000
0000
0000
0000
,
0000
0000
0000
0000
,
0000
0000
0000
0000
,
0000
0000
0000
0000
,
0000
0000
0000
0000
,
2000
0010
3002
0010
,
2003
0100
3002
0100
,
2003
3020
0230
0302
,
1000
1000
1000
1003
,
1001
0100
0010
0100
,
1001
0000
0010
0000
0100
0000
0010
1000
,
1001
0100
0010
0100
,
1001
0000
0100
0000
0020
0000
0100
0130
,
1001
0000
0100
0000
0010
0000
0001
0100
,
0110
0000
0100
0000
0010
0000
1000
0100
,
0110
0000
0010
0001
0011
0000
0100
1000
,
1100
0000
0101
0000
0010
0100
0010
0000
,
0022
0000
0000
0030
,
1000
0000
0000
0100
0000
0000
0010
0000
,
0200
0000
0000
0300
,
2003
0000
0000
0100
0000
0000
0001
0000
,
0020
0000
0000
0030
,
0001
0000
0000
0010
0000
0000
0100
0000
,
0020
0000
0000
3000
,
0100
0000
0000
1000
0000
0000
0001
0000
,
2030
0000
0000
3200
0000
0000
0320
0000
,
0032
0000
0000
0203
0000
0000
0320
0000
,
2030
0000
0000
3200
0000
0000
0302
0000
,
0203
0000
0000
2300
0000
0000
3020
0000
,
0230
0000
0000
2300
0000
0000
3200
0000
,
0302
0000
0000
2003
0000
0000
3020
0000
,
0230
0000
0000
0302
0000
0000
0023
0000
,
0230
0000
0000
2300
0000
0000
3002
0000
,
1003
0000
1000
0000
1000
0000
1000
0001
,
1000
0000
1000
0001
1000
0000
1000
0001
,
0010
0000
0010
0000
0010
0000
0010
0001
,
0010
0000
0010
0001
0100
0000
0010
1000
,
0100
0000
0100
0000
0100
0000
0100
1000
,
0001
0000
0001
1000
0100
0000
0100
1000
,
0100
0000
0100
0000
0100
0000
0100
0010
,
0001
0000
0100
0010
1000
0000
0001
0010
,
0001
0000
0100
0000
0010
0000
1000
0100
,
0010
0000
0010
0100
1000
0000
1000
0100
,
0010
0000
0001
0000
0100
0000
0010
1000
,
0100
0000
0100
1000
0010
0000
0010
1000
,
0001
0000
0100
0000
0010
0000
0010
1000
,
0001
0000
0001
1000
0010
0000
0010
1000
,
0001
0000
0100
0000
0010
0000
1000
0001
,
0010
0000
0100
1000
0010
0100
0001
1000
,
0001
0000
0101
0000
1100
0000
0100
0001
,
1000
0000
0100
1000
0001
0000
0100
0001
,
0010
0000
0101
0000
1100
0000
0010
0100
,
0001
0000
0010
0100
1000
0000
1000
0100
,
0010
0000
0011
0000
1001
0000
0010
0001
,
0010
0000
0100
1000
0100
0000
0010
0001
,
1000
0000
1010
0000
1001
0000
0010
1000
,
0001
1000
0001
1000
0100
0010
0100
0010
,
0002
0000
1000
0000
0100
0000
0013
0001
,
0100
0000
0010
1000
0100
0000
0010
0001
,
2000
0000
0010
0000
0100
0000
3010
1000
,
0001
0000
0010
0001
0100
0000
0010
1000
,
0200
0000
0001
0000
1000
0000
0310
0001
,
1000
0000
0010
0100
0001
0000
1000
0010
,
0200
0000
1000
0000
0001
0000
0310
1000
,
0001
1000
0001
1000
0010
0010
0010
0000
,
0100
0000
0001
1000
0001
0000
0100
0000
,
0001
1000
0001
0000
1000
0001
1000
0000
,
0100
0000
1000
0001
1000
0000
0100
0000
,
1000
0001
1000
0000
0001
0010
0100
1000
,
0100
0000
0100
0010
0100
0000
1000
0000
,
0100
0010
0100
0000
0010
0100
0010
0000
,
0001
0000
0100
0010
0100
0000
0001
0000
,
0100
0010
0100
0000
0001
1000
0100
0010
,
0002
0203
0320
2030
,
3001
0010
0001
0000
0100
0000
0010
0000
,
2000
3200
0320
0032
,
1003
0010
1000
0000
0100
0010
0100
0000
,
2000
3020
0230
0302
,
0013
0100
0010
0000
0100
0000
1000
0000
,
0020
0230
0302
0023
,
0230
0010
0010
0310
,
0110
0000
0000
0000
;

//---------------dance-single - ----------------
#NOTES:
     dance-single:
     :
     Easy:
     4:
     0.305,0.448,0.284,0.111,0.000:
0000
0000
0000
0000
,
0000
0000
0000
0000
,
0000
0000
0000
0000
,
0000
0000
0000
0000
,
0000
0000
0000
0000
,
1000
0010
1000
0010
,
0100
0001
0100
0001
,
1000
0100
1000
0100
,
0010
0001
0100
1000
,
0020
1000
0000
1000
,
0000
0100
0000
0100
,
0230
0010
0000
0010
,
0000
0001
0000
0001
,
0301
0000
0010
0100
,
1000
0000
0010
0100
,
0001
0000
1000
0000
,
0001
1000
0001
1000
,
2002
0000
0000
0000
,
0000
0000
0000
0000
,
0000
0000
0000
0000
,
3003
0000
0000
0000
,
0020
0000
0000
0000
,
0000
0000
0000
0030
,
0200
0000
0000
0000
,
0000
0000
0000
0300
,
0002
0000
0000
0003
,
2000
0000
0000
3000
,
0200
0000
0000
0300
,
0020
0000
0000
0030
,
0002
0000
0000
0003
,
0200
0000
0000
0300
,
0020
0000
0000
0030
,
2000
0000
0000
3000
,
1001
0001
0001
0100
,
0010
0010
1000
1000
,
0001
0001
0001
0010
,
0100
0100
1000
1000
,
0010
0010
0010
0100
,
0001
0001
1000
1000
,
0100
0100
0100
0010
,
0001
0001
1000
0010
,
0110
0000
0000
0000
,
0101
0000
0000
0000
,
1100
0000
0000
0000
,
1010
0000
0011
0000
,
1001
0000
0100
0100
,
1001
0000
0100
0100
,
1001
0000
1001
0000
,
1010
1010
0101
0101
,
1001
0001
1000
0001
,
0100
0010
1000
0001
,
0010
0100
1000
0010
,
0100
0001
1000
0100
,
1100
0100
0010
0001
,
0100
0010
0100
0001
,
1000
1000
0001
0001
,
0010
0100
1000
0001
,
1001
0000
0010
0100
,
0101
0000
0010
0100
,
1100
0000
0010
1000
,
1010
0000
0001
0010
,
0011
0000
0100
0100
,
1001
0000
0100
0100
,
1001
0000
1001
0000
,
1001
1001
0110
0110
,
1001
1000
0100
0001
,
0100
1000
0010
0100
,
0001
0010
1000
0010
,
0001
0100
0010
1000
,
0001
0010
1000
0010
,
0001
0100
0010
1000
,
0100
0001
0100
1000
,
0010
0100
0001
0010
,
1001
0100
0010
1000
,
0100
0010
0001
0100
,
0010
1000
0010
1000
,
0001
0100
0001
0100
,
1001
0100
0010
0100
,
1001
0010
0100
0010
,
1001
0010
1000
0100
,
1001
0000
0010
0000
0100
0000
0010
0100
,
1001
0000
0000
0000
;

//---------------dance-double - ----------------
#NOTES:
     dance-double:
     :
     Easy:
     3:
     0.262,0.320,0.039,0.158,0.000:
00000000
00000000
00000000
00000000
,
00000000
00000000
00000000
00000000
,
00000000
00000000
00000000
00000000
,
00000000
00000000
00000000
00000000
,
00000000
00000000
00000000
00000000
,
10000000
01000000
00000000
00100000
,
00000000
00010000
00000000
00001000
,
00000000
00000100
00000000
00010000
,
00000000
00001000
00000000
00000100
,
00000010
00001000
00000000
00000100
,
00000000
00010000
00000000
00001000
,
01000000
00010000
00000000
00100000
,
00000000
01000000
00000000
00100000
,
01000000
10000000
00000000
00010000
,
01000000
00001000
00000000
00001000
,
00010000
00000100
00000010
00000001
,
00001000
00000001
00001000
00000001
,
00002000
00000000
00000000
00000000
,
00000100
00000000
00000000
00000000
,
00000010
00000000
00000000
00000000
,
00000001
00000000
00000000
00000000
,
00023000
00000000
00000000
00000000
,
01000000
00000000
00000000
00000000
,
00100000
00000000
00000000
00000000
,
10000000
00000000
00000000
00000000
,
02030000
00000000
00000000
00000000
,
00100000
00000000
00000000
00000000
,
03020000
00000000
00000000
00000000
,
00100000
00000000
00000000
00000000
,
00032000
00000000
00000000
00000000
,
00000100
00000000
00000000
00000000
,
00003020
00000000
00000000
00000000
,
00001000
00000000
00000000
00000000
,
00000130
00000001
00000000
00000010
,
00000100
00001000
00000000
00000010
,
00001000
00000100
00000000
00000010
,
00000001
00001000
00000000
00000100
,
00010000
00001000
00000000
00010000
,
00001000
00100000
00000000
00001000
,
00100000
01000000
00000000
00100000
,
01000000
10000000
00010000
01000000
,
00001000
00010000
00000000
00010000
,
00001000
00100000
00000000
00100000
,
00001000
00010000
00000000
00010000
,
00001000
00000100
00000010
00001000
,
00000001
00000010
00000000
00000100
,
00001000
00000010
00000000
00001000
,
00000100
00010000
00001000
00100000
,
00022000
00000000
00000000
00033000
,
00011000
00001000
00100000
01000000
,
10000000
00100000
01000000
00010000
,
10000000
01000000
00100000
00010000
,
01000000
00100000
00010000
00001000
,
00011000
00010000
00000010
00000100
,
00000001
00000010
00000100
00001000
,
00000001
00000100
00000010
00001000
,
00000100
00000010
00001000
00010000
,
00012000
01000000
00000000
01000000
,
00010000
01000000
00000000
01000000
,
00023000
00000100
00000000
00000100
,
00001000
00000100
00000000
00000100
,
00032000
00100000
00000000
00100000
,
00023000
00000010
00000000
00000010
,
00031000
00010000
00001000
00010000
,
00000100
00001000
00000010
00001000
,
00000100
00000010
00000001
00000100
,
00000010
00001000
00000100
00010000
,
00001000
00100000
00010000
01000000
,
00100000
10000000
01000000
10000000
,
01000000
00100000
00010000
01000000
,
00100000
10000000
01000000
00100000
,
00010000
01000000
00001000
00010000
,
00000100
00000010
00000001
00000100
,
00000020
00000000
00001000
00000000
,
00002030
00000000
00000100
00000000
,
00003200
00000000
00010000
00000000
,
00020300
00000000
00001000
00000000
,
00032000
00000000
00100000
00000000
,
02003000
00000000
00010000
00000000
,
03200000
00000000
20300000
00000000
,
31000000
00100000
00010000
01000000
,
00011000
00000000
00000000
00000000
;

//---------------dance-double - ----------------
#NOTES:
     dance-double:
     :
     Medium:
     6:
     0.493,0.480,0.237,0.537,0.000:
00000000
00000000
00000000
00000000
,
00000000
00000000
00000000
00000000
,
00000000
00000000
00000000
00000000
,
00000000
00000000
00000000
00000000
,
00000000
00000000
00000000
00000000
,
10000000
10100000
00100000
01100000
,
01000000
01001000
00001000
00011000
,
00010000
00010100
00000100
00000110
,
00000010
00000011
00000001
00001000
,
00000001
00000101
00000010
00000101
,
00000010
00001100
00000010
00010100
,
00001000
01001000
00010000
00110000
,
10000000
10100000
02000000
00010000
,
03100000
01010000
00001000
00101000
,
00010000
00010100
00001000
00001010
,
00000010
00001000
00000010
00001000
00000100
00001000
00000100
00001000
,
00020000
00000000
00000000
00000000
,
00230000
00000000
00000000
00320000
00000000
00000000
00230000
00000000
,
02300000
00000000
00000000
23000000
00000000
00000000
32000000
00000000
,
03200000
00000000
00000000
00320000
00000000
00000000
00230000
00000000
,
02300000
00000000
00000000
23000000
00000000
00000000
30200000
00000000
,
02300000
00000000
00000000
03002000
00000000
00000000
02003000
00000000
,
03002000
00000000
00000000
00203000
00000000
00000000
00302000
00000000
,
00023000
00000000
00000000
00030200
00000000
00000000
00020300
00000000
,
00030020
00000000
00000000
00000230
00000000
00000000
00000302
00000000
,
00000023
00000000
00000000
00000032
00000000
00000000
00000023
00000000
,
00000230
00000000
00000000
00002300
00000000
00000000
00003200
00000000
,
00000320
00000000
00000000
00000032
00000000
00000000
00000023
00000000
,
00000230
00000000
00000000
00002300
00000000
00000000
00003020
00000000
,
00000230
00000000
00000000
00000302
00000000
00000000
00000203
00000000
,
00000320
00000000
00000000
00002030
00000000
00000000
00003200
00000000
,
00020300
00000000
00000000
00032000
00000000
00000000
00203000
00000000
,
00320000
00000000
00000000
20030000
00000000
00000000
30200000
00000000
,
01300000
00000000
01000000
00000000
01000000
00000000
01000000
00010000
,
00100000
00000000
00100000
00001000
00010000
00000000
00010000
00001000
,
00000100
00000000
00000100
00000000
00000100
00000000
00000100
00000010
,
00001000
00000000
00001000
00000010
00000100
00000000
00000100
00000001
,
00001000
00000000
00001000
00000000
00001000
00000000
00001000
00000100
,
00010000
00000000
00010000
00001000
00100000
00000000
00100000
00010000
,
10000000
00000000
10000000
00000000
10000000
00000000
10000000
00100000
,
01000000
00000000
00010000
00100000
00001000
00000000
00010000
00001000
,
00010000
00000000
00001000
00000000
00010000
00000000
00001000
00000010
,
00000100
00000000
00001000
00000010
00000100
00000000
00000001
00000010
,
00000100
00000000
00001000
00000000
00000100
00000000
00001000
00000010
,
00010000
00000000
00000100
00010000
00001000
00000000
00100000
00010000
,
01000000
00000000
00100000
00000000
01000000
00000000
00100000
10000000
,
00010000
00000000
00100000
00010000
01000000
00000000
00100000
10000000
,
00010000
00100000
00001000
00010000
,
00011000
00000000
00000000
00000000
,
00011000
00001000
00100000
00010000
,
00110000
01000000
10000000
01000000
,
00110000
01000000
00001000
00010000
,
00011000
00000100
00000010
00000001
,
00001001
00000100
00000010
00001000
,
00001010
00001000
00000100
00010000
,
00011000
00001000
00100000
00010000
,
00110000
00010000
01000000
00001000
,
00011000
00000000
01000000
00001000
01000000
00000000
00001000
00000000
,
01000000
00010000
01000000
00000000
00001000
00000000
00100000
00000000
,
00001000
00000000
00010000
00000100
00010000
00000000
00000100
00000000
,
00001000
00000010
00001000
00000000
00000100
00010000
00000100
00000000
,
00010000
00000000
00100000
01000000
00100000
00000000
10000000
00000000
,
01000000
00100000
01000000
00000000
00010000
00000000
00001000
00000000
,
00011000
00000000
00000010
00000100
00000010
00000000
00000001
00000100
,
00000010
00000000
00001000
00000000
00000100
00010000
00001000
00000000
,
01000000
00100000
01000000
00010000
01000000
00000000
00100000
10000000
,
00100000
01000000
00100000
00000000
01000000
00001000
00010000
00000000
,
00000100
00000010
00000100
00001000
00000100
00000000
00000010
00000100
,
00000010
00000001
00000010
00000000
00000100
00010000
00001000
00000000
,
01000000
00100000
01000000
00010000
10000000
00000000
01000000
00100000
,
01000000
10000000
00010000
00000000
01000000
00001000
00010000
00000000
,
00000100
00000010
00000100
00001000
00000001
00000000
00000100
00000010
,
00000100
00000001
00001000
00000100
00000010
00000100
00001000
00000010
,
00020000
00000010
00001000
00000100
,
00032000
00100000
00010000
01000000
,
00023000
02030000
23000000
30200000
,
02300000
03020000
00230000
00302000
,
00023000
00000100
00001000
00000010
,
00032000
00100000
01000000
00023000
,
00032000
00003200
00000302
00000023
,
00000230
00000000
00000010
00000310
,
00001001
00000000
00000000
00000000
;
