#TITLE:DARK LEGACY;
#SUBTITLE:;
#ARTIST:BaSTeT;
#TITLETRANSLIT:;
#SUBTITLETRANSLIT:;
#ARTISTTRANSLIT:;
#GENRE:;
#CREDIT:;
#MENUCOLOR:;
#METERTYPE:DDR;
#BANNER:DARK LEGACY.png;
#BACKGROUND:DARK LEGACY-bg.png;
#LYRICSPATH:;
#CDTITLE:./CDTITLES/BEATMANIA IIDX.PNG;
#MUSIC:DARK LEGACY.mp3;
#OFFSET:-1.247;
#SAMPLESTART:88.802;
#SAMPLELENGTH:15.000;
#SELECTABLE:YES;
#LISTSORT:;
#BPMS:0.000=98.000,32.000=196.000,191.000=98.000,207.000=196.000,331.000=98.000;
#STOPS:96.000=0.306122
;
#BGCHANGES:-1.000=DARK LEGACY.avi=1.000=1=0=0,
99999=-nosongbg-=1.000=0=0=0 // don't automatically add -songbackground-
;
#ATTACKS:;

//---------------dance-single - ----------------
#NOTES:
     dance-single:
     :
     Beginner:
     2:
     0.117,0.164,0.040,0.000,0.000:
0000
0000
0000
0000
,
0000
0000
0000
0000
,
0000
0000
0000
0000
,
0000
0000
0000
0000
,
0010
0000
0000
0000
,
0010
0000
0000
0000
,
0100
0000
0000
0000
,
0100
0000
0000
0000
,
0001
0000
0000
0000
,
0000
0000
0000
0000
,
1000
0000
0000
0000
,
0000
0000
0000
0000
,
0010
0000
0000
0000
,
0000
0000
0000
0000
,
0100
0000
0000
0000
,
0000
0000
0000
0000
,
0000
0001
0000
0001
,
0000
0001
0000
0000
,
0000
1000
0000
1000
,
0000
1000
0000
0000
,
0000
0010
0000
0010
,
0000
0010
0000
0000
,
0000
0100
0000
0100
,
0000
0100
0000
0000
,
0000
0000
0000
0000
,
0001
0000
0001
0000
,
0000
0000
1000
0000
,
1000
0000
1000
1000
,
0000
0000
0000
0010
,
0000
0000
0000
0100
,
0000
0000
0000
0001
,
0000
0000
0000
1000
,
0000
0000
0000
0100
,
0000
0000
0000
0001
,
0000
0000
0000
0100
,
0000
0000
0000
0010
,
0000
0000
0000
1000
,
0000
0000
0000
0001
,
0000
0000
0000
0010
,
0000
0000
0000
1000
,
1000
1000
0000
0100
,
0000
0000
0000
0001
,
0001
0001
0000
0010
,
0000
0000
0000
0100
,
0100
0100
0000
1000
,
0000
0000
0000
0010
,
0010
0010
0000
0001
,
0000
0000
0000
0010
,
0000
0000
0000
0000
,
0000
1000
0000
0001
,
0000
0000
0000
0000
,
0000
1000
0000
1000
,
0000
1000
0000
1000
,
0000
0000
0000
0001
,
0000
0001
0000
0001
,
0000
0000
0000
0010
,
0000
0010
0000
0010
,
0000
0000
0000
0100
,
0000
0100
0000
0100
,
0000
0000
0000
0001
,
0000
0000
0000
1000
,
0000
0000
0000
0010
,
0000
0000
0000
0100
,
0000
0000
0000
1001
,
0000
0000
0000
1000
,
0000
0000
0000
0100
,
0000
0000
0000
0010
,
0000
0000
0000
1001
,
0000
0001
0001
0001
,
0000
0000
0000
0100
,
0000
0010
0010
0010
,
0000
0000
0000
1001
,
0000
1000
1000
1000
,
0000
0000
0000
0100
,
0000
0000
0000
0000
,
0000
1000
0000
1001
,
0000
0000
0000
1000
,
0000
0000
0000
0001
,
0000
0000
0000
0001
,
0000
0000
0000
0010
,
0000
0000
0000
0100
,
0000
0000
0000
0000
,
0000
0000
0000
1001
;

//---------------dance-single - ----------------
#NOTES:
     dance-single:
     :
     Easy:
     5:
     0.339,0.405,0.317,0.270,0.000:
0000
0000
0000
0000
,
0000
0000
0000
0000
,
0000
0000
0000
0000
,
0000
0000
0000
0000
,
0020
0000
0000
0000
,
1030
0000
0001
1000
,
0002
0000
0023
0000
,
0230
0000
0000
1300
,
1000
0000
0000
0010
0000
0000
0100
0000
,
0000
1001
0000
0000
0001
0000
0010
0000
,
0001
0000
0000
0010
0000
0000
0100
0000
,
0000
1001
0000
0000
2000
0000
3010
0000
,
1000
0000
0000
0100
0000
0000
0001
0000
,
0000
0110
0000
0000
0001
0000
1000
0000
,
0001
0000
0000
0100
0000
0000
1000
0000
,
0000
0110
0000
0000
0002
0000
0003
0000
,
1000
0010
0000
0010
,
1000
0100
0000
0100
,
1000
0001
1000
0001
,
0010
0100
1000
0100
,
0010
0012
0000
0000
,
0100
0100
0103
0010
,
1000
1020
0000
0000
,
1000
1000
1000
1030
,
0100
0000
1001
0010
,
0000
0010
0100
0001
,
1000
0001
0010
0100
,
1000
0100
0010
0100
,
1002
0000
0000
1000
,
1000
1003
0010
0100
,
2001
0000
0000
0001
,
0001
0001
3001
1000
,
0000
0010
0000
0000
0000
0100
0000
1001
,
0000
0001
0010
0001
,
0000
0100
0000
0000
0000
0010
0000
1001
,
0000
0020
1030
0100
,
0000
0010
0000
0000
0000
0001
0000
0110
,
0000
1000
0010
0100
,
0000
0010
0000
0000
0000
1000
0000
0110
,
0000
0002
1003
0001
,
0000
1001
0000
0000
0000
0110
0000
0110
,
0000
1000
0100
1000
,
0000
1001
0000
0000
0000
0110
0000
0110
,
0000
0001
0010
0001
,
0000
0101
0000
0000
0000
1010
0000
1010
,
0000
1000
0100
1000
,
0000
1100
0000
0000
0000
0011
0000
0011
,
0000
1000
0001
2000
,
0000
0000
0000
3000
,
0000
0002
0003
0200
,
0320
2030
3002
2003
,
0000
0001
3001
0001
,
0100
0010
1000
0100
,
0010
0100
0000
1000
,
0100
0010
0001
0100
,
0010
0100
0100
0010
,
1000
0001
0100
0001
,
0010
0100
0000
0010
,
0001
1000
0100
1000
,
0010
0220
0330
1001
,
0000
0010
1000
0200
,
0000
1300
0000
0110
,
0000
0001
0010
0200
,
0000
0310
0000
1001
,
0000
0010
1000
0001
,
0100
0020
0030
2000
,
0000
0000
3001
0200
,
0000
0301
0000
1000
,
0100
0010
0100
2000
,
0000
3010
0000
0001
,
0100
0010
0100
0002
,
0000
1003
0000
1001
,
0010
0100
0001
0200
,
0000
0301
0000
2000
,
0000
0000
0000
0000
,
3000
0220
0330
1000
,
0000
1001
0000
0000
0100
0000
0000
0110
,
0000
0000
0001
0000
0000
1001
0000
0000
,
0010
0000
0000
0110
0000
0000
0001
0000
,
0000
0011
0000
0000
0100
0000
0000
1100
,
0000
0000
1000
0000
0000
1010
0000
0000
,
0100
0000
0000
0011
0000
0000
0000
0000
,
0000
0000
0000
2002
,
0000
0000
0000
0000
,
0000
0000
0000
0000
,
3003
0000
0000
0000
;

//---------------dance-single - ----------------
#NOTES:
     dance-single:
     :
     Medium:
     7:
     0.507,0.506,0.302,0.405,0.000:
0000
0000
0000
0000
,
0000
0000
0000
0000
,
0000
0000
0000
0000
,
0000
0000
0000
0000
,
0020
1000
0100
0031
,
0100
0000
0001
0010
,
0200
0001
0020
0330
,
2002
0000
0000
0000
3003
0000
1000
0001
,
1000
0100
0000
1000
1000
0000
0001
0100
,
0000
0001
0001
0000
0110
0000
0110
0000
,
0001
0010
0000
0001
0001
0000
1000
0010
,
0000
1000
1000
0000
0210
0000
0301
0000
,
0100
0100
0000
0010
0010
0000
1000
1000
,
0000
0001
0001
0000
1001
0000
0110
0000
,
0001
0001
0000
1000
1000
0000
0100
0100
,
0000
0010
0010
0000
2002
0000
3003
0000
,
1000
0000
0010
0000
0000
1000
0010
0000
,
0100
0000
0001
0000
0000
0010
0001
0000
,
1000
0000
0100
0000
0010
0100
1000
0000
,
0001
0000
0100
0001
1000
0000
0010
0000
,
0100
0210
0000
0000
,
0301
0000
1000
0000
0001
0010
0100
0000
,
0010
1002
0000
0000
,
0013
0000
1000
0000
0100
0010
0001
0000
,
0220
0330
1000
0000
0000
0000
0001
0000
,
0100
0000
0001
1000
0001
0000
0010
0000
,
0001
0000
1000
0000
0100
1000
0001
0000
,
1000
0000
0010
1000
0100
0000
1000
0000
,
2001
0000
0000
3010
,
0100
0000
0001
0100
0010
0000
0100
0000
,
1002
0000
0000
0013
,
1000
0000
0100
0010
0100
0000
1000
0010
,
1000
0010
0000
0010
0000
0100
0000
0100
,
0000
0100
0001
1000
0001
0000
0001
0010
,
0001
0010
0000
0010
0000
0001
0000
0001
,
0000
0100
0010
1000
0010
0000
0100
0010
,
0100
0010
0000
0010
0000
1000
0000
0001
,
0000
0100
0001
1000
0001
0000
1000
0100
,
1000
0100
0000
0100
0000
0010
0000
0001
,
0000
1000
0001
0100
0010
0000
1000
0001
,
0100
0001
0000
1001
0000
0010
0000
0010
,
0000
1000
0100
0010
0001
0000
0001
1000
,
0001
0100
0000
1001
0000
1000
0000
0010
,
0000
1000
0100
0010
0001
0000
0100
0010
,
1000
0010
0000
0110
0000
0101
0000
1010
,
0000
0001
0010
0100
1000
0000
0010
0001
,
0010
0100
0000
1100
0000
0101
0000
1001
,
0000
0010
1000
0001
0100
0000
2002
0000
,
0000
0000
0000
3003
,
0000
0020
0130
1002
,
0023
0230
2300
0002
,
3003
2000
3002
1003
,
1000
0100
0000
0100
0010
0000
0010
0001
,
0000
0001
0100
0000
0110
0000
0001
0000
,
0001
0100
0000
0100
0010
0000
0010
1000
,
0000
1000
0001
0000
0110
0000
1001
0000
,
1000
0010
0000
0010
0001
0000
0001
0010
,
0000
0010
1000
0000
0110
0000
1001
0000
,
1000
0100
0000
0100
0001
0000
0001
0100
,
1000
0220
0330
2000
,
3010
0000
0001
0100
0001
0000
0020
0000
,
0031
2000
3100
0002
,
0103
0000
1000
0010
0100
0000
0020
0000
,
1000
0001
0130
1002
,
0013
0000
1000
0100
0010
0000
0200
0000
,
2300
3002
0203
0302
,
0010
0000
0013
0000
1000
0100
2000
0000
,
0010
0000
3010
0000
0100
0001
2000
0000
,
3001
0000
0100
0001
0100
0000
0210
0000
,
0301
0020
1030
0002
,
0013
0000
1000
0100
1000
0000
0120
0000
,
1030
0002
0013
2001
,
3100
0000
0001
1000
0100
0000
2000
0000
,
3010
0000
0001
0100
0001
0000
1000
0100
,
0020
0100
1000
0100
,
0031
0000
0220
0000
0330
0000
0010
0100
,
0000
0100
0010
0000
1000
0001
0000
0001
,
1000
0000
0001
0001
0000
0010
0010
0000
,
1000
1000
0000
0010
0010
0000
1000
0100
,
0000
0100
0010
0000
0010
0001
0000
0001
,
0100
0000
0001
0001
0000
1000
1000
0000
,
0110
0110
0000
1001
1001
0000
0000
0000
,
0000
0000
0000
0220
,
0000
0000
0000
0000
,
0000
0000
0000
0000
,
0330
0000
0000
0000
;

//---------------dance-single - ----------------
#NOTES:
     dance-single:
     :
     Hard:
     9:
     0.705,0.810,0.833,0.397,0.151:
0000
0000
0000
0000
,
0000
0000
0000
0000
,
0000
0000
0000
0000
,
0000
0000
0000
0000
,
0002
2003
3200
0320
,
0031
0000
0000
0000
0000
0000
0000
0000
1000
0100
0010
0001
0010
0100
1000
0100
,
2000
0000
3020
0000
0230
0000
0000
0302
,
2003
0000
0000
0000
0000
0000
0000
0000
3001
1000
0001
0010
0100
0010
0001
0100
,
0010
1000
0000
0010
1010
0000
0100
0001
,
0000
0100
0101
0000
0001
0010
0100
0100
,
0010
0001
0000
0010
0011
0000
0100
1000
,
0000
0100
1100
0000
0020
0000
1030
0001
,
0100
0010
0000
0100
0110
0000
0001
1000
,
0000
0001
1001
0000
1000
0100
0020
0000
,
0031
0100
0000
0001
1001
0000
1000
0010
,
0000
0100
0110
0000
2002
0000
3003
0000
,
0010
0000
0000
0000
0100
0000
0000
0001
2000
0000
0000
0000
3100
0000
0000
1000
,
0020
0000
0130
0000
0010
1000
0001
0000
,
0100
0000
0000
0000
0101
0000
0000
0000
0010
0000
0001
0010
0001
0000
0000
0000
,
0100
0000
0101
0000
1000
0100
0010
0000
,
1100
0000
1001
0000
0010
0100
0001
0000
,
0011
0000
1002
0000
0013
0100
1000
0000
,
0101
0000
0110
0000
0010
1000
0100
0000
,
1001
0000
0000
0000
0110
0000
0000
0000
0010
1000
0001
0000
0100
0000
0000
0000
,
0020
0000
0030
1000
0020
0000
0000
0000
0030
0000
0000
0100
0002
0000
0000
0000
,
0003
0000
0010
0001
0100
0000
0001
0000
,
1001
0000
0000
0000
1010
0000
0000
0000
0001
0000
1000
0100
1000
0000
0000
0000
,
0110
0000
0000
0000
1001
0000
0000
0000
0010
0000
0100
0010
0100
0000
0000
0000
,
0210
0000
0301
0100
0010
0000
1000
0100
,
0020
0000
0031
0100
0001
0000
1010
0000
,
1002
0000
1003
0010
0100
0000
0110
0000
,
1001
0000
0000
0000
0100
0001
1000
0000
0001
0000
0000
0000
1010
0000
0100
0000
,
0100
0001
0010
0100
0000
0011
0000
1100
,
0001
1000
0001
0000
0110
0000
0011
0100
,
0100
1000
0010
0100
0000
1010
0000
0101
,
1000
0001
1000
0100
0010
0001
0110
1000
,
1000
0001
0100
1000
0000
0110
0000
1001
,
0010
0000
0000
0100
0000
0000
1000
0000
0100
0000
1000
0000
0001
0000
0000
0100
0000
0000
0110
0000
0000
0001
0000
0000
,
0001
1000
0010
0001
0000
1010
0000
0101
,
0010
1000
0011
0000
1100
0000
1010
0001
,
0001
0101
1000
1000
0000
1100
0000
1001
,
0010
0001
0110
0000
1001
0000
0101
1000
,
1000
1010
0001
0001
0000
0110
0000
1100
,
0001
0000
1000
0000
0001
0100
0001
0100
0001
0000
1000
0000
0110
0000
0001
0000
,
0001
1100
0010
0010
0000
0101
0000
1001
,
0100
0000
0010
0000
1000
0100
1000
0100
1000
0000
0001
0000
0110
0000
1000
0000
,
1000
0011
0100
0100
0000
1010
0000
1100
,
0001
0000
0000
0100
0000
0000
0010
0000
1000
0000
0001
0000
1000
0000
0010
0000
0100
0000
0002
0000
0000
0000
0000
0000
,
0010
0100
1000
2000
,
0003
3010
0100
2002
,
0003
0020
0030
0002
,
3003
0000
0200
0000
0320
0000
1030
0100
,
0010
0100
0010
0001
0100
0010
0001
0010
,
1000
0100
1000
0001
0010
0001
1000
0100
,
0010
0100
0010
0001
0100
0010
0001
0100
,
0010
1000
0100
0000
0110
0000
1000
0010
,
0001
0010
1000
0010
0001
0010
1000
0100
,
0001
1000
0010
0001
1000
0100
1000
0100
,
0010
0000
0100
0000
0010
0000
1000
0000
0010
0000
0001
0000
0100
0000
0001
1000
,
0001
0000
1000
0001
0020
0000
0000
0000
0031
1000
0010
1000
0002
0000
0000
0000
,
1003
0000
0100
0010
1000
0000
0012
0000
,
0103
0000
2000
0000
3100
0010
0002
0000
,
0103
0000
0010
1000
0010
0000
2001
0000
,
0010
0000
0000
0000
0100
0000
0000
0000
3001
0000
0001
1000
0002
0000
0000
0000
,
0100
0013
1000
1100
,
0001
0000
0000
0000
0011
0000
0000
0000
0101
0000
0000
0001
1000
0000
0000
0000
,
1001
0000
0000
0000
0000
0000
0000
0000
0000
0100
0000
0000
0010
0000
0000
0000
0000
0000
0010
0000
0000
0000
0000
0000
0100
0000
0000
0000
0001
0000
0000
0000
1000
0000
0000
0000
0200
0000
0000
0000
0000
0000
0000
0000
0000
0000
0000
0000
,
1300
0001
0020
0000
0031
1000
0012
0000
,
1003
0000
1000
0100
0010
0000
1200
0000
,
1300
0000
0102
0000
0013
0001
0200
0000
,
0310
0000
1000
0010
0100
0000
2010
0000
,
0001
0000
0000
0000
0100
0000
0000
0000
3010
0000
0010
1000
0020
0000
0000
0000
,
0130
0001
1001
0021
,
0031
0000
1000
0100
1000
0000
0100
0000
0010
0000
0001
0000
0100
0000
0010
0000
,
2000
0000
0001
0000
3010
0000
0001
0010
,
0100
1000
0120
0000
1030
0000
1001
1001
,
0000
0100
0101
0000
1010
1010
0000
0001
,
0011
0000
1100
1100
0001
0100
0110
0000
,
0011
0011
1000
0001
1001
0000
0101
1100
,
0000
0011
1010
0000
1100
0101
0000
0110
,
1001
0000
0101
1010
0000
0011
1001
0000
,
1100
0101
0000
0110
0011
0000
0000
0000
,
0000
0000
0000
2002
,
0000
0000
0000
0000
,
0000
0000
0000
0000
,
3003
0000
0000
0000
;

//---------------dance-double - ----------------
#NOTES:
     dance-double:
     :
     Easy:
     5:
     0.363,0.405,0.365,0.341,0.000:
00000000
00000000
00000000
00000000
,
00000000
00000000
00000000
00000000
,
00000000
00000000
00000000
00000000
,
00000000
00000000
00000000
00000000
,
00000002
00001000
00000000
00001003
,
00000110
00000000
00000000
00000000
,
20000000
00010000
00000000
30010000
,
02200000
03300000
00010000
01000000
,
00010000
00000000
00000000
10010000
00000000
00000000
01000000
00000000
,
00000000
00011000
00000000
00000000
00001000
00000000
00000100
00000000
,
00000001
00000000
00000000
00000101
00000000
00000000
00001000
00000000
,
00000000
00010100
00000000
00000000
00100000
00000000
00001000
00000000
,
01000000
00000000
00000000
01100000
00000000
00000000
10000000
00000000
,
00000000
10010000
00000000
00000000
01000000
00000000
00001000
00000000
,
00010000
00000000
00000000
00011000
00000000
00000000
00100000
00000000
,
00000000
01001000
00000000
00000000
00022000
00000000
00033000
00000000
,
00100000
00010000
00000000
01000000
,
00010000
01000000
00000000
00001000
,
00100000
01000000
00100000
00001000
,
00010000
00000100
00000010
00000001
,
00000100
00000020
00000000
00000000
,
00010030
00002000
00000000
00013000
,
00000100
00020000
00000000
00000000
,
00031000
00100000
01000000
10000000
,
02200000
03300000
10000000
00000000
00000000
00000000
00200000
00000000
,
00300000
01000000
00010000
10000000
,
01000000
00100000
00001000
00010000
,
00000100
00010000
00000010
00000100
,
00020020
00000000
00030030
00000001
,
00002000
00000000
00003010
00010000
,
00002000
00000000
00000000
00103000
,
00010000
01000000
10000000
00100000
,
00000000
01100000
00000000
00000000
00000000
01000000
00000000
01000000
,
00000000
00010000
10010000
00100000
,
00000000
00011000
00000000
00000000
00000000
00001000
00000000
00001000
,
00000000
00000010
00000001
00000100
,
00000000
00000110
00000000
00000000
00000000
00010000
00000000
00010000
,
00000000
00000010
00001000
00000100
,
00000000
00011000
00000000
00000000
00000000
00100000
00000000
00100000
,
00000000
00010000
01000000
10000000
,
00000000
00101000
00000000
00000000
00000000
01001000
00000000
01001000
,
00000000
00100000
00001000
00010000
,
00000000
00010010
00000000
00000000
00000000
00010100
00000000
00010100
,
00000000
00000100
00000010
00000001
,
00000000
00001100
00000000
00000000
00000000
00010100
00000000
00011000
,
00000000
00100000
00001000
01000000
,
00000000
00011000
00000000
00000000
00000000
00101000
00000000
00011000
,
00000000
01000000
00100000
20020000
,
00000000
00000000
00000000
30030000
,
00000000
00200000
00300000
02000000
,
03002000
00023000
00032000
00020000
,
00033000
00010000
00010000
00010000
,
00000100
00000010
00000100
00001000
,
00000100
00010000
00000000
00001000
,
01000000
00100000
01000000
00001000
,
00010000
00001000
00000000
00010000
,
00000100
00000010
00000001
00000010
,
00000100
00010000
00000000
00001000
,
01000000
00100000
01000000
00001000
,
00010000
00022000
00033000
00100000
,
00000000
00100000
00010000
02000000
,
03000000
00020000
00030000
10000000
,
00000000
10000000
01000000
00200000
,
00000000
00001000
00300000
00002000
,
00003000
00001000
00000100
00000010
,
00000001
00000200
00000300
00000020
,
00001000
00001030
00000100
00020000
,
00000000
00002000
00033000
00011000
,
00100000
00001000
01000000
00020000
,
00030000
00200000
00300000
01010000
,
00100000
00001000
00010000
00020100
,
00000000
00000010
00030000
00001001
,
00000010
00000100
00010000
00000200
,
00000000
00020000
00030300
00001000
,
01000000
00100000
01000000
00010000
,
00100000
02200000
03300000
00100000
,
00000000
10010000
00000000
00000000
01000000
00000000
00000000
01001000
,
00000000
00000000
00100000
00000000
00000000
00011000
00000000
00000000
,
00000100
00000000
00000000
00001001
00000000
00000000
00000001
00000000
,
00000000
00010010
00000000
00000000
00000100
00000000
00000000
00011000
,
00000000
00000000
00100000
00000000
00000000
00101000
00000000
00000000
,
01000000
00000000
00000000
10010000
00000000
00000000
00000000
00000000
,
00000000
00000000
00000000
00000220
,
00000000
00000000
00000000
00000000
,
00000000
00000000
00000000
00000000
,
00000330
00000000
00000000
00000000
;

//---------------dance-double - ----------------
#NOTES:
     dance-double:
     :
     Medium:
     7:
     0.518,0.540,0.389,0.381,0.004:
00000000
00000000
00000000
00000000
,
00000000
00000000
00000000
00000000
,
00000000
00000000
00000000
00000000
,
00000000
00000000
00000000
00000000
,
00000020
00000230
00020300
00032000
,
00013000
00000000
00100000
00010000
,
02000000
03002000
00023000
00032000
,
00023000
00000000
00000000
00000000
00031000
00001000
00100000
00001000
,
01000000
00100000
00000000
00100000
10000000
00000000
10000000
00010000
,
00000000
00010000
01000000
00000000
00010000
00000000
10010000
00000000
,
00100000
00001000
00000000
00001000
00010000
00000000
00010000
00000100
,
00000000
00000100
00010000
00000000
00000010
00000100
00000010
00000000
,
00000001
00000001
00000000
00000010
00000100
00000000
00001000
00001000
,
00000000
00000010
00000100
00000000
00010000
00000000
00010010
00000000
,
00010000
00001000
00000000
01000000
01000000
00000000
00010000
00010000
,
00000000
10000000
00010000
00000000
02200000
00000000
03300000
00000000
,
10000000
00000000
10100000
00000000
00000000
00010000
01000000
00000000
,
00010000
00000000
00100000
00000000
00010000
01000000
00010000
00000000
,
00100000
00000000
00101000
00000000
00000000
00010000
00000100
00000000
,
00010000
00000000
00011000
00000000
00000010
00000100
00000001
00000000
,
00000010
00000012
00000000
00000000
,
00000013
00000200
00001000
00000310
,
00010000
00012000
00000000
00000000
,
00103000
00000000
00010000
00000000
01000000
00010000
10000000
00000000
,
02200000
03300000
10000000
00010000
10000000
00000000
00100000
00000000
,
01100000
00000000
00010000
01000000
00010000
00000000
00100000
00000000
,
00011000
00000000
00000000
00000000
00000100
00000000
00000000
00000000
00010000
00000000
00000000
00001000
00010000
00000000
00000000
00000000
,
00000010
00000000
00000100
00000000
00000001
00001000
00000100
00000000
,
00020010
00000000
00000000
00030100
,
00020000
00000000
00130000
00001000
,
00010200
00000000
00000000
00100300
,
00011000
00000000
01000000
00010000
01000000
00000000
00010000
01000000
,
00000000
00010000
00000000
01010000
00000000
11000000
00000000
01010000
,
00000000
10000000
00100000
00000000
01100000
00000000
00010000
00100000
,
00000000
00001000
00000000
00011000
00000000
00001100
00000000
00000101
,
00000000
00000001
00000010
00000000
00000110
00000000
00000001
00000010
,
00000010
00000100
00000000
00000110
00000000
00001001
00000000
00010000
,
00000010
00000200
00000010
00000000
00000310
00000000
00001000
00000100
,
00000100
00010000
00000000
00011000
00000000
00110000
00000000
00010000
,
01000000
00200000
10000000
00000000
00310000
00000000
10000000
00010000
,
00010000
01000000
00000000
01010000
00000000
10010000
00000000
00100000
,
01000000
00001000
00100000
00001000
00010000
00000000
00000010
00000100
,
00000100
00000001
00000000
00001001
00000000
00000011
00000000
00000001
,
00000010
00000100
00001000
00010000
01000000
00000000
10000000
00100000
,
00100000
01000000
00000000
01100000
00000000
10010000
00000000
10000000
,
01000000
00100000
00010000
00001000
00000100
00000000
00000010
00001000
,
00001000
00000001
00000000
00001001
00000000
00000110
00000000
00000001
,
00000010
00000100
00010000
00001000
00010000
00000000
00022000
00000000
,
00000000
00000000
00000000
00033000
,
00000000
00200000
02300000
23000000
,
32000000
03020000
00032000
00003200
,
00000300
00000001
00000100
00000001
,
00000001
00000100
00000000
00000100
00000010
00000000
00000010
00000001
,
00000000
00000001
00001000
00000000
00001001
00000000
00000010
00000000
,
00000010
00010000
00000000
00010000
00000100
00000000
00000100
00010000
,
00000000
00010000
00001000
00000000
00011000
00000000
01000000
00000000
,
01000000
00010000
00000000
00010000
00100000
00000000
00100000
10000000
,
00000000
10000000
00100000
00000000
01100000
00000000
00001000
00000000
,
00001000
01000000
00000000
01000000
00001000
00000000
00001000
00100000
,
00000000
00100000
00002000
00000000
00003000
00000000
00010000
00000000
,
00011000
00000000
01000000
00010000
01000000
00000000
00020000
00000000
,
00130000
20000000
31000000
10000000
,
10010000
00000000
00100000
01000000
00010000
00000000
00200000
00000000
,
00001000
00301000
01000000
00011000
,
00000010
00000000
00000100
00000001
00000100
00000000
00000002
00000000
,
00000013
00002000
00003010
00000200
,
00000010
00000000
00000310
00000000
00001000
00000001
00000200
00000000
,
00010000
00010300
00101000
01100000
,
10000000
00000000
00010000
01000000
00100000
00000000
02000000
00000000
,
03010000
20000000
30100000
00101000
,
01000000
00000000
00001000
00010000
00001000
00000000
00020000
00000000
,
00030100
00002000
00003010
00001001
,
00000010
00000000
00000100
00010000
00001000
00000000
00020000
00000000
,
00031000
00000000
00002000
00000000
00103000
00000000
00001000
01000000
,
00200000
01000000
01000000
01000000
,
01300000
00000000
20010000
00000000
30100000
00000000
10000000
00010000
,
00000000
10000000
10000000
00000000
00010000
10000000
00000000
00010000
,
00010000
00000000
01000000
00001000
00000000
00100000
00100000
00000000
,
00001000
00010000
00000000
00001000
00001000
00000000
00000100
00000010
,
00000000
00000001
00000100
00000000
00001000
00100000
00000000
10000000
,
01000000
00000000
00010000
00100000
00000000
00001000
00010000
00000000
,
00010000
00001000
00000000
00011000
00011000
00000000
00000000
00000000
,
00000000
00000000
00000000
02200000
,
00000000
00000000
00000000
00000000
,
00000000
00000000
00000000
00000000
,
03300000
00000000
00000000
00000000
;

//---------------dance-double - ----------------
#NOTES:
     dance-double:
     :
     Hard:
     9:
     0.763,0.877,0.952,0.389,0.222: // measure 1
00000000
00000000
00000000
00000000
,  // measure 2
00000000
00000000
00000000
00000000
,  // measure 3
00000000
00000000
00000000
00000000
,  // measure 4
00000000
00000000
00000000
00000000
,  // measure 5
00000010
00001000
00000010
00000100
00000010
00001000
00000010
00000100
00000001
00000010
00000100
00001000
00000001
00000010
00000100
00001000
,  // measure 6
00000200
00000300
00020000
00030000
,  // measure 7
10000000
00100000
01000000
00010000
10000000
00100000
01000000
00010000
10000000
01000000
00100000
00010000
10000000
01000000
00100000
00010000
,  // measure 8
20000000
00000000
00000000
00000000
30000000
00000000
00000000
00000000
00010000
01000000
00100000
10000000
00010000
10000000
00010000
00000000
,  // measure 9
01000000
01010000
00000000
00100000
00110000
00000000
00011000
00011000
,  // measure 10
00000000
00010100
00010100
00000000
00000020
00000000
00000130
00000000
,  // measure 11
00000001
00000011
00000000
00000100
00001100
00000000
00001010
00001010
,  // measure 12
00000000
00011000
00011000
00000000
00200000
00000000
00301000
00000000
,  // measure 13
10000000
10100000
00000000
01100000
01100000
00000000
00010000
00110000
,  // measure 14
00000000
01001000
01001000
00000000
00001000
00010000
00001000
00000000
,  // measure 15
00010000
00010010
00000000
00000110
00000110
00000000
00000001
00000011
,  // measure 16
00000000
00000000
00000110
00000000
00000110
00000000
00000000
00010000
00002000
00000000
00000000
00000000
00003000
00000000
00000000
00000000
,  // measure 17
01000000
00000000
00000000
00000000
01010000
00000000
00000000
00010000
00200000
00000000
00000000
00000000
00310000
00000000
00000000
10000000
,  // measure 18
02000000
00000000
13000000
00000000
00100000
10000000
00020000
00000000
,  // measure 19
02030000
00000000
00000000
00000000
03010000
00000000
00000000
00000000
00110000
00000000
00010000
01000000
00010000
00000000
00000000
00000000
,  // measure 20
02000000
00000000
03002000
00000000
00103000
00001000
00010000
00000000
,  // measure 21
00000110
00000000
00000002
00000000
00000013
00000100
00001000
00000000
,  // measure 22
00000110
00000000
00020000
00000000
00030010
00010000
00001000
00000000
,  // measure 23
01100000
00000000
00002000
00000000
00103000
00010000
01000000
00000000
,  // measure 24
00011000
00000000
00000000
00000000
00001010
00000000
00000000
00000000
00000001
00001000
00000100
00000000
00001000
00000000
00000000
00000000
,  // measure 25
00000220
00000000
00000330
00000001
00000020
00000000
00000000
00000000
00001030
00000000
00000000
00000100
00020000
00000000
00000000
00000000
,  // measure 26
00031000
00000000
00100000
00010000
01000000
00000000
01100000
00000000
,  // measure 27
10010000
00000000
00000000
00000000
00101000
00000000
00000000
00000000
00001000
00000000
00001000
00010000
00001000
00000000
00000000
00000000
,  // measure 28
01001000
00000000
00000000
00000000
00010000
00000000
00000100
00000000
00001000
00000000
00000001
00001000
00000001
00000000
00000000
00000000
,  // measure 29
00000002
00000000
00000013
00000100
00001000
00000000
00010000
00000000
,  // measure 30
00010020
00000000
00010030
00000010
00000100
00000000
00011000
00000000
,  // measure 31
00020000
00000000
00031000
00100000
01000000
00000000
01100000
00000000
,  // measure 32
10010000
00000000
00000000
00000000
10000000
00010000
01000000
00000000
00010000
00000000
00000000
00000000
01100000
00000000
00010000
00000000
,  // measure 33
00010000
11000000
00000000
01010000
00000000
00101000
00000000
00010000
,  // measure 34
00001000
00010000
00000100
00000010
00000001
00000100
00000110
00001000
,  // measure 35
00001000
00010100
00000000
00101000
00000000
01100000
00000000
10000000
,  // measure 36
01000000
00010000
00001000
00000010
00000001
00000010
00000110
00000001
,  // measure 37
00000001
00000101
00000000
00001100
00000000
00010010
00000000
00000010
,  // measure 38
00010000
00001000
00100000
00010000
01000000
10000000
01100000
10000000
,  // measure 39
10000000
01010000
00000000
11000000
00000000
00101000
00000000
00010000
,  // measure 40
00100000
00001000
00000010
00000001
00000100
00001000
00000110
00010000
,  // measure 41
00010000
00010100
00010000
00011000
00000000
00101000
00000000
00001000
,  // measure 42
01000000
00100000
01100000
00000000
10010000
00000000
10100000
00100000
,  // measure 43
00100000
01100000
00100000
01100000
00000000
01010000
00000000
10000000
,  // measure 44
01000000
00000000
00100000
00000000
00001000
00010000
00001000
00010000
00001000
00000000
00010000
00000000
00010100
00000000
00000010
00000000
,  // measure 45
00000010
00000110
00000010
00001010
00000000
00001001
00000000
00000001
,  // measure 46
00000010
00000000
00001000
00000000
00100000
00001000
00100000
00001000
00100000
00000000
00001000
00000000
01001000
00000000
01000000
00000000
,  // measure 47
01000000
01100000
01000000
11000000
00000000
00110000
00000000
11000000
,  // measure 48
00010000
00000000
00000000
01000000
00000000
00000000
00001000
00000000
00100000
00000000
00001000
00000000
01000000
00000000
00001000
00000000
00010000
00000000
00002000
00000000
00000000
00000000
00000000
00000000
,  // measure 49
00100000
01000000
00010000
00003000
,  // measure 50
00000000
00000000
00000000
00000000
00000000
00000000
00000220
00000000
00000000
00000000
00000000
00000000
00000330
00000000
00000000
00001000
00000001
00001000
00000002
00000000
00000000
00000000
00000000
00000000
,  // measure 51
00000203
00002300
02003000
23000000
,  // measure 52
00000000
00000000
30200000
00000000
02300000
00000000
13000000
01000000
,  // measure 53
00100000
00010000
01000000
00001000
00100000
00001000
00010000
00000100
,  // measure 54
00000010
00000001
00000100
00000010
00000100
00000010
00001000
00000010
,  // measure 55
00000100
00000001
00000010
00000100
00001000
00000100
00010000
00001000
,  // measure 56
00100000
00010000
00100000
00000000
11000000
00000000
10010000
01000000
,  // measure 57
00100000
00010000
00000100
00000010
00010000
00001000
00000001
00000010
,  // measure 58
00000100
00001000
00100000
00001000
01000000
00010000
00100000
00010000
,  // measure 59
01000000
00000000
10000000
00000000
01000000
00000000
00010000
00000000
00100000
00000000
00001000
00000000
00000100
00000010
00000100
00000010
,  // measure 60
00000100
00000000
00000010
00000000
00000210
00000000
00000000
00000000
00000301
00001000
00000001
00001000
00000002
00000000
00000000
00000000
,  // measure 61
00000013
00000000
00000000
00000010
00000001
00000000
00001000
00000000
00000100
00000000
00000000
00000000
00010200
00000000
00000000
00000000
,  // measure 62
00010300
00000000
00000000
00010000
00001000
00000000
00100000
00000000
00001000
00000000
01000000
00000000
00020000
00000000
00000000
00000000
,  // measure 63
10030000
00000000
00000000
10000000
00010000
00000000
10000000
00000000
01000000
00000000
00000000
00000000
12000000
00000000
00000000
00000000
,  // measure 64
03100000
00000000
00000000
00100000
00001000
00000000
01000000
00000000
00001000
00000000
00010000
00000000
00021000
00000000
00000000
00000000
,  // measure 65
00030010
00000000
00000000
00000010
00000200
00000000
00000000
00000000
00000301
00000000
00000000
00000000
00000010
00000000
00000000
00000000
,  // measure 66
00000012
00000000
00000000
00000000
00000203
00000000
00000000
00000000
00000301
00000000
00000000
00000001
00002000
00000000
00000000
00000000
,  // measure 67
00003100
00000000
00000000
00000000
00000000
00000000
00000000
00000000
00000000
00000100
00000000
00000000
00010000
00000000
00000000
00000000
00000000
00000000
00001000
00000000
00000000
00000000
00000000
00000000
00010000
00000000
00000000
00000000
00001000
00000000
00000000
00000000
00010000
00000000
00000000
00000000
02100000
00000000
00000000
00000000
00000000
00000000
00000000
00000000
00000000
00000000
00000000
00000000
,  // measure 68
03100000
00000000
00000000
00100000
00010000
00000000
01000000
00000000
00010000
00000000
10000000
00000000
10010000
00000000
01000000
00000000
,  // measure 69
00100000
00010000
01000000
00001000
00010000
00001000
00000100
00000010
,  // measure 70
00000001
00000100
00001000
00000100
00010000
00001000
00100000
01000000
,  // measure 71
00010000
00100000
01000000
10000000
01000000
00100000
00001000
00010000
,  // measure 72
00001000
00000100
00000001
00000100
00001000
00000010
00001002
00000000
,  // measure 73
00000013
00000000
00000010
00000100
00001000
00000000
00010200
00000000
,  // measure 74
00010300
00000000
00000000
00000000
00010000
00001000
00010000
00001000
01000000
00000000
00000000
00000000
01000000
00000000
00010000
00000000
,  // measure 75
02000000
00100000
00100000
10000000
,  // measure 76
03010000
00000000
00000000
00010000
20000000
00000000
00000000
00000000
31000000
00000000
00000000
00000000
00101000
00000000
00101000
00000000
,  // measure 77
00000000
00011000
00011000
00000000
00010100
00010100
00000000
00010010
,  // measure 78
00010010
00000000
00000110
00000110
00000010
00001001
00001001
00001000
,  // measure 79
00010100
00010100
00000100
00101000
00101000
00001000
01010000
01010000
,  // measure 80
00000000
10010000
01010000
00000000
00101000
00101000
00000000
00101000
,  // measure 81
00011000
00000000
01001000
00110000
00000000
00101000
00010100
00000000
,  // measure 82
00010010
00001100
00000000
00011000
00011000
00000000
00000000
00000000
,  // measure 83
00000000
00000000
00000000
02200000
,  // measure 84
00000000
00000000
00000000
00000000
,  // measure 85
00000000
00000000
00000000
00000000
,  // measure 86
03300000
00000000
00000000
00000000
;
