#TITLE:おこちゃま戦争;
#SUBTITLE:;
#ARTIST:ギガ-P feat. れをる & kradness;
#TITLETRANSLIT:Childish War;
#SUBTITLETRANSLIT:;
#ARTISTTRANSLIT:Giga-P feat. Reol & kradness;
#GENRE:Juvenile Drum & Core;
#CREDIT:Telperion;
#BANNER:[Qualifier Singles & Doubles] - Childish War.png;
#BACKGROUND:[Qualifier Singles & Doubles] - Childish War-bg.png;
#LYRICSPATH:;
#CDTITLE:cdtitle.png;
#MUSIC:[Qualifier Singles & Doubles] - Childish War.ogg;
#OFFSET:-0.093000;
#SAMPLESTART:49.473000;
#SAMPLELENGTH:21.923000;
#SELECTABLE:YES;
#BPMS:0.000000=175.000000
,12.000000=87.500000
,14.000000=175.000000
,126.000000=87.500000
,134.000000=175.000000
,278.000000=87.500000
,286.000000=175.000000
;
#STOPS:
;
#BGCHANGES:;
#KEYSOUNDS:;
#ATTACKS:;

//---------------dance-double - Telperion----------------
#NOTES:
     dance-double:
     Telperion:
     Hard:
     9:
     0.620833,0.751377,0.229483,0.179283,0.161355,549.000000,32.000000,25.000000,0.000000,0.000000,0.000000,0.620833,0.751377,0.229483,0.179283,0.161355,549.000000,32.000000,25.000000,0.000000,0.000000,0.000000:
00000000
00000000
00000000
00000000
,
00000000
00000000
00000000
00000000
,
00000000
00000000
00000000
00000000
,
00000000
00000000
00000000
00000000
00011000
00000000
00001000
00100000
,
00000000
00001000
00000000
00010000
00000000
00000010
00001000
00000000
,
00000001
00000000
00001000
00000001
00001000
00000000
00000100
00000000
00000010
00000000
00000000
00000000
00000001
00000000
00000010
00000000
,
00000000
00001000
00000000
00100000
00000000
00010000
10000000
00000000
,
00010000
01000000
00200000
00300000
01000000
00000000
00000000
00000000
,
01000000
00000000
00010000
00010000
,
01000000
00001000
00010000
00000000
,
00010000
00000000
00000000
00000100
00000000
00010000
00000100
00000000
00000000
00001000
00000000
00000000
,
00000100
00000000
00000010
00000100
00000002
00000000
00000000
00000000
,
00002003
00000000
00000000
00000000
00000000
00003000
00020000
00000000
00000000
00000000
00000000
00000000
,
00230000
00000000
00000000
10300000
00010000
10000000
01000000
00000000
00000000
10000000
00000000
10000000
,
00010000
00000000
00000000
01000000
00010000
01000000
00100000
00000000
00000000
00010000
00000000
00000000
,
00001000
00000010
00000100
00001000
00000001
00000000
00001000
00000010
,
00000000
00000001
00000000
00000010
00000000
00001000
00000010
00000100
,
00000000
00000001
00000010
00000100
00010000
00000000
00010000
00000000
,
00001000
00001000
00000000
01000000
00000000
00010000
00010000
01000000
,
00010000
01000000
00100000
00000000
10000000
00000000
00010000
00100000
,
00000000
10000000
00000000
00100000
00000000
00010000
00000000
01000000
,
00100000
01000000
00001000
00010000
01000000
00000000
00010000
00000000
,
00001000
00010000
00001000
00000100
00001000
00010000
00000100
00000010
,
00000000
00000001
00000010
00000100
00001000
00000001
00001000
00000001
,
00001000
00000000
00000100
00000000
00001000
00000000
00000100
00000000
00000000
00000000
00010000
00001000
00010000
00000000
00001000
00000000
,
01000000
00001000
01000000
00001000
00000000
00100000
00100000
00000000
,
00010000
10000000
01000000
00010000
00000000
00001000
00100000
01000000
,
00100000
00001000
00110000
00100000
,
00001010
00000000
00000010
00000000
00010000
00000000
00000000
00000000
00011000
00000000
00000000
00100000
00000000
00000000
00000010
00000000
,
00010000
00001000
00010000
00000000
00000100
00001000
00000100
00001000
,
00000100
00000000
00000001
00000000
00000000
00000000
00000100
00000010
00000100
00000000
00001000
00000000
00000100
00000000
00010000
00000000
,
00001000
00000000
00001000
00010000
00001000
00000000
00000000
00000000
00200000
00000000
00000000
00000000
00300020
00000000
00000000
00000000
,
00100000
00000000
00010030
00001000
00010000
00000100
00020000
00000000
01030000
00000000
01000000
00000000
10000000
00000000
10000000
00000000
,
00010000
10000000
00100000
01000000
00001000
00010000
00000010
00000100
00000001
00000000
00000000
00000000
00001100
00000000
00000000
00000000
,
00000001
00000000
00001000
00000000
00000100
00000000
00000000
00000000
00010000
00000000
00001000
00010000
00001000
00000000
00100000
00000000
,
00010000
00000000
10000000
00010000
10000000
00000000
00000000
00000000
00200000
00000000
00000000
00000000
00000000
00000000
01300000
00000000
,
10000000
01000000
00010000
00100000
02000000
00000000
00000000
03010000
,
01000000
10000000
00100000
00000000
01000000
00000000
01010000
00000000
,
10000000
00010000
01000000
00000000
00011000
00000000
01001000
00000000
,
00001000
00000000
00010000
00000100
00010000
00000000
00000000
00000000
00000020
00000000
00000000
00000000
00000000
00000000
00000130
00000000
,
00001000
00000100
00000001
00001000
00000200
00000000
00000000
00000301
,
00000100
00001000
00000010
00000000
00000100
00000001
00000100
00000001
,
00000100
00001000
00000000
00010000
00000000
01000000
00100000
01000000
,
00100000
00010000
00000000
10000000
00000000
00100000
10000000
00100000
,
10000000
00100000
01000000
10000000
00000000
01000000
00000000
00010000
,
00100000
00000000
00001000
00000000
00000000
00100000
00000000
00000000
01000000
00000000
00000000
00000000
00110000
00000000
00000000
00000000
,
10000000
00010000
00100000
00000000
00011000
00000000
00101000
00000000
,
00001000
00001000
00010000
00010000
00000020
00000000
00000000
00000130
,
00001000
00000000
00000000
00000100
00000000
00000000
00000001
00000000
00000010
00000000
00000000
00000000
00000110
00000000
00000000
00000000
,
00001001
00000000
00000000
00000000
00011000
00000000
00010000
00000010
,
00000000
00010000
00000000
00001000
00000000
00100000
00010000
00000000
,
10000000
00000000
00010000
10000000
00010000
00000000
01000000
00000000
00100000
00000000
00000000
00000000
10000000
00000000
00100000
00000000
,
00000000
00010000
00000000
00000010
00000000
00001000
00000001
00000000
,
00001000
00000000
00000000
00000100
00000000
00000000
00000020
00000000
00000000
00000030
00000000
00000000
00000100
00000000
00000000
00000000
00000000
00000000
00001000
00000000
00000100
00000000
00001000
00000000
,
00000001
00000000
00000000
00001000
00000000
00000000
00000100
00000000
00000000
00000100
00010000
00000100
,
00001000
00000001
00000100
00001000
,
00010000
00010000
00001000
00001000
00010000
00000000
01000000
10000000
,
00010000
00000000
00010000
00000000
10000000
00000000
00000000
00000000
00100000
01000000
00100000
01000000
00100000
00000000
00000000
00000000
,
10000000
00000000
00000000
00010000
00000000
00000000
10000000
00000000
01000000
00100000
01000000
00100000
00010000
00000000
00000000
00000000
,
10000000
00000000
00100000
00000000
10000000
01000000
00020000
00000000
,
10030000
00100000
00020000
00000000
10030000
01000000
10000000
00010000
,
00100000
01000000
00100000
00001000
00010000
00000010
00000000
00001010
,
00000000
00010000
00000000
00110000
00000000
00001000
00000000
00001010
,
00000000
00010000
00000100
00000010
00000001
00000010
00000000
00001100
,
00000000
00000100
00010000
00000000
00001000
01000000
00000000
01010000
,
00000000
01000000
00100000
00000000
10000000
00100000
00010000
00001000
,
00000100
00000001
00000010
00000100
00000001
00000000
00001000
00000000
,
00100000
00000000
01000000
00000000
10000000
00010000
01000000
00001000
,
00100000
00010000
10000000
00001000
01000000
00000000
01000000
00100000
,
00010000
00001000
00011000
00000000
00000020
00000000
00200030
00000000
,
00001000
00000000
00301000
00000000
00010000
00001000
01000000
00000100
00000010
00000000
00000010
00000000
00000001
00001000
00000001
00000000
,
00001000
00000001
00000010
00000100
00010000
00001000
00100000
01000000
10000000
00000000
00000000
00000000
01010000
00000000
00000000
00000000
,
10000000
00000000
00010000
00000000
01000000
00000000
00000000
00000000
00001000
00000000
00010000
00001000
00010000
00000000
00000010
00000000
,
00001000
00000000
00000001
00001000
00000001
00000000
00000000
00000000
00000020
00000000
00000000
00000000
00000000
00000000
00000130
00000000
,
00000001
00000100
00001000
00000010
00000200
00000000
00000000
00001300
,
00000100
00000001
00000010
00000000
00000100
00000000
00001100
00000000
,
00000001
00001000
00000100
00000000
00011000
00000000
00010100
00000000
,
00010000
00000000
00001000
01000000
00001000
00000000
00000000
00000000
00200000
00000000
00000000
00000000
00000000
00000000
01300000
00000000
,
00010000
01000000
10000000
00010000
02000000
00000000
00000000
13000000
,
01000000
00010000
00100000
00000000
01000000
10000000
01000000
10000000
,
01000000
00010000
00000000
00001000
00000000
00000100
00000010
00000100
,
00000010
00001000
00000000
00000001
00000000
00000010
00000001
00000010
,
00000001
00000010
00000100
00000001
00000000
00000100
00000000
00001000
,
00000010
00000000
00010000
00000000
00000000
00000010
00000000
00000000
00000100
00000000
00000000
00000000
00001010
00000000
00000000
00000000
,
00000001
00001000
00000010
00000000
00011000
00000000
00010010
00000000
,
00010000
00010000
00001000
00001000
00200000
00000000
00000000
01300000
,
00010000
00000000
00000000
01000000
00000000
00000000
10000000
00000000
00100000
00000000
00000000
00000000
01100000
00000000
00000000
00000000
,
10010000
10000000
00020000
00000000
01030000
00000000
00100000
01000000
,
00100000
00010000
00001000
00000000
00000010
00000000
00001000
00000010
,
00001000
00010000
00000010
00000000
00000100
00000001
00000010
00000100
,
00001000
00000010
00010000
00000000
00001000
00100000
00001000
00000000
,
00010000
00010000
00000010
00010000
00001000
00000000
00010000
00000010
,
00000000
00001010
00000000
00010000
00000000
00010000
00001000
00000000
,
00100000
00000000
00010000
00100000
00010000
00000000
10000000
00000000
00100000
00000000
00000000
00000000
01000000
00000000
00001000
00000000
,
00000000
01001000
00000000
00011000
00000000
00000100
00000000
00000010
,
00000002
00000003
00000000
00000000
;

//---------------dance-double - Telperion----------------
#NOTES:
     dance-double:
     Telperion:
     Medium:
     6:
     0.459990,0.478149,0.164941,0.236654,0.010757,393.000000,23.000000,33.000000,0.000000,0.000000,0.000000,0.459990,0.478149,0.164941,0.236654,0.010757,393.000000,23.000000,33.000000,0.000000,0.000000,0.000000:
00000000
00000000
00000000
00000000
,
00000000
00000000
00000000
00000000
,
00000000
00000000
00000000
00000000
,
00000000
00000000
00000000
00000000
00011000
00000000
00000000
00100000
,
00000000
00001000
00000000
00010000
00000000
00000000
00000010
00000000
,
00000100
00000000
00000100
00000010
00001000
00000000
00000000
00000001
,
00000000
00000010
00000000
00000100
00000000
00000000
00010000
00000000
,
00001000
00011000
02000000
00000000
,
03000000
00000000
00001000
00010000
,
00001000
00010000
00000200
00000000
,
00000300
00000000
00010000
00001000
,
00010000
00001000
02000000
00000000
,
03020000
00000000
00230000
00000000
,
02300000
03000000
20020000
00000000
,
30000000
00000000
01030000
00010000
,
00110000
00000000
00000000
00000000
10000000
00000000
01000000
00010000
,
00000000
01000000
00000000
10000000
00000000
00010000
00000000
01000000
,
00000000
01000000
00100000
00010000
,
00001000
00010000
00000010
00000000
,
00000010
00000000
00000100
00000000
00000001
00000000
00000100
00001000
,
00000000
00000100
00000000
00000001
00000000
00001000
00000000
00000000
,
00000100
00000100
00000010
00000100
,
00010000
00001000
00000000
00100000
00000000
00001000
00000000
01000000
,
00000000
00010000
10000000
00100000
,
01000000
00100000
01000000
00100000
01000000
00000000
01000000
00000000
,
00001000
01000000
00001000
01000000
00001000
00000000
00010000
00000000
,
00000100
00001000
00000100
00001000
00000100
00000000
00010000
00000000
,
00000100
00000000
00002010
00003000
,
00000012
00000000
00000000
00000000
00000003
00000000
00000000
00000000
00001000
00000000
00000000
00000001
00000000
00000000
00001000
00000000
,
00000001
00000000
00000000
00000000
00000100
00000000
00000010
00000100
,
00000000
00002000
00000000
00003000
00010000
00000000
01000000
00100000
,
01000000
10000000
00020000
20030000
,
30010000
00010000
10000000
10000000
00010000
10000000
01000000
00100000
,
00001000
00010000
00000100
00000010
00000001
00000000
00000001
00000000
,
00001000
00000000
00000110
00000000
00000001
00001000
00000001
00000000
,
00001000
00000000
00000110
00000000
00000002
00000000
00000003
00000001
,
00000010
00000000
00001000
00000000
00020000
00000000
00030000
00010000
,
01000000
10000000
00010000
10000000
,
10000000
00000000
01100000
00000000
00010000
10000000
00010000
00000000
,
10000000
00000000
01100000
00000000
00020000
00000000
00030000
10000000
,
00100000
00000000
00010000
00000000
00002000
00000000
00003000
00001000
,
00000100
00000001
00001000
00000100
,
00010000
00001000
00000000
00200000
00000000
00000000
00310000
00000000
,
01000000
00001000
00000000
00020000
00000000
00000000
00030010
00000000
,
00010000
00001000
00010000
00000010
00000000
00000100
00000000
00000001
,
00000100
00000110
00000001
00000001
,
00001000
00001100
00010000
00001000
,
00100000
00000000
00110000
00000000
20000000
00000000
30000000
10000000
,
00100000
00000000
00000000
01000000
00000000
00000000
00100000
00000000
10000000
00000000
00000000
00000000
00010000
00000000
00000000
00000000
,
02000000
00000000
03000000
00000000
00011000
00000000
00000000
01000000
,
00000000
00001000
00000000
00010000
00000000
00000000
00000100
00000000
,
00000010
00000000
00000010
00000100
00001000
00000000
00000000
00000001
,
00000000
00000100
00000000
00000010
00000000
00000000
00010000
00000000
,
00001000
00010000
00001000
00000000
00200000
00000000
00000000
00000000
,
01000000
00010000
00302000
00000000
,
01000000
00000000
00003100
00001000
,
00010000
00000000
00001000
00010000
00001000
00000000
00010000
00000000
,
01000000
00000000
10000000
00000000
00100000
10000000
01000000
10000000
,
00100000
00000000
00000000
00000000
01000000
00010000
00100000
00010000
,
01000000
00000000
00000000
00000000
00001000
01000000
00001000
00000000
,
00010000
00000100
00010000
00000000
00001000
00000000
00100000
00000000
,
00001000
00001000
00010000
00001000
00010000
00000000
00000000
00000010
,
00000000
00001000
00000000
00000001
00000000
00000010
00000000
00000100
,
00000000
00010000
00000000
00001000
00000000
00100000
00000000
00010000
,
00000000
01000000
00000000
00100000
00000000
00010000
00000000
00001000
,
00000000
00000100
00000010
00000000
00001000
00000100
00010000
00000000
,
00010000
00000100
00001000
00000000
00000010
00000000
00100000
00000000
,
00000100
00000000
01000000
00000000
00001000
00100000
00001000
00010000
,
00000010
00010000
00001000
00100000
00001000
00000000
00010000
00000000
,
00000100
00001000
00000001
00000000
00000200
00000000
00000320
00000000
,
00000130
00000100
00000010
00000010
00001000
00000001
00000100
00000010
,
00010000
00001000
01000000
00100000
10000000
00000000
10000000
00000000
,
00010000
00000000
01100000
00000000
10000000
00010000
10000000
00000000
,
00010000
00000000
01100000
00000000
20000000
00000000
30000000
10000000
,
00100000
00000000
00010000
00000000
00002000
00000000
00003000
00001000
,
00000100
00000001
00001000
00000001
,
00000001
00000000
00000110
00000000
00001000
00000001
00001000
00000000
,
00000001
00000000
00000110
00000000
00002000
00000000
00003000
00000001
,
00000010
00000000
00001000
00000000
00020000
00000000
00030000
00010000
,
01000000
10000000
00010000
01000000
,
00001000
00010000
00000000
00000020
00000000
00000000
00001030
00000000
,
00000100
00010000
00000000
00002000
00000000
00000000
01003000
00000000
,
00001000
00010000
00001000
00100000
00000000
01000000
00000000
10000000
,
01000000
01100000
10000000
10000000
,
00010000
01010000
00001000
00010000
,
00000010
00000000
00001100
00000000
00000002
00000000
00000003
00000001
,
00000100
00000000
00000000
00000010
00000000
00000000
00000100
00000000
00000001
00000000
00000000
00000000
00001000
00000000
00000000
00000000
,
00001001
00000001
00002000
00000000
00003100
00000000
00000010
00000000
,
00000001
00000010
00001000
00010000
,
00001000
00010000
00001000
00000000
01000000
00000000
00010000
00000000
,
00100000
00000000
00010000
00000000
01000000
00100000
01000000
00000000
,
00010000
10000000
00010000
10000000
01000000
00000000
00000000
10000000
,
00000000
01000000
00000000
00010000
00000000
00000000
00001000
00000000
,
00010000
00000000
00010000
00000100
00000010
00000000
00000000
00000001
,
00000000
00000010
00000000
00001000
00000000
00010000
00000000
00001000
,
00100000
00011000
00000000
00000000
;

//---------------dance-double - Telperion----------------
#NOTES:
     dance-double:
     Telperion:
     Easy:
     4:
     0.239728,0.273228,0.028685,0.071713,0.000000,220.000000,4.000000,10.000000,0.000000,0.000000,0.000000,0.239728,0.273228,0.028685,0.071713,0.000000,220.000000,4.000000,10.000000,0.000000,0.000000,0.000000:
00000000
00000000
00000000
00000000
,
00000000
00000000
00000000
00000000
,
00000000
00000000
00000000
00000000
,
00000000
00000000
00011000
00000000
,
00001000
00000000
00100000
00000000
,
00010000
00100000
00010000
00000000
,
10000000
00000000
00100000
00000000
,
01000000
00000000
00020000
00000000
,
00030000
00000000
20000000
00000000
,
30000000
00000000
02000000
00000000
,
03000000
00000000
00200000
00000000
,
00300000
00000000
00002000
00000000
,
00203000
00000000
00320000
00000000
,
20030000
00000000
30200000
00000000
,
00000000
00000000
00300000
00000000
,
00000000
00000000
01000000
00000000
,
00010000
00000000
10000000
00000000
,
00010000
01000000
00010000
00000000
,
00100000
00000000
00001000
00000000
,
00010000
00010000
00001000
00000000
,
00010000
00000000
00000100
00000000
,
00001000
00000100
00001000
00000000
,
00000001
00000000
00000100
00000000
,
00000001
00000000
00000010
00000000
,
00000010
00000000
00000010
00000100
,
00000010
00000100
00000010
00000000
,
00000010
00000000
00000100
00000000
,
00010000
00000000
00001000
00000000
,
00001000
00000000
00010000
00000000
,
00010000
00000000
00001000
00000000
,
00100000
00000000
00010000
00100000
,
00010000
00000000
10000000
01000000
,
00010000
00001000
00000010
00000001
,
00000100
00000000
00000010
00001000
,
00000010
00000000
00001000
00000001
,
00001000
00000000
00000010
00000000
,
00010000
00000000
00001000
00000000
,
00100000
00000000
00010000
00100000
,
00010000
00000000
10000000
00010000
,
10000000
00000000
01000000
00000000
,
00010000
00000000
00001000
00000000
,
00000100
00000000
00000001
00000100
,
00000001
00000000
00001000
00000100
,
00001000
00000000
00000001
00000000
,
00000010
00000000
00001000
00000000
,
00010000
00000000
00001000
00010000
,
00000010
00000000
00010000
00001000
,
00100000
00000000
00010000
00000000
,
10000000
00000000
00010000
10000000
,
10010000
00000000
10000000
00000000
,
00010000
00000000
01000000
00000000
,
00010000
01000000
00010000
00000000
,
10000000
00000000
00100000
00000000
,
00010000
00000000
00001000
00000000
,
01000000
00001000
01000000
00000000
,
00001000
00010000
00000100
00000000
,
00000100
00000000
00001000
00000000
,
00001000
00000000
00000001
00000100
,
00000001
00000000
00001000
00000010
,
00001000
00000000
00000100
00000000
,
00010000
00000000
00001000
00000000
,
00010000
00000000
00100000
00000000
,
00100000
00000000
10000000
00000000
,
10000000
00000000
01000000
00000000
,
01000000
00000000
00010000
00000000
,
00010000
00000000
00001000
00010000
,
00001000
00010000
00000010
00000000
,
00000010
00000000
00000100
00000000
,
00000001
00000000
00001000
00000000
,
00000100
00001000
00000001
00000100
,
00001000
00010000
00100000
10000000
,
01000000
00000000
00100000
00010000
,
00100000
00000000
00010000
10000000
,
00010000
00000000
00100000
00000000
,
00001000
00000000
00010000
00000000
,
00000010
00000000
00001000
00000010
,
00001000
00000000
00000001
00001000
,
00000001
00000000
00000100
00000000
,
00001000
00000000
00010000
00000000
,
01000000
00000000
10000000
01000000
,
10000000
00000000
00010000
01000000
,
00010000
00000000
10000000
00000000
,
00100000
00000000
00010000
00000000
,
00001000
00000000
00010000
00001000
,
00100000
00000000
00001000
00010000
,
00000010
00000000
00001000
00000000
,
00000001
00000000
00001000
00000001
,
00001001
00000100
00000000
00000001
,
00000000
00000001
00000000
00001000
,
00000000
00001000
00000000
00000100
,
00000000
00000100
00000000
00010000
,
00001000
00010000
00011000
00000000
,
00010000
00000000
00000010
00000000
,
00001000
00000010
00001000
00000000
,
00000001
00000000
00000010
00000100
,
00002000
00003000
00000000
00000000
;

//---------------dance-single - Telperion----------------
#NOTES:
     dance-single:
     Telperion:
     Hard:
     8:
     0.622882,0.751377,0.222311,0.172112,0.172112,553.000000,31.000000,24.000000,0.000000,0.000000,0.000000,0.622882,0.751377,0.222311,0.172112,0.172112,553.000000,31.000000,24.000000,0.000000,0.000000,0.000000:
0000
0000
0000
0000
,
0000
0000
0000
0000
,
0000
0000
0000
0000
,
0000
0000
0000
0000
1010
0000
0100
0001
,
0000
0001
0000
0100
0000
0010
1000
0000
,
0001
0000
1000
0100
1000
0000
0100
0000
0001
0000
0000
0000
0001
0000
0100
0000
,
0000
1000
0000
0010
0000
0100
0001
0000
,
0001
0100
0020
0030
0100
0000
0000
0000
,
0100
0000
0001
0001
,
0100
0001
1000
0000
,
1000
0000
0000
0100
0000
1000
0100
0000
0000
0010
0000
0000
,
0001
0000
0100
0010
2000
0000
0000
0000
,
3020
0000
0000
0000
0000
0000
0000
0030
0002
0000
0000
0000
0000
0000
0000
0000
,
0023
0000
0000
1030
0001
1000
0100
0000
0000
1000
0000
1000
,
0001
0000
0000
0001
0100
0001
1000
0000
0000
0001
0000
0000
,
0100
1000
0100
0001
0010
0000
0100
0001
,
0000
0100
0000
1000
0000
0001
0100
0001
,
0000
0001
0010
0100
1000
0000
1000
0000
,
0001
0001
0000
0100
0000
0100
0100
0010
,
0100
0001
0100
0000
0010
0000
0100
1000
,
0000
0100
0000
0001
0000
1000
0000
0100
,
1000
0100
0010
0100
0001
0000
0100
0000
,
1000
0001
0100
0010
1000
0001
0010
0100
,
0000
0001
0100
1000
0010
1000
0010
1000
,
0001
0000
0100
0000
0001
0000
0100
0000
0000
0000
0001
0010
0001
0000
0010
0000
,
0100
1000
0100
1000
0000
0001
0001
0000
,
1000
0001
1000
0010
0000
0010
0100
0010
,
1000
0001
0011
0100
,
1010
0000
1000
0000
0001
0000
0000
0000
0101
0000
0000
1000
0000
0000
0100
0000
,
0010
0100
1000
0000
0001
0100
0001
0100
,
0010
0000
0001
0000
0000
0000
0010
0100
0010
0000
1000
0000
0001
0000
0010
0000
,
0100
0000
0100
0010
0100
0000
0000
0000
2000
0000
0000
0000
3002
0000
0000
0000
,
1000
0000
0103
0001
0010
0100
2000
0000
3010
0000
0010
0000
0100
0000
0100
0000
,
0001
1000
0010
0100
0001
0100
0010
1000
0001
0000
0000
0000
0011
0000
0000
0000
,
1000
0000
0001
0000
0010
0000
0000
0000
0100
0000
1000
0100
1000
0000
0001
0000
,
0100
0000
0001
0100
0001
0000
0000
0000
0020
0000
0000
0000
0000
0000
0130
0000
,
0001
0100
1000
0010
0200
0000
0000
1300
,
0100
0001
0010
0000
0100
0000
1100
0000
,
0001
1000
0010
0000
0110
0000
1001
0000
,
0001
0000
1000
0100
1000
0000
0000
0000
0020
0000
0000
0000
0000
0000
0130
0000
,
1000
0100
0001
0010
0200
0000
0000
0301
,
0100
1000
0010
0000
0100
0001
1000
0001
,
0100
0010
0000
1000
0000
1000
0001
1000
,
0100
0010
0000
0001
0000
0001
0010
0001
,
1000
0010
0100
1000
0000
0100
0000
0001
,
1000
0000
0001
0000
0000
0010
0000
0000
0100
0000
0000
0000
1100
0000
0000
0000
,
0001
1000
0100
0000
1001
0000
0101
0000
,
0001
0001
1000
1000
0020
0000
0000
0130
,
1000
0000
0000
0100
0000
0000
0001
0000
0010
0000
0000
0000
0110
0000
0000
0000
,
1001
0000
0000
0000
0011
0000
0100
1000
,
0000
1000
0000
0001
0000
1000
0010
0000
,
0100
0000
0001
0100
0001
0000
0100
0000
1000
0000
0000
0000
1000
0000
0100
0000
,
0000
0001
0000
0010
0000
0001
1000
0000
,
1000
0000
0000
0100
0000
0000
0010
0000
0000
0000
0000
0000
0001
0000
0000
0000
0000
0000
0001
0000
0100
0000
0001
0000
,
1000
0000
0000
1000
0000
0000
0010
0000
0000
1000
0100
1000
,
0001
0000
0000
0001
0100
0001
0100
0000
0000
0100
0000
0000
,
0010
0010
0100
0100
0001
0000
1000
1000
,
0001
0000
0001
0000
1000
0000
0000
0000
0100
0010
0100
0010
0100
0000
0000
0000
,
1000
0000
0000
0001
0000
0000
1000
0000
0010
0100
0010
0100
0001
0000
0000
0000
,
0100
0000
0000
0010
0000
0000
0000
0000
1000
0000
0010
0000
0002
0000
0000
0000
,
1003
0100
0002
0000
0013
0001
1000
0100
,
0010
0100
0001
0100
1000
0010
0000
0110
,
0000
0001
0100
0001
0010
0100
0000
0110
,
0000
1000
1000
0100
1000
0001
0000
0101
,
0000
1000
0100
0000
1000
0001
0000
1100
,
0000
0100
0010
0000
0001
0010
0100
1000
,
0001
0100
0010
0100
1000
0000
0001
0000
,
1000
0000
0100
0000
0001
0010
0100
1000
,
0010
0100
0001
0010
0100
0000
1000
0001
,
1000
0100
0110
0000
0002
0000
2003
0000
,
0001
0000
3001
0000
1000
0001
0100
0001
0010
0000
0010
0000
0100
0010
0100
0000
,
1000
0001
0010
0100
1000
0100
0010
0001
1000
0000
0000
0000
1010
0000
0000
0000
,
0001
0000
1000
0000
0010
0000
0000
0000
0100
0000
0001
0100
0001
0000
1000
0000
,
0100
0000
1000
0100
1000
0000
0000
0000
0020
0000
0000
0000
0000
0000
0130
0000
,
1000
0100
0001
0010
0200
0000
0000
0301
,
0100
1000
0100
0000
0010
0000
0011
0000
,
1000
0001
0010
0000
0110
0000
1001
0000
,
1000
0000
0001
0100
0001
0000
0000
0000
0020
0000
0000
0000
0000
0000
0130
0000
,
0001
0100
1000
0010
0200
0000
0000
1300
,
0100
0001
0100
0000
0010
1000
0001
1000
,
0100
0010
0000
0001
0000
0001
1000
0001
,
0100
0010
0000
1000
0000
1000
0010
1000
,
0001
0010
0100
0001
0000
1000
0000
0010
,
0001
0000
0010
0000
0000
0100
0000
0000
1000
0000
0000
0000
0101
0000
0000
0000
,
1000
0001
0100
0000
1001
0000
1100
0000
,
1000
1000
0001
0001
0200
0000
0000
0310
,
0001
0000
0000
0010
0000
0000
1000
0000
0100
0000
0000
0000
0110
0000
0000
0000
,
1001
1000
0020
0000
0130
0000
0001
0010
,
0100
1000
0010
0000
0100
0000
0010
1000
,
0001
0010
0001
0000
0010
0100
1000
0001
,
0100
0010
0100
0000
0001
0001
1000
0000
,
0100
0100
0010
0100
1001
0000
0001
0100
,
0000
0100
0000
0010
0000
0100
0001
0000
,
1000
0000
0100
1000
0100
0000
1000
0000
0010
0000
0000
0000
0100
0000
0010
0000
,
0000
0110
0000
0101
0000
1000
0000
0100
,
0020
0030
0000
0000
;

//---------------dance-single - Telperion----------------
#NOTES:
     dance-single:
     Telperion:
     Medium:
     6:
     0.472284,0.478149,0.193626,0.186455,0.010757,408.000000,27.000000,26.000000,0.000000,0.000000,0.000000,0.472284,0.478149,0.193626,0.186455,0.010757,408.000000,27.000000,26.000000,0.000000,0.000000,0.000000:
0000
0000
0000
0000
,
0000
0000
0000
0000
,
0000
0000
0000
0000
,
0000
0000
0000
0000
1001
0000
0000
0100
,
0000
0001
0000
1000
0000
0000
1000
0000
,
0100
0000
1000
0100
0001
0000
0000
0010
,
0000
0001
0000
1000
0000
0000
1000
0000
,
0001
0100
0002
0003
1000
0000
0000
0000
,
1000
0000
0010
0100
,
0010
0100
0001
0000
,
0001
0000
0010
0100
,
0010
0000
0100
0010
0002
0000
0000
0000
,
0203
0000
0000
0000
0000
0000
0000
0300
2000
0000
0000
0000
0000
0000
0000
0000
,
3200
0300
0220
0000
,
0030
0000
0301
1000
,
0100
0010
0100
1000
0001
0000
0000
1100
,
0000
0001
0000
0100
0000
0000
0000
0110
,
0000
0010
0000
1000
0001
0000
0001
0000
,
1000
0100
1000
0001
0000
0000
0001
0000
,
0010
0000
0100
0000
1000
0000
0000
0101
,
0000
1000
0000
0001
0000
0000
0100
0000
,
0010
0000
0100
0000
1000
0100
0010
1000
,
0001
0000
0100
0000
0010
0000
0100
0001
,
0000
1000
1100
0100
,
1000
0100
1000
0100
1000
0000
0001
0000
,
0001
0100
0001
0100
0001
0000
1000
0000
,
1000
0010
1000
0001
0000
0000
0010
0000
,
0100
1000
0010
0110
,
1000
1001
0010
0110
,
0001
1000
0000
0001
0010
0100
0010
0100
,
0010
0000
0001
0000
1000
0001
1000
0001
,
1000
0001
1000
0000
0020
0000
0230
0000
,
0310
0000
0100
0000
0001
1000
0100
0010
,
0001
0000
1000
1010
,
0001
1000
0001
0011
,
1000
0001
1000
0000
0200
0000
0000
0301
,
0100
0000
1000
0000
0020
0000
0000
0031
,
0010
1000
0001
0011
,
1000
0001
0100
0110
,
1000
0000
0001
0000
0020
0000
0000
1030
,
0010
0000
0001
0000
0200
0000
0000
1300
,
0100
0010
1000
1000
,
0001
0001
0000
0020
0000
0000
0031
0000
,
1000
1000
0000
0020
0000
0000
1030
0000
,
0010
1000
0001
0010
0000
0100
0000
0000
,
1000
1000
0001
0011
,
1000
0001
1000
1010
,
0001
1000
0001
0000
0200
0000
0000
1300
,
0100
0000
0000
0010
0000
0000
0100
0000
0001
0000
0000
0000
1000
0000
0000
0000
,
1001
0000
0000
0000
0011
0000
0000
0100
,
0000
1000
0000
0001
0000
0000
0001
0000
,
0100
0000
0001
0100
1000
0000
0000
0010
,
0000
1000
0000
0001
0000
0000
0001
0000
,
1000
0100
1000
0000
0011
0000
0000
0000
,
0010
0100
1010
0000
,
0010
0000
0100
0000
0001
0100
0001
0000
,
1000
0100
1000
0000
0001
0010
0001
0000
,
1000
0010
1000
0000
0001
0100
1000
0000
,
0010
0000
1000
0000
0001
0010
1000
0000
,
0100
0000
1000
0000
0001
0001
0100
0000
,
1000
0100
0001
0001
,
0100
0001
0100
0001
0010
0000
0000
0100
,
0000
1000
0000
0001
0000
0100
0000
0010
,
0000
0100
0010
0100
0000
0001
0000
1000
,
0000
0100
0000
0010
0000
0001
0000
1000
,
0010
0100
0010
0000
1000
0001
0000
0100
,
0000
0100
0001
0100
1000
0000
0100
0000
,
0010
0000
0001
0000
0010
1000
0010
0100
,
0001
0100
0010
1000
0001
0000
0010
0100
,
0010
0100
0010
0000
0002
0000
2003
0000
,
3001
0000
0000
0000
1000
0000
0000
0000
0010
0000
1000
0000
0001
0100
0001
0000
,
0010
0000
0001
0011
,
1000
0001
1000
1010
,
0001
1000
0001
0000
0200
0000
0000
1300
,
0100
0000
0001
0000
0020
0000
0000
1030
,
0010
0001
1000
1010
,
0001
1000
0100
0110
,
0001
0000
1000
0000
0020
0000
0000
0031
,
0010
0000
1000
0000
0200
0000
0000
0301
,
0100
0010
0001
0001
,
1000
1000
0000
0020
0000
0000
1030
0000
,
0001
0001
0000
0020
0000
0000
0031
0000
,
0010
0001
1000
0010
0000
0100
0000
0000
,
0001
0001
1000
1010
,
0001
1000
0001
0011
,
1000
0001
1000
0000
0200
0000
0000
0301
,
0100
0000
0000
0010
0000
0000
0001
0000
1000
0000
0000
0000
0010
0000
0000
0000
,
0110
0100
0002
0000
1003
0000
0010
0000
,
0100
0010
1000
0000
0001
0010
0100
1000
,
0100
1000
0001
0000
0100
0000
0100
0000
,
0010
0100
0010
0000
1000
0010
0100
0000
,
0001
1000
0001
1000
0001
0000
0000
0100
,
0000
1000
0000
0001
0000
0000
0001
0000
,
0100
0000
0001
0100
1000
0000
0000
0010
,
0000
1000
0000
0001
0000
0010
0000
0100
,
0010
1001
0000
0000
;

//---------------dance-single - Telperion----------------
#NOTES:
     dance-single:
     Telperion:
     Easy:
     4:
     0.279682,0.307381,0.129084,0.100399,0.000000,241.000000,18.000000,14.000000,0.000000,0.000000,0.000000,0.279682,0.307381,0.129084,0.100399,0.000000,241.000000,18.000000,14.000000,0.000000,0.000000,0.000000:
0000
0000
0000
0000
,
0000
0000
0000
0000
,
0000
0000
0000
0000
,
0000
0000
1001
0000
,
1000
0000
0001
0000
,
0100
0010
0100
0000
,
0010
0000
1000
0010
,
1000
0000
0001
0000
,
0001
0000
1000
0000
,
1000
0000
0001
0000
,
0001
0000
1000
0000
,
1000
0000
0200
0000
,
0010
0000
0010
0000
,
0010
0000
0020
0000
,
0000
0000
0330
0000
,
0000
0000
0001
0000
,
0010
0000
0001
0000
,
1000
0100
1000
0000
,
0010
0000
1000
0000
,
0001
0100
0001
0000
,
0010
0000
0001
0000
,
1000
0001
0010
0000
,
0100
0000
0010
0100
,
0010
0100
0010
0000
,
0010
0000
0001
0000
,
0001
0000
1000
0000
,
1000
0000
0010
0000
,
0010
0000
0100
0000
,
0100
0000
0001
0100
,
0001
0000
1000
0000
,
0001
0000
1000
0100
,
1000
0000
0010
0010
,
0010
0010
0010
0000
1001
0000
0000
0000
,
0000
0000
1000
1000
,
0001
0000
0001
0001
,
1000
0000
1200
0000
,
1300
0001
0021
0000
,
0031
1000
0001
0001
,
1000
0000
1000
1000
,
0001
0000
0201
0000
,
0301
1000
1020
0000
,
1030
0000
0001
0010
,
0001
0000
1000
0010
,
1000
0000
0001
0100
,
0001
0000
1000
0100
,
1000
0000
0001
0001
,
1000
0000
1000
1000
,
0001
1000
0210
0000
,
0300
0000
0010
0100
,
0110
0000
1001
0000
,
0001
0000
1000
0000
,
0100
0010
0100
0000
,
0010
0000
0001
0010
,
0001
0000
1000
0000
,
0010
1000
0001
0000
,
0010
0001
1000
0000
,
0100
0000
0010
0000
,
0100
0010
0001
0000
,
0001
1000
0010
0000
,
0010
0100
0002
0003
,
2000
3000
0001
0000
,
1000
0100
0010
0010
,
0000
0001
0000
1000
,
0000
0010
0000
0100
,
0000
0001
0000
1000
,
0000
0100
0000
0010
,
0000
0100
1000
0001
,
1000
0001
0100
0100
,
0010
0010
1000
0000
,
0001
0000
0010
0010
,
0010
0010
0010
0000
1001
0000
0000
0000
,
0000
0000
0001
0001
,
1000
0000
1000
1000
,
0001
0000
0201
0000
,
0301
1000
1020
0000
,
1030
0001
1000
1000
,
0001
0000
0001
0001
,
1000
0000
1200
0000
,
1300
0001
0021
0000
,
0031
0000
1000
0010
,
1000
0000
0001
0010
,
0001
0000
1000
0100
,
1000
0000
0001
0100
,
0001
0000
1000
1000
,
0001
0000
0001
0001
,
1000
0001
0210
0000
,
0300
0000
0010
0100
,
0110
0000
0001
0000
,
1000
0010
0100
0000
,
0001
0001
0010
0000
,
0100
0010
0001
0000
,
1000
0000
1001
0000
,
0001
0000
1000
0000
,
0001
0100
0010
0000
,
0100
0000
0010
0100
,
0010
1001
0000
0000
;

//---------------dance-single - Telperion----------------
#NOTES:
     dance-single:
     Telperion:
     Beginner:
     2:
     0.123962,0.170767,0.007171,0.000000,0.000000,120.000000,1.000000,0.000000,0.000000,0.000000,0.000000,0.123962,0.170767,0.007171,0.000000,0.000000,120.000000,1.000000,0.000000,0.000000,0.000000,0.000000:
// measure 0
0000
0000
0000
0000
,  // measure 1
0000
0000
0000
0000
,  // measure 2
0000
0000
0000
0000
,  // measure 3
0000
0000
1000
0000
,  // measure 4
0000
0000
1000
0000
,  // measure 5
0000
0000
0001
0000
,  // measure 6
0000
0000
0001
0000
,  // measure 7
0000
0000
0100
0000
,  // measure 8
0000
0000
0100
0000
,  // measure 9
0000
0000
0100
0000
,  // measure 10
0000
0000
0100
0000
,  // measure 11
0000
0000
0010
0000
,  // measure 12
0010
0000
0010
0000
,  // measure 13
0010
0000
0010
0000
,  // measure 14
0000
0000
0000
0000
,  // measure 15
0000
0000
1000
0000
,  // measure 16
0000
0000
1000
0000
,  // measure 17
0000
0000
0001
0000
,  // measure 18
0000
0000
0001
0000
,  // measure 19
0000
0000
0010
0000
,  // measure 20
0000
0000
0100
0000
,  // measure 21
0000
0000
1000
0000
,  // measure 22
0000
0000
1000
0000
,  // measure 23
0000
0000
0001
0000
,  // measure 24
0000
0000
0001
0000
,  // measure 25
0000
0000
1000
0000
,  // measure 26
0000
0000
1000
0000
,  // measure 27
0000
0000
0010
0000
,  // measure 28
0000
0000
0100
0000
,  // measure 29
0000
0000
0001
0000
,  // measure 30
0000
0000
0001
0000
,  // measure 31
0000
0000
0010
0010
,  // measure 32
0010
0010
0010
0000
,  // measure 33
0000
0000
0001
0000
,  // measure 34
0001
0000
0001
0000
,  // measure 35
0000
0000
1000
0000
,  // measure 36
1000
0000
1000
0000
,  // measure 37
0000
0000
0010
0000
,  // measure 38
0010
0000
0010
0000
,  // measure 39
0000
0000
1000
0000
,  // measure 40
1000
0000
1000
0000
,  // measure 41
0000
0000
0100
0000
,  // measure 42
0100
0000
0100
0000
,  // measure 43
0000
0000
0001
0000
,  // measure 44
0001
0000
0001
0000
,  // measure 45
0000
0000
0010
0000
,  // measure 46
0010
0000
0010
0000
,  // measure 47
0000
0000
0001
0000
,  // measure 48
0001
0000
1000
0001
,  // measure 49
1000
0000
0001
0000
,  // measure 50
0000
0000
0001
0000
,  // measure 51
0000
0000
1000
0000
,  // measure 52
0000
0000
1000
0000
,  // measure 53
0000
0000
0010
0000
,  // measure 54
0000
0000
0010
0000
,  // measure 55
0000
0000
0100
0000
,  // measure 56
0000
0000
0100
0000
,  // measure 57
0000
0000
0001
0000
,  // measure 58
0000
0000
1000
0000
,  // measure 59
0000
0000
0100
0000
,  // measure 60
0000
0000
0100
0000
,  // measure 61
0000
0000
0010
0000
,  // measure 62
0000
0000
0010
0000
,  // measure 63
0000
0000
0100
0000
,  // measure 64
0000
0000
0100
0000
,  // measure 65
0000
0000
1000
0000
,  // measure 66
0000
0000
0001
0000
,  // measure 67
0000
0000
0100
0000
,  // measure 68
0000
0000
0100
0000
,  // measure 69
0000
0000
0010
0010
,  // measure 70
0010
0010
0010
0000
,  // measure 71
0000
0000
1000
0000
,  // measure 72
1000
0000
1000
0000
,  // measure 73
0000
0000
0001
0000
,  // measure 74
0001
0000
0001
0000
,  // measure 75
0000
0000
0010
0000
,  // measure 76
0010
0000
0010
0000
,  // measure 77
0000
0000
0001
0000
,  // measure 78
0001
0000
0001
0000
,  // measure 79
0000
0000
0100
0000
,  // measure 80
0100
0000
0100
0000
,  // measure 81
0000
0000
1000
0000
,  // measure 82
1000
0000
1000
0000
,  // measure 83
0000
0000
0010
0000
,  // measure 84
0010
0000
0010
0000
,  // measure 85
0000
0000
1000
0000
,  // measure 86
1000
0000
0001
1000
,  // measure 87
0001
0000
0100
0000
,  // measure 88
0000
0000
0100
0000
,  // measure 89
0000
0000
0010
0000
,  // measure 90
0000
0000
0010
0000
,  // measure 91
0000
0000
1000
0000
,  // measure 92
0000
0000
1000
0000
,  // measure 93
0000
0000
0001
0000
,  // measure 94
0000
0000
0001
0000
,  // measure 95
0000
1001
0000
0000
;
