#TITLE:Chartreuse;
#SUBTITLE:;
#ARTIST:Capital Cities;
#TITLETRANSLIT:;
#SUBTITLETRANSLIT:;
#ARTISTTRANSLIT:;
#GENRE:;
#CREDIT:;
#BANNER:Chartreuse - Capital Citiesbn.png;
#BACKGROUND:Chartreuse - Capital Citiesbg.png;
#LYRICSPATH:Chartreuse - Capital Cities.lrc;
#CDTITLE:encorerebirth.png;
#MUSIC:Chartreuse - Capital Cities.ogg;
#OFFSET:0.000;
#SAMPLESTART:68.501;
#SAMPLELENGTH:18.225;
#SELECTABLE:YES;
#BPMS:0.000=105.000
;
#STOPS:
;
#BGCHANGES:;
#KEYSOUNDS:;
#ATTACKS:;

//---------------dance-single - ----------------
#NOTES:
     dance-single:
     :
     Beginner:
     1:
     0.071,0.127,0.042,0.017,0.000,52.000,5.000,2.000,0.000,0.000,0.000,0.071,0.127,0.042,0.017,0.000,52.000,5.000,2.000,0.000,0.000,0.000:
0000
0000
0000
0000
,
0000
0000
0000
0000
,
0000
0000
0000
0000
,
0000
0000
0000
0000
,
1000
0000
0000
0000
,
0001
0000
0010
0000
,
0001
0000
0000
0000
,
0001
0000
1000
0000
,
0100
0000
0000
0000
,
0100
0000
0000
0000
,
0010
0000
0000
0000
,
0010
0000
0000
0000
,
0001
0000
0000
0000
,
0001
0000
0000
0000
,
0010
0000
0001
0000
,
1000
0000
0100
0000
,
1000
0000
0000
0000
,
1000
0000
0000
0000
,
0010
0000
0000
0000
,
0010
0000
0000
0000
,
0100
0000
0000
0000
,
0100
0000
0000
0000
,
0010
0000
1000
0000
,
0001
0000
0010
0000
,
1001
0000
0000
0000
,
1001
0000
0000
0000
,
0110
0000
0000
0000
,
0110
0000
0000
0000
,
0000
0000
0000
0000
,
0000
0000
0000
0000
,
1000
0000
0000
0000
,
0100
0000
0000
0000
,
1000
0000
0000
0000
,
0010
0000
0000
0000
,
0100
0000
0000
0000
,
0001
0000
0000
0000
,
0010
0000
0000
0000
,
0001
0000
0000
0000
,
1000
0000
0000
0000
,
0100
0000
0000
0000
,
0010
0000
0000
0000
,
0001
0000
0000
0000
,
0001
0000
0000
0000
,
0100
0000
0000
0000
,
0010
0000
0000
0000
,
1000
0000
0000
0000
,
0100
0000
0000
0000
,
0100
0000
1000
0000
,
0010
0000
0000
0000
,
0100
0000
2002
0000
,
3003
0000
0000
0000
;

//---------------dance-double - Spork!----------------
#NOTES:
     dance-double:
     :
     Easy:
     1:
     0.092,0.148,0.051,0.068,0.000,62.000,6.000,8.000,0.000,0.000,0.000,0.092,0.148,0.051,0.068,0.000,62.000,6.000,8.000,0.000,0.000,0.000:
00000000
00000000
00000000
00000000
,
00000000
00000000
00000000
00000000
,
00000000
00000000
00000000
00000000
,
00000000
00000000
00000000
00000000
,
01000000
01000000
00000000
00000000
,
00001000
00000000
00010000
00000000
,
00000100
00000100
00000000
00000000
,
00010000
00000000
00001000
00000000
,
00100000
00000000
00000000
00000000
,
01000000
00000000
00000000
00000000
,
10000000
00000000
00000000
00000000
,
00010000
00000000
00000000
00000000
,
01000000
00000000
00000000
00000000
,
00001000
00000000
00000000
00000000
,
00010000
00000000
00010000
00000000
,
00001000
00000000
00001000
00000000
,
00010000
00000000
00000000
00000000
,
00000100
00000000
00000000
00000000
,
00000010
00000000
00000000
00000000
,
00000001
00000000
00000000
00000000
,
00000100
00000000
00000000
00000000
,
00000010
00000000
00000000
00000000
,
00010000
00000000
00010000
00000000
,
00001000
00000000
00001000
00000000
,
00020000
00000000
00031000
00000000
,
00002000
00000000
01003000
00000000
,
02000000
00000000
03100000
00000000
,
00200000
00000000
10300000
00000000
,
20020000
00000000
00000000
00000000
,
30000000
00000000
00000000
00030000
,
01100000
00000000
00000000
00000000
,
01000000
00000000
00000000
00000000
,
10000000
00000000
00000000
00000000
,
00010000
00000000
00000000
00000000
,
10010000
00000000
00000000
00000000
,
00001000
00000000
00000000
00000000
,
00010000
00000000
00000000
00000000
,
00000100
00000000
00000000
00000000
,
00000110
00000000
00000000
00000000
,
00000010
00000000
00000000
00000000
,
00000001
00000000
00000000
00000000
,
00001000
00000000
00000000
00000000
,
00001001
00000000
00000000
00000000
,
00010000
00000000
00000000
00000000
,
00000010
00000000
00000000
00000000
,
00010000
00000000
00010000
00000000
,
00001000
00001000
00000000
00000000
,
01000000
00000000
00001000
00000000
,
00010000
00010000
00000000
00000000
,
00000100
00000000
00002002
00000000
,
00003003
00000000
00000000
00000000
;

//---------------dance-double - Spork!----------------
#NOTES:
     dance-double:
     :
     Hard:
     7:
     0.325,0.338,0.102,0.288,0.220,223.000,12.000,34.000,0.000,0.000,0.000,0.325,0.338,0.102,0.288,0.220,223.000,12.000,34.000,0.000,0.000,0.000:
00000000
00000000
00000000
00000000
,
00000000
00000000
00000000
00000000
,
00000000
00000000
00000000
00000000
,
00000000
00000000
00000000
00000000
,
00020000
00000000
00000000
00002000
00030000
00000000
00000000
00003000
00000000
00000000
00000000
00000000
00000000
00000000
01000000
00000000
,
00020000
00000000
00000000
20000000
00030000
00000000
00000000
30000000
02000000
00000000
00000000
00200000
03000000
00000000
00001000
00300000
,
00002000
00000000
00000000
00020000
00003000
00000000
00000000
00030000
00000000
00000000
00000000
00000000
00000000
00000000
00000010
00000000
,
00002000
00000000
00000000
00000002
00003000
00000000
00000000
00000003
00000010
00000000
00000100
00000000
00000110
00000000
00000000
00000000
,
00000001
00000000
00000000
00000000
00000100
00000000
00000000
00000000
00000010
00000000
00000000
00000010
00010000
00000000
00000000
00000000
,
00001000
00000010
00000001
00000011
,
00000010
00000000
00000000
00000000
00001000
00000000
00000000
00000000
00100000
00000000
00000000
00100000
00001000
00000000
00000000
00000000
,
00010000
00100000
10000000
10100000
,
00100000
00000000
00000000
00000000
00010000
00000000
00000000
00000000
00001000
00000000
00000000
00001000
00100000
00000000
00000000
00000000
,
00001000
00000000
00000000
00000000
00000100
00000000
00000000
00000000
00000001
00000000
00000000
00000001
00001000
00000000
00000000
00000000
,
00000001
00000000
00000100
00000000
00000010
00000000
00000000
00000000
00010000
00000000
00000000
00010000
00000000
00000000
00001000
00000000
,
00000000
00000000
00010000
00000000
00001000
00000000
00000000
00000000
00100000
00000000
00000000
00100000
00000000
00000000
01000000
00000000
,
10000000
00000000
00000000
00000000
00100000
00000000
00000000
00000000
00010000
00000000
00000000
00010000
00100000
00000000
00000000
00000000
,
00001000
00000000
00000000
00000000
00000010
00000000
00000000
00000000
00000010
00000000
00000000
00001000
00000000
00000000
00001000
00000000
,
00000001
00000000
00000000
00000000
00000010
00000000
00000000
00000000
00001000
00000000
00000000
00001000
00000010
00000000
00000000
00000000
,
00010000
00000000
00000000
00000000
00100000
00000000
00000000
00000000
00100000
00000000
00000000
00010000
00000000
00000000
00010000
00000000
,
10000000
00000000
00000000
00000000
01000000
00000000
00000000
00000000
00010000
00000000
00000000
00010000
01000000
00000000
00010000
00000000
,
00001000
00000000
00000000
00000000
00000100
00000000
00000000
00000000
00000010
00000000
00000000
00001000
00000000
00000000
00001000
00000000
,
00000001
00000000
00000010
00000000
00000100
00000000
00000000
00000000
00010000
00000000
00000000
00010000
00000000
00000000
00001000
00000000
,
00000000
00000000
00010000
00000000
00001000
00000000
00000000
00000000
00001000
01000000
00000000
00000000
00021000
00000000
00000000
00000000
,
00031000
00000000
00010000
00000000
00000100
00000000
00000010
00000000
00001000
00000000
00002000
00010000
00000000
00000000
00003000
00000000
,
00010000
00000000
00001000
00000000
01000000
00000000
00100000
00000000
00010000
00000000
00020000
00001000
00000000
00000000
00030000
00000000
,
00001000
00000000
00010000
00000000
01000000
00000000
00010000
00000000
00001000
00000000
00002000
00010000
00000000
00000000
00003000
00000000
,
00010000
00000000
00001000
00000000
00000100
00000000
00001000
00000000
00010000
00000000
00020000
00001000
00000000
00000000
00030000
00000000
,
20000000
00000000
00000000
00000000
,
00000000
00000000
00000000
30000000
,
00020000
00000000
00000000
00100000
20030000
00000000
00000000
00000000
,
30010000
00100000
00000000
00001000
00000000
00001000
00010000
00000000
00000010
00000000
00000000
00000000
00000000
00000000
00000010
00000000
,
00002000
00000000
00000000
00000100
00003002
00000000
00000000
00000000
,
00001003
00000000
00000010
00010000
00000000
00010000
00001000
00000000
00010000
00000000
00000000
00000000
00000100
00000000
00000000
00000000
,
00000010
00000000
00000000
00000001
00000000
00000000
00000100
00000000
00002001
00000000
00000000
00000000
00003000
00000000
00000100
00000000
,
00010000
00000000
00000000
00000000
00000000
00000000
01000000
00000000
10020000
00000000
00000000
10000000
00030000
00000000
00100000
00000000
,
01000000
00000000
00000000
00010000
00000000
00000000
00000000
00000000
00101000
00000000
00000000
00000000
00000000
00000000
00000000
00000000
,
01000000
00001000
00000000
00010000
00000000
00010000
00000100
00000000
00001000
00000000
00000000
00001000
00000000
00000000
00000001
00000000
,
00002000
00000000
00000000
00000010
00003002
00000000
00000000
00000000
,
00001003
00000100
00000000
00010000
00000000
00010000
00001000
00000000
00100000
00000000
00000000
00000000
00000000
00000000
00100000
00000000
,
00020000
00000000
00000000
01000000
20030000
00000000
00000000
00000000
,
30010000
00000000
00100000
00001000
00000000
00001000
00010000
00000000
00001000
00000000
00000000
00000000
01000000
00000000
00000000
00000000
,
00100000
00000000
00000000
10000000
00000000
00000000
01000000
00000000
02100000
00000000
00000000
00000000
03000000
00000000
00100000
00000000
,
00001000
00000000
00000000
00000000
00000000
00000000
00000010
00000000
00000120
00000000
00000000
00000100
00000030
00000000
00000010
00000000
,
00000001
00000000
00000000
00001000
00000000
00000000
00000000
00000000
00010100
00000000
00000000
00000000
00000000
00000000
00000000
00000000
,
00000010
00010000
00000000
00001000
00000000
00001000
00000000
00000000
00010000
00000000
00000000
00000100
00000000
00000000
00000010
00000000
,
00000200
00000000
00000000
00020000
00000000
00000000
00000000
00000000
00000000
00000000
00000300
00000000
00000000
00000000
00000010
00000000
,
00000010
00000000
00000000
00000010
00000000
00000000
00030000
00000000
00001000
00000000
00000000
01000000
00000000
00000000
00100000
00000000
,
02000000
00000000
00000000
00002000
00000000
00000000
00000000
00000000
00000000
00000000
03000000
00000000
00000000
00000000
00100000
00000000
,
00100000
00000000
00000000
00100000
00000000
00000000
00003000
00000000
00011000
00000000
00010000
00000000
00020200
00000000
00000000
00000000
,
00030300
00000000
00000000
00000000
;

//---------------dance-single - Spork!----------------
#NOTES:
     dance-single:
     :
     Challenge:
     11:
     0.712,0.677,0.042,0.161,1.000,565.000,5.000,19.000,40.000,0.000,0.000,0.712,0.677,0.042,0.161,1.000,565.000,5.000,19.000,40.000,0.000,0.000:
0000
0000
0000
0000
,
0000
0000
0000
0000
,
0000
0000
0000
0000
,
0000
0000
0000
0110
,
0001
0010
0001
0100
0010
1000
0000
1000
0001
0000
0001
0010
0000
0010
0100
1000
,
0001
1000
0010
0100
0010
1000
0000
1000
0001
0000
0001
0100
0000
0100
0010
1000
,
0100
1000
0010
0100
0001
1000
0000
1000
0100
0000
0100
0010
0000
0010
0001
0100
,
0010
0100
0001
0010
0100
1000
0000
0000
1000
0100
0001
0100
1000
0002
0000
0000
,
0003
1000
0100
0010
0000
0100
0010
0001
0000
0010
0001
1000
0000
0001
1000
0001
,
0000
0000
0001
0000
0010
0000
0100
0000
0000
0000
0010
0000
0100
0000
1000
0000
0000
0000
0100
0000
1000
0000
0001
0000
0000
0000
1000
0000
0001
0000
0100
00M0
,
0100
1000
0010
0100
0000
0010
0100
0001
0000
0100
0001
1000
0000
0001
1000
0001
,
0000
0000
0001
0000
0100
0000
0010
0000
0000
0000
0100
0000
0010
0000
1000
0000
0000
0000
0010
0000
1000
0000
0001
0000
0000
0000
1000
0000
0001
0000
0010
0M00
,
0010
0000
1000
0000
0100
0000
0010
0000
0000
0000
0001
0000
0100
0000
0010
0000
0000
0000
1000
0000
0010
0000
0100
0000
0000
0000
0001
0000
1000
0000
0100
00M0
,
0100
0001
0010
0100
0000
1000
0010
0100
0000
0001
0100
0010
0000
1000
0010
1000
,
0001
0000
0010
0000
0010
0002
0000
0000
0103
0001
1000
0020
0000
0000
0031
0010
,
0100
0000
0010
0000
0010
2000
0000
0000
3010
1000
0001
0020
0000
0000
0130
0010
,
0001
0100
0001
1000
0000
0001
1000
0100
0000
1000
0100
0001
0000
0001
0100
0001
,
0000
0000
0100
0000
0010
0000
0001
0000
0000
0000
0010
0000
0001
0000
1000
0000
0000
0000
0001
0000
1000
0000
0010
0000
0000
0000
0010
0000
1000
0000
0100
000M
,
0100
0010
1000
0001
0000
1000
0001
0010
0000
0001
0010
1000
0000
1000
0010
1000
,
0000
0000
0010
0000
0100
0000
1000
0000
0000
0000
0100
0000
1000
0000
0001
0000
0000
0000
1000
0000
0001
0000
0100
0000
0000
0000
0100
0000
0001
0000
0010
M000
,
0010
0000
0100
0000
0001
0000
0010
0000
0000
0000
0001
0000
0010
0000
1000
0000
0000
0000
0010
0000
0001
0000
0100
0000
0000
0000
0010
0000
1000
0000
0100
000M
,
0100
0010
1000
0100
0000
1000
0100
0001
0000
0100
1000
0010
0000
0010
0100
0001
,
1000
0000
0100
0000
0100
2000
0000
0000
3010
1000
0001
0020
0000
0000
1030
0010
,
0100
0000
0010
0000
0010
0002
0000
0000
0013
0200
0000
0000
1300
0000
0001
0001
,
1000
0100
1000
0001
0010
0001
0100
0000
0102
0000
0010
0010
0000
0000
1003
0000
,
0001
0100
0001
1000
0010
1000
0100
0000
2100
0000
0010
0010
0000
0000
3001
0000
,
1000
0100
0010
0001
1000
0010
0100
0000
0120
0000
1000
1000
0000
0000
0130
0000
,
0001
0010
0100
1000
0001
0100
0010
0000
0210
0000
0001
0001
0000
0000
0300
0000
,
2000
0000
0000
0000
,
0000
0000
0000
3000
,
M001
0010
0001
0010
0100
1000
0010
0010
100M
0100
1000
0100
0010
0001
0100
0100
,
M001
0010
0001
0010
1000
0010
0100
0100
100M
0100
1000
0100
0001
0100
0010
0010
,
M001
0100
0001
0100
0010
1000
0001
0001
1M00
0010
1000
0010
0100
0001
1000
1000
,
0M01
0010
0001
0010
1000
0010
0001
0001
1M00
0010
1000
0010
0001
0010
1000
1000
,
010M
0010
0100
1000
0010
0100
0010
0010
100M
0100
0010
0001
0100
0010
0100
0100
,
M001
0010
0001
0100
1000
0100
0010
0010
100M
0010
1000
0100
0001
0100
0010
0010
,
M001
0010
0100
0010
0001
0100
0010
0010
100M
0010
0100
0010
1000
0100
0010
0010
,
0M01
1000
0010
0001
0010
1000
0001
0001
1M00
0001
0010
1000
0010
0001
1000
0010
,
100M
0100
1000
0100
0010
0001
0100
0100
M001
0010
0001
0010
0100
1000
0010
0010
,
100M
0100
1000
0100
0001
0100
0010
0010
M001
0010
0001
0010
1000
0010
0100
0100
,
100M
0010
1000
0010
0100
0001
1000
1000
00M1
0100
0001
0100
0010
1000
0001
0001
,
10M0
0100
1000
0100
0001
0100
1000
1000
00M1
0100
0001
0100
1000
0100
0001
0001
,
M010
0100
0010
0001
0100
0010
0100
0100
M001
0010
0100
1000
0010
0100
0010
0010
,
100M
0100
1000
0010
0001
0010
0100
0100
M001
0100
0001
0010
1000
0010
0100
0100
,
100M
0100
0010
0100
1000
0010
0100
0100
M001
0100
0010
0100
0001
0010
0100
0100
,
10M0
0001
0100
1000
0100
0001
1000
1000
00M1
1000
0100
0001
0100
1000
0001
0010
,
0100
0000
0000
0200
0000
0000
0000
0000
0000
0000
0000
0000
0000
0000
0310
0000
,
0001
0000
0001
2000
0000
0000
0000
0000
3010
0000
0010
0100
0000
0100
0001
1000
,
0100
0000
0000
0200
0000
0000
0000
0000
0000
0000
0000
0000
0300
0000
1000
0000
,
0001
0000
0000
0002
0000
0000
0000
0000
1003
0010
0001
0010
1000
0002
0000
0000
,
0MM3
0000
0000
0000
;

//---------------dance-double - Spork!----------------
#NOTES:
     dance-double:
     :
     Medium:
     4:
     0.243,0.295,0.076,0.398,0.000,145.000,9.000,47.000,0.000,0.000,0.000,0.243,0.295,0.076,0.398,0.000,145.000,9.000,47.000,0.000,0.000,0.000:
00000000
00000000
00000000
00000000
,
00000000
00000000
00000000
00000000
,
00000000
00000000
00000000
00000000
,
00000000
00000000
00000000
00000000
,
00010000
00001000
00010000
00010000
,
00000010
00010000
00001000
00100000
,
00001000
00010000
00001000
00001000
,
01000000
00001000
00010000
00000100
,
00000020
00000000
00000130
00001000
,
00000020
00000000
00000031
00000000
,
00000020
00000000
00010030
00001000
,
00200000
00000000
10300000
00000000
,
00200000
00000000
00310000
10000000
,
00200000
00000000
01300000
00000000
,
00010000
10000000
00010000
00000000
01000000
00000000
00001000
00000000
,
00010000
00001000
00010000
00000000
00001000
00000000
00100000
00000000
,
02000000
00000000
03100000
00010000
,
02000000
00000000
13000000
00000000
,
02000000
00000000
03001000
00010000
,
00000200
00000000
00000301
00000000
,
00000200
00000000
00001300
00000001
,
00000200
00000000
00000310
00000000
,
00001000
00000001
00001000
00000000
00000010
00000000
00010000
00000000
,
00001000
00010000
00001000
00000000
00010000
00000000
00000100
00000000
,
00000020
00000000
00000031
00001001
,
00000200
00000000
00000310
00001001
,
00000001
00000100
00001000
00011000
,
00010000
01000000
10000000
10010000
,
02000000
00000000
00000000
00000000
,
00000000
00000000
00000000
03000000
,
00010000
20000000
32000000
03020000
,
00032000
00000000
00003000
00000000
00020000
00000000
00030000
00001000
,
00002000
00000000
00003000
00000100
00000200
00000000
00000302
00000000
,
00002003
00000000
00003000
00000000
00000110
00000000
00000000
00000001
,
00000002
00000000
00000003
00000100
00000200
00000000
00000300
00001000
,
00002000
00000000
00023000
00000000
00032000
00000000
00003000
00020000
,
00000000
02030000
00000000
03000000
10000000
00000000
00000000
00000000
,
00010000
00000000
01100000
00000000
,
00010000
00000000
20000000
00000000
00000000
00000000
30000000
00100000
,
00200000
00000000
00300000
00010000
00020000
00000000
00030000
00001000
,
00002000
00000000
00003000
00010000
00020000
00000000
00030010
00000000
,
00010000
00000000
00000000
00000000
00000110
00000000
00000000
00000001
,
00000002
00000000
00000003
00000010
00000020
00000000
00000030
00001000
,
00002000
00000000
00023000
00000000
00032000
00000000
00003000
00010000
,
00020000
00230000
00300000
00000000
,
20000000
30000000
00020000
00030000
,
01002000
00000000
00000000
00000000
00000000
00000000
00000000
00010000
,
00013000
00001000
00010000
00000100
,
00020010
00000000
00000000
00000000
00000000
00000000
00000000
00001000
,
00031000
00010000
00000100
00000010
;

//---------------dance-double - Spork!----------------
#NOTES:
     dance-double:
     :
     Challenge:
     10:
     0.616,0.677,0.051,0.448,0.787,451.000,6.000,53.000,94.000,8.000,0.000,0.616,0.677,0.051,0.448,0.787,451.000,6.000,53.000,94.000,8.000,0.000:
00000000
00000000
00000000
00000000
,
00000000
00000000
00000000
00000000
,
00000000
00000000
00000000
00000000
,
00000000
00000000
00000000
00000000
,
00001000
00000100
00000010
00000000
00000010
00000001
00000000
00000000
00000001
00000000
00001000
00000001
00000000
00000000
00000001
00000000
,
00000010
00000000
00001000
00010000
00000000
00000000
00000000
00000000
00001000
00000000
00010000
00100000
00000000
10000000
00100000
01000000
,
00010000
00100000
01000000
00000000
01000000
10000000
00000000
00000000
10000000
00000000
00010000
10000000
00000000
00000000
10000000
00000000
,
00100000
00000000
00000000
00010000
00000000
00000000
00001000
00000000
00010000
00001000
01000000
00001000
00010000
00000100
00000000
00000000
,
00020000
00000000
00000000
00000000
00030020
00000000
00000000
00000030
00000002
00000000
00000000
00000013
00001000
00000000
00000000
00000000
,
00000200
00020000
00002000
011330MM
,
00002300
00000000
00000000
00000000
00003200
00000000
00000000
00000300
00000002
00000000
00000000
00000103
00010000
00000000
00000000
00000000
,
00020000
00000200
00002000
MM103310
,
00032000
00000000
00000000
00000000
00203000
00000000
00000000
00000000
20300000
00000000
00000000
00010000
30000000
00000000
00001000
00000000
,
00020000
00000000
00000000
00000000
00030200
00000000
00000000
00000000
00000302
00000000
00000000
00001000
00000003
00000000
00010000
00000000
,
00001000
00000000
00100000
00000000
00001000
00000100
00000000
00000000
00000100
00000010
00000100
00000001
00000000
00000001
00000100
00001000
,
00010000
00000000
00000010
00000000
00010000
01000000
00000000
00000000
01000000
00100000
01000000
10000000
00000000
10000000
00100000
00010000
,
00002000
00000000
00000000
00003000
02000000
00000000
00000000
03000000
20000000
00000000
00000000
31000000
00010000
00000000
00000000
00000000
,
02000000
00002000
00020000
M0M33110
,
03020000
00000000
00000000
00030000
00200000
00000000
00000000
00300000
20000000
00000000
00000000
30100000
00001000
00000000
00000000
00000000
,
00002000
02000000
00020000
03130M1M
,
00023000
00000000
00000000
00030000
00000200
00000000
00000000
00000000
00000001
00000000
00000300
00000010
00000100
00000000
00010000
00000000
,
00002000
00000000
00000000
00003000
00200000
00000000
00000000
00000000
10000000
00000000
00300000
01000000
00100000
00000000
00001000
00000000
,
00010000
00000000
00000100
00000000
00010000
00100000
00000000
00000000
00100000
01000000
00100000
10000000
00000000
10000000
00100000
00010000
,
00001000
00000000
01000000
00000000
00001000
00000010
00000000
00000000
00000010
00000100
00000000
00000000
00001100
00000000
00000010
00000001
,
00001000
00000010
00000001
00000000
00000010
00000000
00010000
00000000
00001000
00000000
00200000
00000020
00000000
00300000
01000030
00000000
,
00010000
00100000
10000000
00000000
00100000
00000000
00001000
00000000
00010000
00000000
00000020
00200000
00000000
00000030
00300100
00000000
,
00001000
00000100
00000001
00000000
00000100
00000000
00010000
00000000
00001000
00000000
02000000
00000200
00000000
03000000
00100300
00000000
,
00010000
01000000
10000000
00000000
01000000
00000000
00001000
00000000
00010000
00000000
00000200
02000000
00000000
00000300
03000000
00000000
,
00022000
00000000
00000000
00000000
,
00000000
00000000
00000000
00033000
,
000010M0
00100000
00001000
00100000
01000000
00100000
010000M0
00100000
00010M00
01000000
00010000
01000000
00100000
10000000
00100000
10000000
,
0001M000
00100M00
00010000
0010000M
01000000
0010000M
010000M0
00100000
00001M00
00010000
00001000
00010000
00000010
00001000
0M000010
00000010
,
00M10000
00000100
00010000
00000100
00000010
00000100
00M00010
00000100
0M001000
00000010
00001000
00000010
00000100
00000001
00000100
00000001
,
000M1000
00M00100
00001000
M0000100
00000010
M0000100
0M000010
00000100
00M10000
00001000
00010000
00001000
M1000000
00010000
01000000
01000000
,
0000100M
00010000
00001000
000100M0
01000000
00010000
01000M00
00010000
M000100M
00010000
00001000
00010000
00001000
00000100
0M001000
00000100
,
00M00001
00000100
00000001
00000100
00001000
00010000
000010M0
00010000
01000M00
10000000
01000000
10000M00
00010000
10000000
0001000M
00010000
,
100000M0
01000000
10000000
01000M00
00100000
00001000
00100000
M0001000
00010000
00000010
00010000
00000010
00001000
00000001
00000100
00000100
,
M0000001
0M000010
00000001
M0000010
00000100
M0010000
00M00100
00010000
000010M0
01000000
00001000
010000M0
00010000
00100000
0000100M
00001000
,
0M010000
00000010
00010000
00000010
00000100
00000010
0M000100
00000010
00M01000
00000100
00001000
00000100
00000010
00000001
00000010
00000001
,
000M1000
0M000010
00001000
M0000010
00000100
M0000010
00M00100
00000010
0M010000
00001000
00010000
00001000
00100000
00010000
001000M0
00100000
,
00001M00
01000000
00001000
01000000
00100000
01000000
00100M00
01000000
000100M0
00100000
00010000
00100000
01000000
10000000
01000000
10000000
,
0001M000
01000M00
00010000
0100000M
00100000
0100000M
001000M0
01000000
00001M00
00010000
00001000
00010000
0000010M
00001000
00000100
00000100
,
M0010000
00001000
00010000
0M001000
00000010
00001000
00M00010
00001000
M001000M
00001000
00010000
00001000
00010000
00100000
000100M0
00100000
,
10000M00
00100000
10000000
00100000
00010000
00001000
0M010000
00001000
00M00010
00000001
00000010
00M00001
00001000
00000001
M0001000
00001000
,
0M000001
00000010
00000001
00M00010
00000100
00010000
00000100
0001000M
00001000
01000000
00001000
01000000
00010000
10000000
01000000
01000000
,
1000000M
00100M00
10000000
0010000M
01000000
0000100M
010000M0
00001000
00M10000
00000100
00010000
00M00100
00001000
00000010
M0010000
00010000
,
00002000
00000000
00000000
02000000
00003000
00000000
00000000
00000000
00000000
00000000
00000000
00000000
00000000
00000000
03100000
00000000
,
00100000
00000000
20000000
00002000
00000000
30000000
00003000
00000000
00001000
00000000
00020000
00000001
00000000
00030001
00001000
00000010
,
00020000
00000000
00000000
00000200
00030000
00000000
00000000
00000000
00000000
00000000
00000000
00000000
00000000
00000000
00000310
00000000
,
00000001
00000000
00000000
00000002
00000000
00000000
00000000
00000000
00001003
00000010
00010000
00001000
01000000
00020000
00000000
00000000
,
M003000M
00000000
00000000
00000000
;

//---------------dance-single - Spork!----------------
#NOTES:
     dance-single:
     :
     Easy:
     3:
     0.221,0.275,0.118,0.338,0.000,129.000,14.000,40.000,0.000,0.000,0.000,0.221,0.275,0.118,0.338,0.000,129.000,14.000,40.000,0.000,0.000,0.000:
0000
0000
0000
0000
,
0000
0000
0000
0000
,
0000
0000
0000
0000
,
0000
0000
0000
0000
,
0010
0020
0030
1001
,
1000
0100
0010
0001
,
0100
0200
0300
1001
,
0001
0010
0001
0001
,
1000
0000
1000
0010
,
0100
0000
0010
0000
,
0100
0000
0100
0001
,
0010
0000
0100
0000
,
0010
0000
0010
0001
,
1000
0000
1000
0001
,
0200
0000
0310
0000
,
0020
0000
0130
0000
,
0001
0000
0001
0010
,
0100
0000
0010
0000
,
0100
0000
0100
1000
,
0010
0000
0100
0000
,
0010
0000
0010
1000
,
0001
0000
0001
1000
,
0200
0000
0310
0000
,
0020
0000
0130
1000
,
1001
0010
0002
0003
,
1001
0010
2000
3000
,
0110
1000
0200
0300
,
0110
0001
0200
0300
,
0020
0000
0000
0000
,
0030
0000
0000
0000
,
1000
0200
2300
3020
,
0230
0000
0302
0000
,
0023
0032
0023
0230
,
2300
3000
1001
0100
,
0020
1000
2030
0001
,
3002
0010
0023
0100
,
0230
0300
0110
0000
,
0100
0000
1001
0000
,
0010
0200
0301
0010
,
0200
1300
0020
1030
,
0002
0013
0200
1300
,
2000
3000
1001
0010
,
2000
0010
3200
0010
,
0320
0100
0032
1000
,
1003
0000
1001
0000
,
0010
0000
0110
0000
,
0100
0200
0300
0000
,
1000
0000
0001
0000
,
0100
0200
0300
0000
,
0010
0000
0110
2002
,
3003
0000
0000
0000
;

//---------------dance-single - Spork!----------------
#NOTES:
     dance-single:
     :
     Medium:
     5:
     0.285,0.317,0.135,0.288,0.025,186.000,16.000,34.000,0.000,0.000,0.000,0.285,0.317,0.135,0.288,0.025,186.000,16.000,34.000,0.000,0.000,0.000:
0000
0000
0000
0000
,
0000
0000
0000
0000
,
0000
0000
0000
0000
,
0000
0000
0000
0000
,
0010
1000
0100
1001
,
0200
0310
0020
0130
,
0100
0001
0010
1001
,
0020
0000
0130
0000
0100
1000
0001
0000
,
0001
0000
0010
0000
0001
0100
0001
0000
,
0010
0100
1000
0110
,
1000
0000
0010
0000
1000
0100
1000
0000
,
0010
0100
0010
1001
,
0010
0000
0001
0000
0100
0010
0100
0000
,
0010
0000
1000
0000
0100
0010
0100
0000
,
0000
1000
2000
0000
3010
0000
0010
1000
,
0000
0001
0002
0000
0103
0000
0100
0001
,
0010
0000
0001
0000
0100
0001
0100
0000
,
0001
0010
0100
1001
,
0010
0000
1000
0000
0100
1000
0100
0000
,
1000
0001
1000
0110
,
1000
0000
0001
0000
0100
0001
0010
0000
,
0001
0000
1000
0000
0010
1000
0100
0000
,
0000
1000
2000
0000
3100
0000
0100
1000
,
0000
0001
0002
0000
0013
0000
1001
0000
,
0100
0000
0000
0000
0001
0000
0000
0000
0010
0000
0000
0010
0000
0000
0000
0000
,
0100
0000
0000
0000
1000
0000
0000
0000
0010
0000
0000
0010
0000
0000
0000
0000
,
0010
0000
1000
0000
0001
0000
0000
0000
0100
0000
0000
0100
0000
0000
0000
0000
,
0100
0000
0001
0000
1000
0000
0000
0000
0100
0000
0000
0100
0000
0000
0000
0000
,
0020
0000
0000
0000
,
0030
0000
0000
0000
,
0002
0000
0000
0010
0023
0000
0000
0000
,
0130
0000
0010
0000
1100
0000
0000
1000
,
2000
0000
0000
0010
3020
0000
0000
0000
,
0130
0010
0101
0010
,
1000
0000
0100
0000
1200
0000
0000
0010
,
0310
0000
0001
0000
0201
0000
0000
0302
,
0000
2003
0000
3000
0110
0000
0000
0000
,
0010
1000
0001
0001
,
1000
0000
0200
0000
1000
0000
0300
0010
,
0020
0000
0000
0031
0002
0000
0000
1003
,
2000
0000
0000
3001
0002
0000
0203
0000
,
0320
0000
0030
0000
1001
0000
0010
1000
,
0200
0000
0310
0001
0200
0000
0310
1000
,
0002
0000
0013
0001
2000
0000
3001
0000
,
0100
0000
0110
0000
,
0010
1000
0001
0010
,
0001
0000
0000
0002
0000
0000
0000
0000
0000
0000
0000
0000
0000
0000
1003
0000
,
2000
0000
0010
3000
0002
0000
0100
0003
,
1000
0000
0000
2000
0000
0000
0000
0000
0000
0000
0000
0000
0000
0000
3001
0000
,
0002
0013
0110
2002
,
3003
0000
0000
0000
;

//---------------dance-single - Spork!----------------
#NOTES:
     dance-single:
     :
     Hard:
     8:
     0.421,0.400,0.220,0.550,0.245,257.000,26.000,65.000,0.000,0.000,0.000,0.421,0.400,0.220,0.550,0.245,257.000,26.000,65.000,0.000,0.000,0.000: // measure 0
0000
0000
0000
0000
,  // measure 1
0000
0000
0000
0000
,  // measure 2
0000
0000
0000
0000
,  // measure 3
0000
0000
0000
0000
,  // measure 4
0010
0000
0000
0000
1001
0000
0000
0000
0010
0000
0000
1000
0000
0000
0100
0000
,  // measure 5
0010
0000
0010
0001
0000
0000
0100
0000
0010
0000
0010
1000
0000
0000
0001
0000
,  // measure 6
0010
0000
0000
0000
1001
0000
0000
0000
0010
0000
0000
0001
0000
0000
0100
0000
,  // measure 7
0010
0000
0000
0000
0110
0000
0000
0000
0100
0001
1000
0001
0010
0100
0000
0000
,  // measure 8
2000
0000
0000
3000
0200
0000
0000
0300
0002
0000
0000
0103
2000
0000
0000
3000
,  // measure 9
0020
0000
0000
0030
2000
0000
0000
3000
0100
0000
0000
0100
0000
0000
0000
0000
,  // measure 10
2000
0000
0000
3000
0020
0000
0000
0030
0002
0000
0000
0013
2000
0000
0000
3000
,  // measure 11
0002
0000
0000
0003
0020
0000
0000
0030
0100
0000
0000
0100
0000
0000
0000
0000
,  // measure 12
2000
0000
0000
3000
0002
0000
0000
0003
0200
0000
0000
0300
1010
0000
0000
0000
,  // measure 13
2000
0000
0000
3000
0002
0000
0000
0003
0020
0000
0000
0130
0000
0000
1000
0000
,  // measure 14
0002
0000
1000
0000
1000
0000
0000
0000
0010
0000
0000
0010
0003
0000
0001
0000
,  // measure 15
2000
0000
0001
0000
0001
0000
0000
0000
0010
0000
0000
0010
3000
0000
1000
0000
,  // measure 16
0002
0000
0000
0003
0200
0000
0000
0300
2000
0000
0000
3100
0002
0000
0000
0003
,  // measure 17
0020
0000
0000
0030
0002
0000
0000
0003
0100
0000
0000
0100
0000
0000
0001
0000
,  // measure 18
0002
0000
0000
0003
0020
0000
0000
0030
2000
0000
0000
3010
0002
0000
0000
0003
,  // measure 19
2000
0000
0000
3000
0020
0000
0000
0030
0100
0000
0000
0100
0000
0000
0001
0000
,  // measure 20
0002
0000
0000
0003
2000
0000
0000
3000
0200
0000
0000
0310
0000
0000
0001
0000
,  // measure 21
0002
0000
0000
0003
2000
0000
0000
3000
0020
0000
0000
0130
0000
0000
0001
0000
,  // measure 22
2000
0000
0001
0000
0001
0000
0000
0000
0100
0000
0000
0100
3000
0000
1000
0000
,  // measure 23
0002
1000
1000
0000
0013
0000
0110
0000
,  // measure 24
0010
0000
0001
0000
1000
0000
0010
0000
0100
0000
0100
0010
0000
0000
0100
0000
,  // measure 25
0010
0000
1000
0000
0001
0000
0010
0000
0100
0000
0100
0010
0000
0000
0100
0000
,  // measure 26
1000
0000
0010
0000
0001
0000
0010
0000
1000
0000
1000
0001
0000
0000
0100
0000
,  // measure 27
0001
0000
0010
0000
1000
0000
0010
0000
0001
0000
0001
1000
0000
0000
0000
0000
,  // measure 28
2002
0000
0000
0000
,  // measure 29
0000
0000
0000
3003
,  // measure 30
0002
0000
0000
0003
0010
0000
0001
0000
0201
0000
0000
0300
0010
0000
0000
0000
,  // measure 31
1000
0100
0000
0010
0000
0010
0001
0000
1002
0000
0000
0003
0100
0000
0001
0000
,  // measure 32
2000
0000
0000
3000
0010
0000
1000
0000
1200
0000
0000
0300
0010
0000
0000
0000
,  // measure 33
0001
0100
0001
0100
0000
0100
0010
0000
1020
0000
0000
0030
1000
0000
0000
0000
,  // measure 34
0002
0000
0000
2003
0000
0000
3010
0000
0210
0000
0000
0300
0010
0000
1000
0000
,  // measure 35
0100
0000
0000
0000
0010
0000
0001
0000
0101
0000
0000
1001
0000
0000
2000
0000
,  // measure 36
0000
3000
0002
0000
0000
0003
0000
0000
0110
0000
0000
0000
0000
0000
0000
0000
,  // measure 37
1000
0010
0000
0100
0000
0100
0001
0000
1001
0000
0000
0011
0000
0000
0001
0000
,  // measure 38
2000
0000
0000
3000
0100
0000
1000
0000
0102
0000
0000
0003
0010
0000
0000
0000
,  // measure 39
0001
0010
0000
0100
0000
0100
1000
0000
2001
0000
0000
3000
0100
0000
1000
0000
,  // measure 40
0002
0000
0000
0003
0010
0000
0001
0000
2010
0000
0000
3000
0100
0000
0000
0000
,  // measure 41
1000
0010
1000
0010
0000
0010
0100
0000
0201
0000
0000
0300
0001
0000
0000
0000
,  // measure 42
2000
0000
0000
3002
0000
0000
0013
0000
0210
0000
0000
0300
0010
0000
0001
0000
,  // measure 43
0100
0000
0000
0000
0010
0000
1000
0000
1100
0000
0000
1001
0000
0000
1000
0000
,  // measure 44
0001
1000
1001
0100
,  // measure 45
1000
0100
0000
0010
0000
0010
0000
0000
0110
0000
0000
1001
0000
0000
0010
0000
,  // measure 46
0001
0000
0000
0002
0000
0000
0000
0000
0000
0000
0000
0000
0003
0000
0100
0000
,  // measure 47
0010
0000
0010
1000
0000
0000
0000
0000
0100
0000
0100
1000
0000
1000
0001
0000
,  // measure 48
1000
0000
0000
2000
0000
0000
0000
0000
0000
0000
0000
0000
3000
0000
0100
0000
,  // measure 49
0010
0000
0000
0020
0000
0000
0000
0000
0130
1000
0001
1000
0010
0100
0000
0000
;
