#VERSION:0.81;
#TITLE:[Qualifier Doubles] - Tumble;
#SUBTITLE:;
#ARTIST:Rameses B;
#TITLETRANSLIT:;
#SUBTITLETRANSLIT:;
#ARTISTTRANSLIT:;
#GENRE:;
#ORIGIN:;
#CREDIT:;
#BANNER:;
#BACKGROUND:;
#JACKET:;
#CDIMAGE:;
#DISCIMAGE:;
#LYRICSPATH:;
#CDTITLE:;
#MUSIC:[Qualifier Doubles] - Tumble.mp3;
#OFFSET:0.000;
#SAMPLESTART:17.800;
#SAMPLELENGTH:12.000;
#SELECTABLE:YES;
#BPMS:0.000=87.500,
4.000=175.000,
112.000=87.500,
128.000=175.000,
152.000=87.500,
155.000=175.000;
#STOPS:;
#DELAYS:;
#WARPS:;
#TIMESIGNATURES:0.000=4=4;
#TICKCOUNTS:0.000=4;
#COMBOS:0.000=1;
#SPEEDS:0.000=1.000=0.000=0;
#SCROLLS:0.000=1.000;
#FAKES:;
#LABELS:0.000=Song Start;
#BGCHANGES:;
#KEYSOUNDS:;
#ATTACKS:
;

//---------------dance-double - ----------------
#NOTEDATA:;
#CHARTNAME:;
#STEPSTYPE:dance-double;
#DESCRIPTION:;
#CHARTSTYLE:;
#DIFFICULTY:Easy;
#METER:4;
#RADARVALUES:0.287,0.464,0.062,0.260,0.000,162.000,6.000,25.000,0.000,0.000,2.000,0.000,0.000,0.287,0.464,0.062,0.260,0.000,162.000,6.000,25.000,0.000,0.000,2.000,0.000,0.000;
#CREDIT:;
#OFFSET:0.000;
#BPMS:0.000=87.500
,4.000=175.000
,112.000=87.500
,128.000=175.000
,152.000=87.500
,155.000=175.000
;
#STOPS:;
#DELAYS:;
#WARPS:;
#TIMESIGNATURES:0.000=4=4
;
#TICKCOUNTS:0.000=4
;
#COMBOS:0.000=1
;
#SPEEDS:0.000=1.000=0.000=0
;
#SCROLLS:0.000=1.000
;
#FAKES:;
#LABELS:0.000=Song Start
;
#NOTES:
00000000
00000000
00000000
00000000
,
00010000
00000000
00010000
00000000
,
00001000
00000000
00001000
00000000
,
01000000
00000000
01000000
00000000
,
00001000
00000000
00001000
00000000
,
00100000
00000000
00100000
00000000
,
00000100
00000000
00000100
00000000
,
00001000
00000000
00001000
00000000
,
00000010
00000000
00000010
00000000
,
00000100
00000000
00000000
00000100
00000000
00000000
00000100
00000000
,
00000001
00000000
00000000
00000001
00000000
00000000
00000001
00000000
,
00002000
00000002
00000000
00003003
,
00000001
00000000
00000001
00000000
,
00001000
00000000
00001000
00000000
,
00000100
00000000
00000100
00000000
,
00010000
00000000
00010000
00000000
,
00001000
00000000
00001000
00000000
,
01000000
00000000
01000000
00000000
,
00100000
00000000
00100000
00000000
,
20000000
00000000
00000000
00000000
,
30000000
01000000
01000000
00000000
,
00100000
00000000
00000000
00100000
00000000
00000000
00100000
00000000
,
00000000
00001000
00001000
00000000
,
00010000
00000000
00000000
00010000
00000000
00000000
00010000
00000000
,
00000000
00000010
00000010
00000000
,
00000100
00000000
00000000
00000100
00000000
00000000
00000100
00000000
,
00000000
00000001
00000001
00000000
,
00001000
00000000
00000000
00000100
00000000
00000000
00010000
00000000
,
00001000
00010000
00001000
00100000
,
00001000
00010000
00000100
00001000
,
00000010
00000100
00000010
00001000
,
00000100
00100000
00010000
00100000
,
02000000
00000000
00000000
00000000
,
23000000
00000000
00000000
00000000
,
32000000
00000000
00000000
00000000
,
03200000
00000000
00000000
00000000
,
00304000
00000000
00000000
00000000
,
00043000
00000000
00000000
00000000
,
00031000
00000000
00000000
00010000
00000000
00000000
00001000
00000000
00000000
00010000
00000000
00000000
00022000
00000000
00000000
00000000
00033000
00000000
00001000
00000000
00000000
00010000
00000000
00000000
,
00001000
00100000
00100000
00010000
,
00010000
02000000
00000000
00000000
,
00000000
03010000
00010000
00100000
,
00100000
00002000
00000000
00000000
,
00000000
00013000
00010000
00000010
,
00000010
00000200
00000000
00000000
,
00000000
00000301
00000001
00001000
,
00001000
00000200
00000000
00000000
,
00000000
00010300
00010000
00001000
,
00001000
00200000
00000000
02300000
,
00000000
13000000
10000000
00010000
,
00010000
02000000
00000000
03002000
,
00000000
00013000
00010000
00000100
,
00000100
00002000
00000000
00003020
,
00000000
00000130
00000100
00000010
,
00000010
00020000
00000000
00032000
,
00000000
00103000
00001000
00100000
,
00001000
10000000
00001000
10000000
,
00001000
10000000
01000000
10000000
,
01000000
00100000
01000000
00100000
,
01000000
00100000
00001000
00100000
,
00001000
00010000
00001000
00010000
,
00001000
00000000
00011000
00000000
00000000
00010010
00000000
00000000
,
00000110
00000202
00000000
00000303
,
00000000
00022000
00000000
00033000
;

//---------------dance-double - ----------------
#NOTEDATA:;
#CHARTNAME:;
#STEPSTYPE:dance-double;
#DESCRIPTION:;
#CHARTSTYLE:;
#DIFFICULTY:Medium;
#METER:7;
#RADARVALUES:0.392,0.398,0.291,0.239,0.000,213.000,28.000,23.000,0.000,2.000,0.000,0.000,0.000,0.392,0.398,0.291,0.239,0.000,213.000,28.000,23.000,0.000,2.000,0.000,0.000,0.000;
#CREDIT:;
#OFFSET:0.000;
#BPMS:0.000=87.500
,4.000=175.000
,112.000=87.500
,128.000=175.000
,152.000=87.500
,155.000=175.000
;
#STOPS:;
#DELAYS:;
#WARPS:;
#TIMESIGNATURES:0.000=4=4
;
#TICKCOUNTS:0.000=4
;
#COMBOS:0.000=1
;
#SPEEDS:0.000=1.000=0.000=0
;
#SCROLLS:0.000=1.000
;
#FAKES:;
#LABELS:0.000=Song Start
;
#NOTES:
00000000
00000000
00000000
00000000
,
00000000
00001000
00000000
00001000
00000000
00010000
00000000
00010000
,
00000000
00000000
00000000
00000000
,
00000000
00000010
00000000
00000010
00000000
00000100
00000000
00000100
,
00000000
00000000
00000000
00000000
,
00000000
00000001
00000000
00000001
00000000
00001000
00000000
00001000
,
00000000
00000000
00000000
00000000
,
00000000
00000100
00000000
00000100
00000000
00100000
00000000
00100000
,
00000000
00000000
00000000
00000000
,
01000000
10000000
00000000
10000000
01000000
00000000
01000000
00100000
,
00020000
00000000
00000000
01000000
00000000
00000000
00100000
00000000
,
00230000
00002000
00303000
00011000
,
00001000
00010000
00000000
00010000
00000000
00000010
00000000
00000010
,
00000000
00000100
00000000
00000100
,
00000001
00001000
00000000
00001000
00000000
00000100
00000000
00000100
,
00000000
00010000
00000000
00010000
,
00001000
01000000
00000000
01000000
00000000
00100000
00000000
00100000
,
00000000
10000000
00000000
10000000
,
00010000
00100000
00000000
00100000
00000000
00001000
00000000
00001000
,
00000000
00010000
00000000
00010000
,
00000010
00000110
00000110
00000000
,
00000020
00000000
00000000
00020030
00000000
00000000
00032000
00000000
,
00000000
01003000
01010000
00000000
,
00020000
00000000
00000000
20030000
00000000
00000000
32000000
00000000
,
00000000
03100000
00101000
00000000
,
00002000
00000000
00000000
00023000
00000000
00000000
00030200
00000000
,
00000000
00000310
00000011
00000000
,
00000002
00000000
00000000
00020003
00000000
00000000
00032000
00000000
,
01003000
01100000
00100000
10100000
,
10000000
11000000
01000000
01100000
,
00100000
00101000
00001000
00011000
,
00010000
00010100
00000100
00000110
,
00000020
00000001
00000001
00000031
,
00002000
00000100
00000100
00003100
,
00020000
00001000
00001000
00031000
,
20000000
01000000
01000000
31000000
,
20000000
00000000
00000000
00000000
,
02000000
00000000
00000000
00000000
,
00010000
00000000
00000000
00000000
33000000
00000000
10000000
01000000
,
00100000
00001000
00010000
00001000
00000000
00010000
00000000
00000010
,
00000000
00000100
00000000
00000000
00000110
00000000
00000000
00000000
,
00010010
00000000
00010000
00001000
00000000
10000000
00000000
00010000
,
00000000
00100000
00000000
00000000
00101000
00000000
00000000
00000000
,
00010100
00000000
00000100
00010000
00000000
00000001
00000000
00000100
,
00000000
00000010
00000000
00000000
00001010
00000000
00000000
00000000
,
00011000
00000000
00001000
00100000
00000000
01000000
00000000
00100000
,
00000000
00001000
00100000
00000010
00010000
00001000
01000000
00000100
,
00010000
00001000
00000000
00010000
00000000
00000010
00000000
00001000
,
00000000
00000001
00000000
00000000
00010001
00000000
00000000
00000000
,
01000100
00000000
00000000
00000100
00000000
00010000
00000000
00001000
,
00000000
01000000
00000000
00000000
01001000
00000000
00000000
00000000
,
00010010
00000000
00000000
00000010
00000000
00001000
00000000
00000100
,
00000000
00100000
00000000
00000000
00101000
00000000
00000000
00000000
,
11000000
00000000
00000000
00100000
00000000
00001000
00000000
00010000
,
00000000
00000100
00000000
00000000
00000011
00000000
00000000
00000000
,
00001100
00000000
00000100
00010000
00000100
00010000
00010000
00001000
,
00100000
00010000
10000000
00010000
,
10000000
00100000
01000000
00001000
,
00010000
00000100
00001000
00000010
,
00001000
00000100
00000100
00001000
00000100
00000010
00000010
00000001
,
00001000
00000100
00010000
00001000
,
00100000
00000000
01000000
10000000
00000000
10000000
00010000
00000000
,
00010000
02000000
00002000
00000000
00000000
00000000
00000000
00000000
,
00000000
00010000
00000000
03003000
;

//---------------dance-double - ----------------
#NOTEDATA:;
#CHARTNAME:;
#STEPSTYPE:dance-double;
#DESCRIPTION:;
#CHARTSTYLE:;
#DIFFICULTY:Hard;
#METER:9;
#RADARVALUES:0.739,0.795,0.551,0.728,0.249,375.000,53.000,70.000,4.000,1.000,4.000,0.000,0.000,0.739,0.795,0.551,0.728,0.249,375.000,53.000,70.000,4.000,1.000,4.000,0.000,0.000;
#CREDIT:;
#OFFSET:0.000;
#BPMS:0.000=87.500
,4.000=175.000
,112.000=87.500
,128.000=175.000
,152.000=87.500
,155.000=175.000
;
#STOPS:;
#DELAYS:;
#WARPS:;
#TIMESIGNATURES:0.000=4=4
;
#TICKCOUNTS:0.000=4
;
#COMBOS:0.000=1
;
#SPEEDS:0.000=1.000=0.000=0
;
#SCROLLS:0.000=1.000
;
#FAKES:;
#LABELS:0.000=Song Start
;
#NOTES:
00000000
00000000
00000000
00000000
,
00000000
00000000
00001000
01000000
00000000
00000000
01000000
00100000
00000000
00000000
00100000
10000000
00000000
00000000
10000000
02000000
,
00000000
00000000
03000000
00000000
,
00000000
00000000
01000000
00100000
00000000
00000000
00100000
00001000
00000000
00000000
00001000
00010000
00000000
00000000
00010000
00000020
,
00000000
00000000
00000030
00000000
,
00000000
00000000
00000010
00000100
00000000
00000000
00000100
00000001
00000000
00000000
00000001
00001000
00000000
00000000
00001000
00000200
,
00000000
00000000
00000300
00000000
,
00000000
00000000
00000100
00010000
00000000
00000000
00010000
00001000
00000000
00000000
00001000
10000000
00000000
00000000
10000000
02000000
,
00000000
00000000
03000000
00000000
,
20000000
01000000
31000000
20000000
01000000
31000000
11000000
00000000
,
00400000
00040000
00000000
00000000
00000000
00000000
00000000
00000000
00000000
00000000
00000000
00000000
00000000
00000000
00000000
00000000
,
M033000M
M000000M
00000000
00011000
,
00010000
00001000
00011000
00000000
00001000
00100000
00110000
00000000
,
00010000
10000000
10100000
00000000
10000000
00010000
01010000
00000000
,
00010000
01000000
01001000
00000000
01000000
00000100
00010100
00000000
,
00000100
00010000
00010001
00000000
00010000
00000001
00000101
00000000
,
00000001
00001000
00001010
00000000
00001000
00000100
00010100
00000000
,
00001000
00100000
00110000
00000000
00010000
10000000
10100000
00000000
,
10000000
00010000
01010000
00000000
00010000
01000000
01001000
00000000
,
01000000
00000100
00010100
00000000
00010100
00001000
00011000
00000000
,
00011000
00000000
00110000
00000000
02200000
00000000
00000000
03300000
,
20020000
00000000
30030000
02002000
00000000
03003000
00020002
00000000
,
00000000
00030003
00001001
00000000
00000022
00000000
00000000
00000033
,
00000220
00000000
00000330
00020200
00000000
00030300
02000200
00000000
,
03000300
00000000
01001000
00000000
02020000
00000000
00000000
03030000
,
20020000
00000000
30030000
20002000
00000000
30003000
00200020
00000000
,
00300030
00000000
00001010
00000000
00000220
00000000
00000000
00000330
,
00002001
00000000
00000000
00003200
00000000
00000000
02000300
00000000
,
03010000
00000000
00010000
01000000
00000000
01000000
00100000
00000000
00100000
10000000
00000000
10000000
00010000
00000000
00010000
01000000
,
00001000
00000000
00001000
00010000
00000000
00010000
00000100
00000000
00000100
00000010
00000000
00000010
00000001
00000000
00000001
00001000
,
00000010
00000000
00000010
00010000
00000000
00010000
00001000
00000000
00001000
01000000
00000000
01000000
00100000
00000000
00100000
01000000
,
00001000
00000000
00001000
00010000
00000000
00010000
00100000
00000000
00100000
01000000
00000000
01000000
00001000
00000000
00001000
00010000
,
00000100
00010000
00000100
00001000
00000100
00010000
00000100
00100000
,
00000100
00001000
00000100
00010000
00000100
01000000
00000100
00010000
,
00000010
00000100
00000010
00010000
00001000
00100000
01000000
10000000
,
00001000
00100000
00000010
00001000
00000001
00010000
00001000
01000000
,
00040000
00000000
00000000
00000000
,
40000000
00000000
00000000
30030000
,
10000000
01000000
00100000
00001000
00010000
00000100
00000010
00000001
00002000
00000000
00000000
00000000
00003001
00000000
00001000
00000010
,
00010000
00001000
01000000
00200000
01300000
00020000
01030000
00200000
,
01300000
00200000
10300000
00000000
01010000
00000000
00001000
00000000
,
00010010
00000000
00000010
00000200
00000301
00000200
00000310
00002000
,
00003100
00020000
00031000
00000000
11000000
00000000
00100000
00000000
,
01001000
00000000
01000000
00002000
00013000
00000200
00001300
00000020
,
00000130
00000002
00010003
00000000
00010100
00000000
00000010
00000000
,
00101000
00000000
00001000
20000000
30010000
02000000
03100000
20000000
,
31000000
00000000
00200000
00000000
00310000
00000000
00010000
00000000
00100000
00000000
00100000
00000000
00001000
00000000
00100000
00001000
,
00010000
00000100
00010000
00002000
00013000
00200000
00310000
00002000
,
00013000
00000200
00000310
00000001
00000101
00000000
00000100
00000010
,
00001010
00000000
00000001
00002000
00003010
00020000
00031000
00020000
,
01030000
00200000
01300000
00100000
00110000
00000000
00100000
00001000
,
01001000
00000000
01000000
00002000
00013000
00002000
00003010
00002000
,
00013000
00000020
00001030
00000100
00010100
00000000
00001000
00100000
,
00110000
00000000
00010000
02000000
03010000
00200000
00301000
00000200
,
00001300
00020000
00030010
00000100
00000110
00000000
00000010
00000010
,
00001010
00000000
00000000
00000000
00001000
00000000
00000100
00000000
00000100
00000000
00010000
00001000
00010000
00000000
00001000
00000000
,
10000000
00010000
01000000
00010000
10000000
00001000
00010000
00001000
,
00010000
00000010
00000100
00000010
00001000
00000100
00010000
00001000
,
10000000
00010000
00100000
00000010
00000100
00000001
00001000
00000100
,
00001000
00000000
00000100
00000000
00000100
00000000
00001000
00000000
00001000
00000000
00000010
00000100
00000010
00000000
00001000
00000000
,
00000100
00010000
00001000
01000000
00001000
00010000
00000100
00000010
,
00000100
00000000
00010000
00000000
00001000
00000000
00100000
00010000
00100000
00000000
01000000
00000000
10000000
01000000
10000000
00000000
,
00010000
00000000
01000000
00002000
02000000
00000000
00000000
00000000
00000000
00000000
00000000
00000000
00000000
00000000
00000000
00000000
,
00000000
00110000
00000000
03003000
;

//---------------dance-double - ----------------
#NOTEDATA:;
#CHARTNAME:;
#STEPSTYPE:dance-double;
#DESCRIPTION:;
#CHARTSTYLE:;
#DIFFICULTY:Challenge;
#METER:11;
#RADARVALUES:1.000,1.000,0.540,0.821,0.598,547.000,52.000,79.000,0.000,1.000,0.000,0.000,0.000,1.000,1.000,0.540,0.821,0.598,547.000,52.000,79.000,0.000,1.000,0.000,0.000,0.000;
#CREDIT:;
#OFFSET:0.000;
#BPMS:0.000=87.500
,4.000=175.000
,112.000=87.500
,128.000=175.000
,152.000=87.500
,155.000=175.000
;
#STOPS:;
#DELAYS:;
#WARPS:;
#TIMESIGNATURES:0.000=4=4
;
#TICKCOUNTS:0.000=4
;
#COMBOS:0.000=1
;
#SPEEDS:0.000=1.000=0.000=0
;
#SCROLLS:0.000=1.000
;
#FAKES:;
#LABELS:0.000=Song Start
;
#NOTES:
// measure 0
00000000
00000000
00000000
00000000
,  // measure 1
00001000
00000000
00010000
00001000
00010000
00000000
00001000
01000000
00001000
00000000
01000000
00100000
01000000
00000000
00100000
10000000
,  // measure 2
00100000
10000000
01000000
00000000
01000000
00001000
00010000
00000000
,  // measure 3
00001000
00000000
00010000
00000100
00010000
00000000
00000100
00000010
00000100
00000000
00000010
00000001
00000010
00000000
00000001
00001000
,  // measure 4
00000001
00001000
00000100
00000000
00000100
00000010
00010000
00000000
,  // measure 5
00001000
00000000
01000000
00001000
01000000
00000000
00010000
00100000
00010000
00000000
00100000
00001000
00100000
00000000
00001000
00010000
,  // measure 6
00001000
00010000
00000010
00000000
00000010
00000001
00001000
00000000
,  // measure 7
00000100
00000000
00010000
00000100
00010000
00000000
00001000
00100000
00001000
00000000
00010000
00000010
00010000
00000000
00000100
00000010
,  // measure 8
00000100
00010000
00001000
00000000
00001000
00000010
00010000
00000000
,  // measure 9
00011000
00100000
00000010
00011000
00100000
00000010
00011000
00000000
,  // measure 10
00001000
00010000
00001000
00010000
00001000
00010000
00001000
00100000
00001000
00100000
00001000
00100000
00010000
10000000
01000000
00100000
,  // measure 11
00020000
00000000
00000000
00000000
02000000
00000000
00000000
00000000
00000000
00000000
03030000
00000000
02002000
00000000
00000000
03003000
,  // measure 12
01000000
00002000
00003010
00002000
00013000
00000020
00000130
00000020
,  // measure 13
00100030
00001000
10010000
00000000
00001000
01000000
10100000
00000000
,  // measure 14
10000000
00002000
01003000
00002000
00003100
00002000
00103000
02000000
,  // measure 15
13000000
00001000
00010100
00000000
00000100
00010000
00000011
00000000
,  // measure 16
00000001
00020000
00031000
00020000
01030000
00020000
00031000
00200000
,  // measure 17
01300000
00100000
00101000
00000000
00100000
00000010
00010010
00000000
,  // measure 18
00000010
00002000
00103000
00020000
00031000
02000000
03100000
20000000
,  // measure 19
31000000
10000000
10010000
00000000
10010000
10001000
01001000
00000000
,  // measure 20
01000000
00000000
00100000
10000000
00100000
00000000
10000000
00010000
10000000
00000000
00001000
00010000
00001000
00000000
00010000
00000020
,  // measure 21
00020000
00000000
00030030
00020002
00000000
00030003
00200020
00000000
,  // measure 22
00300030
00000000
00001000
00100000
00001000
00000000
00100000
01000000
00100000
00000000
01000000
10000000
01000000
00000000
10000000
00020000
,  // measure 23
20000000
00000000
30030000
20002000
00000000
30003000
00202000
00000000
,  // measure 24
00303000
00000000
00100000
00000100
00100000
00000000
00000100
00010000
00000100
00000000
00000010
00000001
00000010
00000000
00000001
00020000
,  // measure 25
00000002
00000000
00030003
00020020
00000000
00030030
00202000
00000000
,  // measure 26
00303000
00000000
01000000
00100000
01000000
00000000
00100000
00001000
00100000
00000000
00001000
01000000
00001000
00000000
01000000
00200000
,  // measure 27
02000000
00000000
00000000
00000000
03300000
00000000
00022000
00000000
00000000
00000000
00033000
00000000
00000202
00000000
00000000
00000300
,  // measure 28
00000103
00000000
00000001
00000000
00001000
00000000
00000100
00000000
00001100
00000000
00001000
00000000
00000100
00000000
00010000
00000000
00001000
00000000
10000000
00000000
00010000
00000000
01000000
00010000
01000000
00000000
00001000
00000000
00010000
00000000
00000010
00000000
,  // measure 29
00000100
00000000
00000010
00000000
00010000
00000000
00001000
00000000
00101000
00000000
00100000
00000000
00010000
00000000
10000000
00000000
01000000
00000000
00100000
00000000
00010000
00000000
00100000
00010000
10000000
00000000
01000000
00000000
00100000
00000000
00001000
00000000
,  // measure 30
00010000
00000000
00001000
00000000
00010000
00000000
00000100
00000000
00001100
00000000
00001000
00000000
00000001
00000000
00000010
00000000
00000100
00000000
00010000
00000000
00000100
00000000
00001000
00000010
00001000
00000000
00000010
00000000
00000100
00000000
00000001
00000000
,  // measure 31
00010000
00000000
00000100
00000000
00010000
00000000
00001000
00000000
00011000
00000000
00010000
00000000
00001000
00000000
01000000
00000000
00100000
00000000
10000000
00000000
00010000
00000000
01000000
00100000
01000000
00000000
00001000
00000000
10000000
00000000
00010000
00000000
,  // measure 32
10000000
01000000
00100000
00010000
10000000
01000000
00100000
00001000
,  // measure 33
00010000
00000100
00000010
00000001
00001000
00000100
00000010
00000001
,  // measure 34
00000010
00000001
00000010
00000001
00001000
00000001
00001000
00000001
00001000
00000100
00001000
00000100
00010000
00000100
00010000
00000100
,  // measure 35
00010000
00001000
00100000
00001000
10000000
00010000
10000000
00100000
10000000
00100000
01000000
00010000
01000000
00001000
00010000
00000010
,  // measure 36
00001000
00000100
00001000
00000100
00001000
00000100
00001000
00000100
,  // measure 37
00010100
00010000
00001000
00011000
00010000
00001000
00101000
00100000
,  // measure 38
01000000
00000000
01000000
00000000
10000000
00000000
10000000
00000000
00010000
01000000
00010000
01000000
00001000
01000000
00001000
01000000
00020000
00000000
00000000
00000000
00000000
00000000
00000000
00000000
01030000
00000000
00000000
00000000
01000000
00000000
00100000
00000000
,  // measure 39
10000000
01000000
01100000
00200000
00300100
00000020
00000031
00020000
,  // measure 40
00031000
00200000
00310000
10000000
10001000
00000000
10000000
00001000
,  // measure 41
01001000
00000000
01000000
00002000
00013000
00000020
00000130
00000002
,  // measure 42
00010003
00002000
00103000
00010000
01001000
00000000
00100000
00000100
,  // measure 43
00010100
00000000
00000100
02000000
03010000
00200000
00301000
00000020
,  // measure 44
00000130
00200000
00310000
10000000
11000000
00000000
00100000
00000010
,  // measure 45
00001010
00000000
00001000
00000002
00000103
00002000
00013000
00200000
,  // measure 46
01300000
00000000
00002000
00000000
00013000
00000000
00010000
00000000
00010000
00000000
00010000
00000000
00001000
00000000
00001000
00100000
,  // measure 47
00010000
00100000
11000000
00020000
10030000
00002000
01003000
00000200
,  // measure 48
00010300
00000020
00010030
00000010
00000101
00000000
00000001
00100000
,  // measure 49
00010100
00000000
00000100
00020000
00030100
02000000
03000100
02000000
,  // measure 50
03010000
02000000
03000100
00010000
00010010
00000000
00010000
00001000
,  // measure 51
00101000
00000000
00100000
00000020
00100030
00002000
00103000
00000200
,  // measure 52
00010300
00000002
00000103
00000001
00010010
00000000
00001000
00100000
,  // measure 53
01001000
00000000
00001000
02000000
13000000
02000000
03001000
00000200
,  // measure 54
00000310
00020000
00031000
00100000
00110000
00000000
00101000
00100010
,  // measure 55
00001010
00000000
00000000
00000000
00000110
00000000
00000010
00000000
00000010
00000000
00000010
00001000
00000100
00000000
00010000
00000000
,  // measure 56
00100000
00010000
00000100
00000010
00000001
00010000
00001000
00100000
,  // measure 57
01000000
00010000
00000100
00000010
00000001
00001000
00000010
00000100
,  // measure 58
00010000
01000000
00100000
10000000
01000000
00001000
01000000
00100000
,  // measure 59
00001000
00000000
00010000
00000000
00001000
00000000
00001000
00000000
00001000
00000000
00001000
01000000
00100000
00000000
10000000
00000000
,  // measure 60
00001000
00000000
01000000
00000000
00001000
01000000
00001000
00010000
00000010
00000100
00000010
00000100
00000001
00001000
00000100
00010000
,  // measure 61
00001000
00100000
00010000
10000000
10010000
00000000
00010000
01000000
00001000
00000000
01001000
00000000
01000000
00001000
00010000
00000000
,  // measure 62
00010100
00000000
00010000
00000200
02000000
00000000
00000000
00000000
00000000
00000000
00000000
00000000
00000000
00000000
03000300
00000000
,  // measure 63
00000000
01011100
00000000
00000000
;
