#TITLE:純愛ホスト☆午前5時;
#SUBTITLE:;
#ARTIST:上野圭一郎とEIICHI;
#TITLETRANSLIT:JUNAI HOST GOZEN 5 JI;
#SUBTITLETRANSLIT:;
#ARTISTTRANSLIT:Keiichi Ueno & EIICHI;
#CREDIT:;
#BANNER:;
#BACKGROUND:;
#LYRICSPATH:;
#CDTITLE:;
#MUSIC:JUNAI HOST GOZEN 5 JI.mp3;
#OFFSET:-4.030;
#SAMPLESTART:88.580;
#SAMPLELENGTH:13.240;
#SELECTABLE:YES;
#BPMS:0.000=135.000,108.000=138.000,112.000=141.000,116.000=143.000,120.000=145.000;
#STOPS:;
#BGCHANGES:;

//---------------dance-double - ----------------
#NOTES:
     dance-double:
     :
     Challenge:
     9:
     0.637,0.618,0.327,0.361,0.352: // measure 1
00011000
00000000
00000000
01000000
00010000
00000000
01000000
00001000
,  // measure 2
00010000
00000200
00000000
00000010
00000000
00001000
00000000
00001300
,  // measure 3
00000100
00000000
00000010
00000001
00000100
00001010
00000000
00020200
,  // measure 4
00000000
00000000
00000000
00030300
,  // measure 5
00011000
00000000
00001000
01000000
00100000
10000000
01000000
00000000
,  // measure 6
00100000
00000000
00010000
01000000
00010000
00100000
00001000
00010000
,  // measure 7
00001000
00000000
00010000
01000000
00000000
00010000
00001000
00010000
,  // measure 8
00000100
00000000
00000010
00000001
00000100
00000010
00001000
00000100
,  // measure 9
00010100
00000000
00010000
00001000
01000000
00010000
01000000
00000000
,  // measure 10
00100000
00000000
10000000
01000000
00100000
00001000
00010000
00000100
,  // measure 11
00000010
00000000
00000001
00000100
00000001
00000000
00001000
00000010
00001000
00000000
00000100
00010000
00000100
00000000
00010000
00002000
,  // measure 12
00020000
00000000
00000000
00033000
,  // measure 13
00101000
00000000
00010000
01000000
00100000
01000000
00010000
10000000
,  // measure 14
01000000
00000000
00000000
00000000
00100000
00000000
00010000
00000000
00001000
00000000
00000000
00010000
00000100
00000000
00001000
00000000
,  // measure 15
00000010
00000000
00000001
00001000
00000100
00000010
00000100
00001000
,  // measure 16
00000010
00000000
00000000
00010000
00000000
00000000
00001000
00000000
01000000
00000000
10000000
00000000
01000000
00000000
00100000
00000000
,  // measure 17
01000000
00000000
00000000
00100000
10000000
00000000
00010000
00000000
00100000
00000000
00001000
00000000
00010000
00000000
00001000
00000000
,  // measure 18
00000020
00000000
00000031
00000100
00001000
00000100
00000010
00010000
,  // measure 19
00022000
00000000
00000000
00000000
00033000
00000000
00000000
00000000
00100000
00000000
00000000
00010000
00000000
00000000
00100000
00000000
,  // measure 20
10010000
00000000
00010000
01000000
10000000
00000000
01000000
00100000
,  // measure 21
00000000
01000000
00001000
00010000
00001000
00010000
00000100
00000010
,  // measure 22
00000002
00000000
00000103
00000010
00001000
00001001
00000000
00001100
,  // measure 23
00000000
00000000
00000100
00000000
00010000
00000000
00001000
01000000
00000000
00010000
00100000
00000000
01000000
00000000
00100000
00000000
,  // measure 24
00020000
00000000
10030000
00100000
01000000
00010000
00100000
00001000
,  // measure 25
00200000
00000000
00000000
00000000
00301000
00000000
00010000
00000000
00000100
00000000
00000000
00000010
00000000
00000000
00000001
00000000
,  // measure 26
00002001
00000000
00000000
00000100
00003200
00000000
00000000
00010000
,  // measure 27
00010300
00001000
01000000
00010000
00100000
00000000
11000000
00000000
,  // measure 28
20020000
00000000
00000000
30030000
,  // measure 29
00022000
00000000
00000000
00033000
,  // measure 30
00002002
00003003
00000220
00000330
,  // measure 31
00000011
00001001
00010100
00011000
,  // measure 32
00001000
00000000
00100000
00000000
00001000
00000000
00200000
00020000
00000000
00000000
00330000
00000000
00000000
00000000
00000000
00000000
,  // measure 33
10000000
00000000
00100000
00000000
10000000
00000000
00200000
02000000
00000000
00000000
03300000
00000000
00000000
00000000
00000000
00000000
,  // measure 34
10000000
00000000
01000000
00000000
00100000
00000000
00001000
00020000
00000000
00000000
00031000
00000000
00000010
00000000
00000001
00000000
,  // measure 35
00001001
00000000
00000000
00000110
00000000
00000000
00002002
00000000
00003003
00000000
00000000
00001000
00000100
00000000
00001000
00000000
,  // measure 36
00000100
00000000
00010000
00000000
00001000
00000000
00100000
00020000
00000000
00000000
01000000
00000000
00000000
01000000
00000000
00000000
,  // measure 37
01030000
00000000
00010000
00000000
00100000
00000000
01000000
20000000
00000000
00000000
00010000
00000000
00000000
00010000
00000000
00000000
,  // measure 38
30010000
00000000
00100000
00000000
00001000
00000000
00010000
00002000
00000000
00000000
00013000
00000000
00000100
00000000
00001000
00000000
,  // measure 39
00000010
00000000
00000000
00000010
00000100
00000000
00000001
00001000
00000001
00000000
00001000
00000000
00000100
00000000
00001000
00000000
,  // measure 40
00000100
00000000
00000000
00010000
00000000
00000000
00001000
00000000
00022000
00000000
00000000
00000000
00033000
00000000
00000000
00000000
,  // measure 41
00100000
00000000
00010000
00000000
00000000
10000000
00000000
00000000
00010000
00000000
00100000
00001000
00000000
00000000
00010000
00000000
,  // measure 42
00000010
00000000
00001000
00000000
00000000
00000001
00000000
00000000
00001000
00000000
00000100
00000010
00000000
00000000
00000100
00000000
,  // measure 43
00010000
00000000
00001000
00000000
00000000
01000000
00000000
00000000
00010000
00000000
10000000
00100000
00000000
00000000
01000000
00000000
,  // measure 44
01010000
00000000
00000000
00000000
00101000
00000000
00000000
00000000
00010100
00000000
00000000
00001100
00000000
00000000
00001001
00000000
,  // measure 45
00000001
00000000
00000100
00000000
00000010
00001000
00000000
00000010
00001000
00000000
00000100
00000000
00010000
00000000
00001000
00000000
,  // measure 46
01000000
00000000
00010000
00000000
10000000
00100000
00000000
10000000
00100000
00000000
01000000
00000000
00100000
00000000
00010000
00000000
,  // measure 47
10000000
00000000
01000000
00000000
00010000
01000000
00000000
01000000
10000000
00000000
00010000
00000000
00100000
00000000
00001000
00000000
,  // measure 48
00010000
00000000
00000010
00000000
00000100
00000000
00000001
00000000
00000010
00000001
00000010
00000001
00001000
00000100
00001000
00000100
,  // measure 49
00001000
00020200
00000000
00030300
,  // measure 50
00100000
00000000
00001000
00000000
00100000
00000000
00010000
02000000
00000000
00000000
03100000
00000000
01000000
00000000
00010000
10000000
,  // measure 51
00010000
00000000
00100000
00000000
01000000
00000000
00100000
00002000
00000000
00000000
00013000
00000000
00000100
00000000
00000010
00000000
,  // measure 52
00000001
00000100
00000001
00000000
00001000
00000000
00000100
00020000
00000000
00000000
00031000
00000000
01000000
00000000
00010000
00000000
,  // measure 53
11000000
00000000
00000000
00101000
00000000
00000000
00022000
00000000
00033000
00000000
00000000
00010000
00001000
00000000
00010000
00000000
,  // measure 54
00000100
00000000
00010000
00000000
00000100
00000000
00000010
00000001
00000000
00000010
00000001
00000000
00000100
00000000
00000010
00001000
,  // measure 55
00000100
00000000
00010000
00000000
00001000
00000000
01000000
00010000
00000000
01000000
00100000
00000000
10000000
00000000
00010000
01000000
,  // measure 56
00100000
00000000
01000000
00000000
00001000
00000000
00010000
02000000
00000000
00000000
03100000
00000000
00001000
00000000
00010000
00000000
,  // measure 57
00011000
00000000
00000000
00000000
00000000
00000000
00000100
00000020
00000200
00000000
00000000
00000000
00000330
00000000
00000000
00000000
,  // measure 58
00000010
00000000
00001000
00000000
00000010
00001000
00000000
00000001
00001000
00000000
00000000
00001100
00000000
00000000
00010100
00000000
,  // measure 59
00001000
00000000
01000000
00000000
00100000
10000000
00000000
10000000
00100000
00000000
01000000
00000000
00100000
00000000
01000000
00000000
,  // measure 60
10000000
00000000
01000000
00000000
00100000
00001000
00000000
00010000
00001000
00000000
00010000
00000010
00010000
00000000
00000100
00000000
,  // measure 61
00000010
00000000
00001000
00000000
00000001
00000100
00000000
00000010
00001000
00000000
00000000
00000100
00000000
00000000
00010000
00000000
,  // measure 62
00011000
00000000
00000000
00000000
00101000
00000000
00000000
00010000
01000000
00000000
00000000
00010000
00100000
00000000
01000000
00000000
,  // measure 63
00100000
00000000
00010000
00000000
00100000
00001000
00000000
00010000
00001000
00000000
00000000
00010000
00000000
00000000
00000100
00000000
,  // measure 64
00000010
00000000
00000001
00000000
00000100
00000010
00000000
00000001
00001000
00000000
00000010
00000100
00000010
00000000
00001000
00000000
,  // measure 65
00000100
00000000
00010000
00000000
00001000
00100000
00000000
00010000
01000000
00000000
00000000
00010000
00000000
00000000
10000000
00000000
,  // measure 66
10010000
00000000
00000000
00010000
00000000
00000000
00100000
00000000
00001000
00010000
00000000
00000000
00001000
00000000
00001000
00000000
,  // measure 67
00010000
00000100
00010000
00000100
00001000
00000000
00000001
00000010
00000001
00000000
00000000
00000000
00001000
00000000
00000001
00001000
;

//---------------dance-double - ----------------
#NOTES:
     dance-double:
     :
     Hard:
     8:
     0.531,0.534,0.344,0.336,0.189: // measure 1
00101000
00000000
00000000
00100000
00001000
00000000
00010000
00000100
,  // measure 2
00001000
00000020
00000000
00000001
00000000
00000100
00000000
00001030
,  // measure 3
00000001
00000000
00001000
00000000
00000100
00010000
00001000
00020000
,  // measure 4
00000000
00000000
00000000
00030000
,  // measure 5
00001000
00000000
00000000
00001000
01000000
00100000
10000000
00000000
,  // measure 6
00010000
00000000
00000000
01000000
00100000
00000000
00001000
00000000
,  // measure 7
00010000
00000000
00000000
00000100
00010000
00000100
00000010
00000000
,  // measure 8
00001000
00000000
00000010
00001000
00000100
00000000
00010000
00001000
,  // measure 9
00010000
00000000
00001000
01000000
00000000
00010000
10000000
01000000
,  // measure 10
00100000
00000000
00010000
00000000
10000000
01000000
00100000
00001000
,  // measure 11
00010000
00001000
00010000
00000100
00000010
00000001
00000100
00000020
,  // measure 12
00000200
00000000
00000000
00000330
,  // measure 13
00001001
00000000
00001000
00000010
00000000
00000100
00001000
00000100
,  // measure 14
00000010
00000000
00010000
00000000
00001000
00010000
00001000
01000000
,  // measure 15
00100000
00000000
01000000
00010000
00000000
01000000
00010000
00000000
,  // measure 16
00100000
00000000
00001000
00010000
00001000
00000000
00010000
00000100
,  // measure 17
00001000
00000000
00000100
00010000
00000000
00001000
00100000
00010000
,  // measure 18
10000000
00000000
00010000
00000000
01000000
00000000
00001000
00010000
,  // measure 19
00022000
00000000
00000000
00000000
00033000
00000000
00000000
00000000
00010000
00000000
00000000
00001000
00000000
00000000
00010000
00000000
,  // measure 20
00010100
00000000
00000100
00000000
00000010
00000000
00000001
00001000
,  // measure 21
00000000
00000100
00010000
00001000
00000000
00100000
00010000
01000000
,  // measure 22
00100000
00000000
10000000
00000000
00100000
01000000
00000000
10010000
,  // measure 23
00000000
01000000
00010000
00000000
00100000
00001000
00010000
00000000
,  // measure 24
00001000
00100000
00001000
00100000
00010000
00000000
00101000
00000000
,  // measure 25
00000010
00000000
00010000
00000000
00000010
00000000
00010000
00000000
00001000
00000000
00000000
00010000
00000000
00000000
00000100
00000000
,  // measure 26
00002000
00000000
00000000
00000001
00003002
00000000
00000000
00000100
,  // measure 27
00000103
00000010
00010000
00001000
00010000
00000000
00101000
00000000
,  // measure 28
02020000
00000000
00000000
03030000
,  // measure 29
20200000
00000000
00000000
30300000
,  // measure 30
00220000
00330000
02002000
03003000
,  // measure 31
00011000
00010100
00001001
00000101
,  // measure 32
00002002
00000000
00000000
00000000
00003003
00001001
00000000
00000000
,  // measure 33
00020020
00000000
00000000
00000000
00030030
00010010
00000000
00000000
,  // measure 34
00202000
00000000
00000000
00000000
00303000
00101000
00000000
00000000
,  // measure 35
01001000
00000000
00000000
01010000
00000000
00000000
20020000
00000000
30030000
00000000
00000000
01000000
10000000
00000000
00010000
00000000
,  // measure 36
00100000
00000000
00000000
00000000
01000000
00000000
00000000
00000000
00100000
00000000
00001000
00000000
00000000
00010000
00000000
00000000
,  // measure 37
00001000
00100000
00001000
00010000
00000100
00000000
00001100
00000000
,  // measure 38
00010000
00000000
00000100
00000000
00010000
00000000
00000010
00001000
00000000
00000000
00000001
00000000
00000010
00000000
00000100
00000000
,  // measure 39
00010000
00000000
00000000
00001000
00010000
00000000
00001000
00000000
01000000
00000000
00000000
00000000
00100000
00000000
10000000
00000000
,  // measure 40
00010000
00000000
00000000
10000000
00000000
00000000
00020000
00000000
00200000
00000000
00000000
00000000
00330000
00000000
00000000
00000000
,  // measure 41
00100000
00000000
00001000
00000000
00000000
00100000
00000000
00000000
00001000
00000000
00000000
00010000
00000000
00000000
00000100
00000000
,  // measure 42
00001000
00000000
00000001
00000000
00000000
00000100
00000000
00000000
00000010
00000000
00000000
00010000
00000000
00000000
00001000
00000000
,  // measure 43
00100000
00000000
00010000
00000000
00000000
01000000
00000000
00000000
00100000
00000000
00000000
10000000
00000000
00000000
01000000
00000000
,  // measure 44
01100000
00000000
00000000
00000000
00101000
00000000
00000000
00000000
00010100
00000000
00000000
00010000
00000100
00000000
00001000
00000000
,  // measure 45
00000002
00000000
00000100
00000000
00000000
00000100
00000000
00000000
00001000
00000000
00000000
00001000
00000000
00000000
00001003
00000000
,  // measure 46
00000200
00000000
00000010
00000000
00000000
00000010
00000000
00000000
00010000
00000000
00000000
00010000
00000000
00000000
00010300
00000000
,  // measure 47
00002000
00000000
00100000
00000000
00000000
00100000
00000000
00000000
01000000
00000000
00000000
01000000
00000000
00000000
01003000
00000000
,  // measure 48
00100000
01000000
00001000
01000000
00001000
00010000
00001000
00010000
,  // measure 49
00000100
00002200
00000000
00003300
,  // measure 50
00000100
00000000
00010000
00000000
00001000
00000000
00100000
00020000
00000000
00000000
10000000
00000000
10030000
00000000
01000000
00000000
,  // measure 51
00100000
00000000
00001000
00000000
00010000
00000000
00000100
00000020
00000000
00000000
00000000
00000000
00000031
00000000
00000100
00000000
,  // measure 52
00000010
00000000
00000010
00000000
00010000
00000000
00001000
00020000
00000000
00000000
01000000
00000000
01030000
00000000
00100000
00000000
,  // measure 53
01100000
00000000
00000000
00101000
00000000
00000000
00011000
00000000
00000000
00000000
00000000
00001000
01000000
00000000
00100000
00000000
,  // measure 54
10000000
00000000
00010000
00000000
10000000
00000000
01000000
00200000
00000000
00000000
00010000
00000000
00000000
00000000
01300000
00000000
,  // measure 55
00100000
00000000
00001000
00000000
00010000
00000000
00001000
00020000
00000000
00000000
00000100
00000000
00000000
00000000
00031000
00000000
,  // measure 56
00010000
00000000
00000100
00000000
00000010
00000000
00000001
00000200
00000000
00000000
00000310
00000000
00010000
00000000
00001000
00000000
,  // measure 57
02000000
00000000
00000000
00000000
03000000
00000000
00010000
20000000
00020000
00000000
00000000
00000000
30030000
00000000
00000000
00000000
,  // measure 58
00110000
00000000
00000000
00000000
01001000
00000000
00000000
00000000
00110000
00000000
00000000
00101000
00000000
00000000
00011000
00000000
,  // measure 59
00001000
00000000
00100000
00000000
00000000
00010000
00000000
00000000
01000000
00000000
00000000
00100000
00000000
00000000
10000000
00000000
,  // measure 60
01000000
00000000
00100000
00000000
00000000
00001000
00000000
00000000
00010000
00000000
00000000
00000100
00000000
00000000
00100010
00000000
,  // measure 61
00000001
00000000
00000100
00000000
00000000
00000010
00000000
00000000
00010000
00000000
00000000
00001000
00000000
00000000
00100000
00000000
,  // measure 62
00110000
00000000
00000000
00000000
11000000
00000000
00000000
00000000
10010000
00000000
00000000
01000000
00010000
00000000
01000000
00000000
,  // measure 63
00001000
00000000
00010000
00000000
00000100
00000010
00000000
00000000
00000001
00000000
00000000
00001000
00000000
00000000
00000100
00000000
,  // measure 64
00010000
00000000
00001000
00000000
01000000
00010000
00000000
00000000
00100000
00000000
00000000
01000000
00000000
00000000
10000000
00000000
,  // measure 65
01000000
00000000
10000000
00000000
00010000
00100000
00000000
00000000
00001000
00000000
00000000
00010000
00000000
00000000
00000100
00000000
,  // measure 66
00000010
00000001
00000100
00001000
00000100
00000010
00001000
00000100
,  // measure 67
00010000
00000000
00001000
00000000
00100000
00000000
00010000
00000000
01000000
00000000
00000000
00000000
00100000
00000000
10000000
00010000
;

//---------------dance-double - ----------------
#NOTES:
     dance-double:
     :
     Medium:
     6:
     0.426,0.421,0.243,0.201,0.063: // measure 1
00100000
00000000
00000000
00001000
00010000
00000000
00000100
00000000
,  // measure 2
00001000
00000001
00000000
00000100
00000000
00000010
00000000
00001000
,  // measure 3
00000100
00000000
00010000
00000000
00001000
01000000
00000000
02002000
,  // measure 4
00000000
00000000
00000000
03003000
,  // measure 5
00010000
00000000
00000000
10000000
00010000
00000000
00100000
00000000
,  // measure 6
00010000
00000000
01000000
00100000
10000000
00000000
00010000
00000000
,  // measure 7
00100000
00000000
00001000
00010000
00000000
00010000
00000100
00000000
,  // measure 8
00010000
00000000
00000010
00001000
00000100
00000000
00000010
00000000
,  // measure 9
00000001
00000000
00000100
00000010
00000000
00001000
00000100
00000000
,  // measure 10
00010000
00000000
00001000
01000000
00001000
00000000
00100000
00000000
,  // measure 11
00010000
01000000
00010000
00000000
10000000
00010000
10000000
00000000
,  // measure 12
00220000
00000000
00000000
00330000
,  // measure 13
00101000
00000000
00100000
00000000
00001000
00010000
00000000
00010000
,  // measure 14
00000100
00000000
00000010
00000000
00000001
00001000
00000010
00000000
,  // measure 15
00001000
00000000
00000100
00010000
00000000
00001000
00010000
00001000
,  // measure 16
01000000
00000000
00010000
00000000
01000000
00100000
10000000
00000000
,  // measure 17
00010000
00000000
00100000
00001000
00000000
00010000
00000100
00010000
,  // measure 18
00001000
00000000
00010000
00000000
00000100
00000000
00000010
00000002
,  // measure 19
00002000
00000000
00000000
00000000
00003003
00000000
00000000
00000000
00000100
00000000
00000000
00010000
00000000
00000000
00000100
00000000
,  // measure 20
00010000
00000000
00001000
00000000
00100000
00000000
00010000
01000000
,  // measure 21
10000000
01000000
00010000
00100000
,  // measure 22
00001000
00000000
00010000
00000000
00000100
00000000
00001000
00000100
,  // measure 23
00000001
00000000
00000100
00000000
00001000
00000100
00010000
00000000
,  // measure 24
00001000
00000000
01000000
00000000
00100000
01000000
00001000
00000000
,  // measure 25
00010000
00001000
00100000
00000000
00001000
00010000
00000100
00000000
,  // measure 26
00000010
00000000
00000000
00000010
00000001
00000000
00000000
00000001
,  // measure 27
00001000
00000000
00000100
00010000
00000100
00000000
00010000
00000000
,  // measure 28
00012000
00000000
00000000
00000000
,  // measure 29
02003000
00000000
00000000
00000000
,  // measure 30
03002000
00000000
00023000
00000000
,  // measure 31
00030100
00000010
00000110
00001001
,  // measure 32
00000220
00000000
00000000
00000330
,  // measure 33
00022000
00000000
00000000
00033000
,  // measure 34
02200000
00000000
00000000
00000000
00000000
03300000
00000000
00000000
,  // measure 35
10000000
00000000
00000000
00010000
00000000
00000000
20020000
00000000
00000000
00000000
00000000
00000000
30030000
00000000
00000000
00000000
,  // measure 36
10010000
00000000
10000000
00100000
00010000
00000000
00100000
00000000
,  // measure 37
01000000
00000000
00001000
00010000
00000100
00000000
00001000
00000000
,  // measure 38
00000100
00000000
00000001
00000100
00001000
00000000
00000100
00000000
,  // measure 39
00000010
00000000
00001000
00000100
00020000
00000000
00100000
00000000
,  // measure 40
00001000
00001000
00002000
00033000
,  // measure 41
00101000
00000000
00010000
10000000
00010000
00000000
10000000
01000000
,  // measure 42
00100000
00000000
00001000
00010000
00001000
00000000
00010000
00000100
,  // measure 43
00000010
00000000
00000000
00000000
00000100
00000000
00001000
00000000
00000001
00000000
00000000
00001000
00000000
00000000
00000001
00000000
,  // measure 44
00000100
00000001
00001100
00010010
,  // measure 45
00011000
00000000
00100000
00001000
00010000
00000000
00001000
01000000
,  // measure 46
00001000
00000000
00100000
00010000
01000000
00000000
00100000
10000000
,  // measure 47
00010000
00000000
00000000
00000000
00100000
00000000
00001000
00000000
00010000
00000000
00000000
00001000
00000000
00000000
00010000
00000000
,  // measure 48
00000100
00000010
00000001
00000000
00001000
00000010
00001000
00000010
,  // measure 49
00001000
00020200
00000000
00030300
,  // measure 50
00011000
00000000
00000000
00000000
00001000
00000000
00000000
00010000
00000000
00000000
00001000
00000000
01000000
00000000
00000000
00000000
,  // measure 51
00100000
00000000
10000000
00000000
01000000
00000000
00000000
00010000
00000000
00000000
00100000
00000000
00001000
00000000
00000000
00000000
,  // measure 52
00010000
00000000
00001000
00000000
00010000
00000000
00000000
00000100
00000000
00000000
00010000
00000000
00000100
00000000
00001000
00000000
,  // measure 53
00001001
00000000
00000000
00001001
00000000
00000000
00000220
00000000
00000000
00000000
00000000
00000000
00000330
00000000
00000000
00000000
,  // measure 54
00000010
00000000
00001000
00000100
00010000
00000000
00001000
00000000
,  // measure 55
01000000
00010000
00100000
00010000
10000000
00000000
00100000
00000000
,  // measure 56
01000000
00000000
00001000
01000000
00010000
00000000
00100000
00000000
,  // measure 57
00001000
00000000
00010000
00000100
00001000
00000000
00000100
00000000
,  // measure 58
00000110
00000011
00000101
00001001
,  // measure 59
00000100
00000000
00000000
00000000
00010000
00000000
00000000
00000000
00001000
00000000
00000000
00010000
00000000
00000000
00001000
00000000
,  // measure 60
00010000
00000000
00000000
00000000
00001000
00000000
00000000
00000000
01000000
00000000
00000000
00001000
00000000
00000000
01000000
00000000
,  // measure 61
00010000
00000000
00000000
00000000
10000000
00000000
00000000
00000000
01000000
00000000
00000000
00100000
00000000
00000000
01000000
00000000
,  // measure 62
00100000
00101000
00001000
00011000
,  // measure 63
00010000
00000000
00000000
00000000
00000100
00000000
00000000
00000000
00010000
00000000
00000000
00000010
00000000
00000000
00010000
00000000
,  // measure 64
00000010
00000000
00000000
00000000
00001000
00000000
00000000
00000000
00000100
00000000
00000000
00001000
00000000
00000000
00000100
00000000
,  // measure 65
00010000
00000000
00000000
00000000
00001000
00000000
00000000
00000000
01000000
00000000
00000000
00010000
00000000
00000000
01000000
00000000
,  // measure 66
00100000
10100000
10000000
10010000
,  // measure 67
00100000
00000000
00010000
00000000
00001000
00000000
00010000
00000000
00100000
00000000
00000000
00000000
00001000
00000000
00000000
00011000
;

//---------------dance-double - ----------------
#NOTES:
     dance-double:
     :
     Easy:
     3:
     0.279,0.365,0.126,0.269,0.000: // measure 1
00000010
00000000
00001000
00000100
,  // measure 2
00001000
00000010
00001000
00000100
,  // measure 3
00000020
00000000
00000001
00000001
,  // measure 4
00000002
00000000
00000000
00000033
,  // measure 5
00000001
00000000
00001000
00000100
,  // measure 6
00001000
00000000
00000100
00000000
,  // measure 7
00010000
00000000
00001000
00100000
,  // measure 8
00001000
00000000
00100000
00000000
,  // measure 9
00010000
01000000
00001000
00000000
,  // measure 10
00010000
00000000
00000100
00000000
,  // measure 11
00001000
00000010
00001000
00000001
,  // measure 12
00002002
00000000
00000000
00003003
,  // measure 13
00000110
00000000
00000010
00001000
,  // measure 14
00000100
00000000
00010000
00000000
,  // measure 15
00001000
00000000
00100000
00010000
,  // measure 16
01000000
00000000
00010000
10000000
,  // measure 17
01000000
00000000
00100000
00001000
,  // measure 18
00010000
00000000
00001000
00000000
,  // measure 19
00022000
00000000
00000000
00033000
,  // measure 20
00010000
00000000
00000100
00000010
,  // measure 21
00000100
00000000
00010000
00000000
,  // measure 22
00001000
00000000
01000000
00100000
,  // measure 23
01000000
00000000
00001000
00000000
,  // measure 24
00010000
00000100
00010000
00000000
,  // measure 25
00001000
01000000
00010000
01000000
,  // measure 26
00020000
00000000
20030000
00000000
,  // measure 27
31000000
00100000
00001000
00010000
,  // measure 28
00022000
00000000
00000000
00033000
,  // measure 29
00002002
00000000
00000000
00003003
,  // measure 30
00000220
00000330
00002002
00003003
,  // measure 31
00000010
00010000
00001000
00010000
,  // measure 32
00022000
00000000
00033000
00000000
,  // measure 33
02200000
00000000
03300000
00000000
,  // measure 34
10010000
00000000
01100000
00000000
,  // measure 35
00022000
00000000
00033000
00000000
,  // measure 36
00010000
00000000
00001000
00000000
,  // measure 37
00100000
00010000
10000000
00000000
,  // measure 38
00010000
01000000
00100000
01000000
,  // measure 39
00001000
00010000
00001000
00000000
,  // measure 40
00010000
00000100
00001000
00000000
,  // measure 41
00000001
00001000
00000100
00000000
,  // measure 42
00010000
00001000
01000000
00000000
,  // measure 43
00100000
10000000
00010000
00100000
,  // measure 44
00002000
00000000
00103000
00001000
,  // measure 45
00010000
00000100
00010000
00000000
,  // measure 46
00000100
00000010
00000100
00000000
,  // measure 47
00000010
00000001
00001000
00000100
,  // measure 48
00020000
00000000
00032000
00000000
,  // measure 49
01003000
20020000
00000000
30030000
,  // measure 50
00010000
01000000
00010000
00000000
,  // measure 51
10000000
00010000
10000000
00000000
,  // measure 52
00100000
00001000
00010000
00000100
,  // measure 53
00000010
00000001
00001000
00000000
,  // measure 54
00000010
00000100
00000010
00000000
,  // measure 55
00000001
00001000
00000001
00000000
,  // measure 56
00001000
00000100
00010000
00001000
,  // measure 57
01000000
00100000
10000000
00000000
,  // measure 58
00010000
10000000
20020000
30030000
,  // measure 59
00010000
00100000
00001000
00000000
,  // measure 60
00100000
00001000
00010000
00000000
,  // measure 61
00001000
00010000
00000100
00000010
,  // measure 62
00000200
00000000
00000310
00000100
,  // measure 63
00000010
00000001
00001000
00000000
,  // measure 64
00000100
00010000
00001000
00000000
,  // measure 65
00100000
00010000
10000000
00100000
,  // measure 66
01000000
01000000
00001000
00001000
,  // measure 67
00010000
00001000
00010000
00022000
,  // measure 68
00033000
00000000
00000000
00000000
;
