#TITLE:星空スクリーン;
#SUBTITLE:;
#ARTIST:q/stol featuring AquesTone;
#TITLETRANSLIT:starlit sky screen;
#SUBTITLETRANSLIT:;
#ARTISTTRANSLIT:;
#GENRE:Tearful Pop;
#CREDIT:;
#BANNER:[Round L] - starlit sky screen.png;
#BACKGROUND:[Round L] - starlit sky screen-bg.png;
#LYRICSPATH:;
#CDTITLE:;
#MUSIC:[Round L] - starlit sky screen.ogg;
#OFFSET:-0.060000;
#SAMPLESTART:5.520000;
#SAMPLELENGTH:12.000000;
#SELECTABLE:YES;
#BPMS:0.000000=166.000000
;
#STOPS:
;
#BGCHANGES:;
#KEYSOUNDS:;
#ATTACKS:;

//---------------dance-single - ----------------
#NOTES:
     dance-single:
     :
     Hard:
     8:
     0.569327,0.575235,0.112791,0.563956,0.000000,530.000000,515.000000,15.000000,75.000000,0.000000,0.000000,0.569327,0.575235,0.112791,0.563956,0.000000,530.000000,515.000000,15.000000,75.000000,0.000000,0.000000:
0000
0000
0000
0000
,
0000
0000
0000
0000
,
0000
0000
0000
0000
,
0000
0000
0000
0010
,
1001
0001
0010
0100
0000
1000
0000
0010
,
1000
0100
1000
0100
0001
0100
1000
0000
,
1001
1000
0100
0010
0000
0001
0000
0100
,
0002
0023
0230
2300
,
3001
0100
0001
0100
0001
0100
0010
1000
,
0001
0000
0010
0100
1000
0010
0100
0010
,
1000
0001
0000
0010
0000
1000
0000
0001
,
0100
1000
0000
0010
0000
0100
0000
0001
,
1000
0010
1000
0010
0100
0001
0010
0100
,
0000
0100
0010
0100
1000
0001
1000
0001
,
0100
1000
0100
1000
0100
0010
0100
0010
,
1000
0001
1000
0001
0010
0100
1000
0000
,
0001
0010
0001
0010
0100
1000
0100
1000
,
0010
0100
0010
0100
0001
1000
0001
1000
,
0100
0001
0100
0001
0100
1000
0100
1000
,
0010
0100
0001
0010
0100
1000
0001
0100
,
0020
1000
1000
0000
0100
0100
0000
1030
,
0200
0010
0010
0000
1300
0100
0001
0100
,
2000
0000
0000
0000
0000
0000
3001
0100
,
0002
0023
0230
2300
,
3002
0010
0010
0000
0100
0100
0000
1003
,
0020
0100
0130
0001
2000
0000
3200
0000
,
0320
0000
0000
0000
0000
0031
0010
0100
,
2000
0000
3002
0000
0203
0310
1000
0001
,
1000
0100
1000
0100
0001
0100
0001
0100
,
1000
0001
0010
1000
0000
1000
0010
0001
,
0001
0100
1000
0100
0001
0010
0100
1000
,
0010
0100
0000
0002
0000
2003
0000
3001
,
1000
0100
0001
0200
0000
1300
0010
1000
,
0001
0100
1000
0200
0000
0301
0010
0001
,
1000
0100
0010
0000
0002
0000
1000
2000
,
0000
0000
0003
0000
3000
0001
0010
0001
,
1000
0100
0010
0002
0000
0103
0010
0100
,
0001
0010
0100
1000
1000
0010
0100
0010
,
2000
0000
3100
1000
0000
0001
0000
0010
,
0200
0000
0310
0001
0000
1000
0001
0100
,
0010
1000
0100
0020
0000
0130
1000
0010
,
0200
0000
0301
0020
0000
0230
0000
1300
,
0001
0100
1000
0100
0010
1000
0100
1100
,
0000
0101
0000
0011
0000
0220
0000
0330
,
1000
0100
1000
0020
0000
0130
0001
1000
,
0001
0100
0001
0020
0000
0130
1000
0001
,
2000
0000
3100
0001
0000
0100
1000
0010
,
0001
0010
0100
0002
0000
0013
0001
0100
,
0001
1000
0100
0020
0000
0031
1000
0001
,
0100
0010
1000
0002
0000
0013
0100
1000
,
0200
0320
0032
0203
,
0320
2030
3002
0023
,
0230
0000
2300
3010
,
1010
0000
0001
0100
0001
0010
0100
1000
,
0020
0100
0031
0110
,
2001
0000
3100
0001
0100
1000
0001
0010
,
0100
1100
0010
0101
,
1002
0000
0103
0010
1000
0001
0100
1000
,
0100
0000
0001
0010
0100
0010
1000
0010
,
0001
1000
0000
1100
0000
0011
0000
0001
,
0100
1000
0000
0200
0000
0301
1000
0001
,
0020
0000
0100
0100
0000
1000
0000
0031
,
0100
0001
0100
0001
1000
0010
0001
0010
,
2000
0000
0100
0100
0000
0001
0000
3010
,
0100
0001
1000
0001
0010
0001
0100
0001
,
2000
0000
0100
0000
3001
1000
0010
0001
,
0010
2000
0000
3002
0000
0013
0100
0010
,
0002
0203
0320
2030
,
3200
0320
0032
2003
,
3001
0100
0001
1000
0001
0010
0100
1000
,
0000
1000
0010
1000
0100
0010
0001
0100
,
0010
1000
0010
1000
0100
1000
0001
1000
,
0001
0100
0001
0100
0001
1000
0001
1000
,
0100
1000
0001
0010
0100
0010
0001
0100
,
0000
0100
0010
1000
0001
0100
1000
0100
,
0001
0010
0001
0010
0100
0010
0100
0010
,
0100
1000
0100
1000
0001
1000
0001
1000
,
0010
0100
0010
0100
0010
1000
0100
0010
,
0000
0010
0100
0010
0001
0010
0001
1000
,
0010
0100
0010
0100
0010
1000
0100
0010
,
0001
1000
0001
1000
0001
0010
0100
1000
,
0001
0100
0001
0100
1000
0100
0010
1000
,
0000
1000
0100
1000
0001
1000
0001
1000
,
0002
0203
0320
2030
,
3200
0010
2300
3010
,
2002
0000
0000
0000
,
0000
0000
0000
0000
,
0000
0000
0000
0000
,
0000
0000
0000
0000
,
0000
0000
0000
0000
,
3003
0000
0000
0000
;

//---------------dance-single - ----------------
#NOTES:
     dance-single:
     :
     Medium:
     6:
     0.406049,0.457933,0.105272,0.782020,0.000000,378.000000,364.000000,14.000000,104.000000,0.000000,0.000000,0.406049,0.457933,0.105272,0.782020,0.000000,378.000000,364.000000,14.000000,104.000000,0.000000,0.000000:
// measure 0
0000
0000
0000
0000
,  // measure 1
0000
0000
0000
0000
,  // measure 2
0000
0000
0000
0000
,  // measure 3
0000
0000
0000
0000
,  // measure 4
1001
0000
0001
0000
0100
0000
0001
0010
,  // measure 5
0200
1000
0010
1300
,  // measure 6
1001
0000
1000
0000
0001
0000
1000
0010
,  // measure 7
0100
0110
0001
1001
,  // measure 8
0021
0000
0100
0000
0001
0000
0130
1000
,  // measure 9
0001
0000
0100
0000
0010
1000
0010
0000
,  // measure 10
0100
1000
0000
0100
0000
0001
0000
1000
,  // measure 11
0001
1000
0000
0001
0000
0010
0000
0100
,  // measure 12
2000
0000
0010
0010
0000
0001
0000
3200
,  // measure 13
0000
0000
0310
0001
0010
0000
0100
0000
,  // measure 14
1000
0000
0010
0100
0000
0010
0000
1000
,  // measure 15
0200
0320
0032
2003
,  // measure 16
3002
0000
0010
0000
1003
0001
0100
0010
,  // measure 17
2000
0000
3100
0010
0000
0001
0010
0100
,  // measure 18
2000
3020
0230
0302
,  // measure 19
0023
0230
2300
3002
,  // measure 20
0203
0000
0000
0000
,  // measure 21
0320
0000
0000
0000
,  // measure 22
2030
0000
0000
0000
,  // measure 23
3002
0023
0230
2300
,  // measure 24
3020
0000
0000
0000
,  // measure 25
0230
0000
0320
0000
,  // measure 26
2030
0000
0000
0001
,  // measure 27
3002
0023
0230
2300
,  // measure 28
3002
0000
0000
0000
0100
0100
0000
0000
,  // measure 29
2003
0000
0000
0010
0000
0010
0000
0000
,  // measure 30
3200
0000
0000
0000
0010
0010
0000
0000
,  // measure 31
1000
2300
0000
0010
0000
0010
0000
0000
,  // measure 32
3002
0000
0000
0000
0100
0100
0000
0000
,  // measure 33
0023
0000
0000
0100
0000
0100
0000
0000
,  // measure 34
0032
0000
0000
0000
1000
1000
0000
0000
,  // measure 35
0010
0023
0000
0100
0000
0130
1000
0100
,  // measure 36
0010
0000
0001
0200
0000
0310
1000
0000
,  // measure 37
0001
0000
1000
0100
1000
0001
0100
0000
,  // measure 38
0010
0000
1000
0100
0000
1000
0000
0001
,  // measure 39
0010
0000
0001
0100
0000
0010
1000
0000
,  // measure 40
0001
0000
0100
0002
0000
1003
0010
0000
,  // measure 41
0100
0000
0010
2000
0000
3200
0000
0310
,  // measure 42
0001
0000
0100
0000
0010
1000
0000
0001
,  // measure 43
0000
1100
0000
0011
0000
0220
0000
0330
,  // measure 44
1000
0000
0010
0200
0000
0301
0100
0001
,  // measure 45
1000
0000
0001
0020
0000
0130
1000
0100
,  // measure 46
0010
0000
0001
0100
0000
0001
1000
0000
,  // measure 47
0010
1000
0010
0200
0000
0000
0301
0000
,  // measure 48
1000
0000
0100
1000
0000
0010
1000
0000
,  // measure 49
0100
0000
0010
0001
0000
0100
0001
0000
,  // measure 50
2000
3020
0230
0302
,  // measure 51
0023
0230
2300
3002
,  // measure 52
0203
0000
0000
0310
,  // measure 53
0110
0000
1000
0001
0000
0010
0000
0001
,  // measure 54
0200
0010
0301
0101
,  // measure 55
2001
0000
3100
0010
0000
0100
0000
1000
,  // measure 56
0020
0100
2030
0001
,  // measure 57
3200
0000
0010
0000
0310
0000
0010
0001
,  // measure 58
1000
0000
0001
0100
0001
1000
0010
0000
,  // measure 59
0100
0010
0000
1000
0000
0001
0000
1000
,  // measure 60
0001
0010
0000
0100
0000
1000
0000
0010
,  // measure 61
0200
0000
0301
1000
0000
0001
0000
0010
,  // measure 62
0200
1000
0310
0110
,  // measure 63
0012
0000
1003
0001
0000
0100
0000
0010
,  // measure 64
2000
3200
0320
0032
,  // measure 65
0203
0010
0301
0010
,  // measure 66
1000
0001
0000
0010
0000
0100
0010
0001
,  // measure 67
2000
3020
0230
0302
,  // measure 68
0023
0230
2300
3002
,  // measure 69
2003
0000
0010
0000
3001
0100
0000
0001
,  // measure 70
0010
0100
0000
1000
0000
0001
0100
0001
,  // measure 71
1000
0100
0010
0000
0001
0100
0000
0010
,  // measure 72
1000
0010
0000
0100
0000
0002
0000
0000
,  // measure 73
2003
0000
0100
0000
3001
1000
0100
0010
,  // measure 74
0001
0010
0100
0020
0000
0032
0000
0103
,  // measure 75
0001
0200
0000
0320
0000
2030
0000
3001
,  // measure 76
1000
0100
1000
0100
0010
0100
0010
0100
,  // measure 77
1000
0020
0000
0000
0000
0130
0001
1000
,  // measure 78
0001
0010
0200
0000
2300
0000
3010
0100
,  // measure 79
0002
0000
0023
0000
0230
0000
1300
0001
,  // measure 80
1000
0100
0020
0000
0031
0100
1000
0100
,  // measure 81
0002
0000
0100
0000
1003
0010
0100
0001
,  // measure 82
1000
0001
0010
0100
0000
1000
0000
0001
,  // measure 83
0200
0320
2030
3200
,  // measure 84
0320
0000
0200
0330
,  // measure 85
2002
0000
0000
0000
,  // measure 86
0000
0000
0000
0000
,  // measure 87
3003
0000
0000
0000
;

//---------------dance-single - ----------------
#NOTES:
     dance-single:
     :
     Easy:
     4:
     0.298628,0.323335,0.030078,0.233102,0.000000,278.000000,274.000000,4.000000,31.000000,0.000000,0.000000,0.298628,0.323335,0.030078,0.233102,0.000000,278.000000,274.000000,4.000000,31.000000,0.000000,0.000000:
// measure 0
0000
0000
0000
0000
,  // measure 1
0000
0000
0000
0000
,  // measure 2
0000
0000
0000
0000
,  // measure 3
0000
0000
0000
0000
,  // measure 4
1000
0100
1000
0001
,  // measure 5
1000
1000
0010
0010
,  // measure 6
0100
0001
1000
0001
,  // measure 7
0010
0010
0100
0100
,  // measure 8
0010
0001
1000
0001
,  // measure 9
0100
0001
1000
0001
,  // measure 10
0010
0010
0100
0100
,  // measure 11
0010
0100
1001
0000
,  // measure 12
0001
0100
0001
1000
,  // measure 13
0001
0001
1000
1000
,  // measure 14
0010
1000
0100
1000
,  // measure 15
0001
0001
0010
0010
,  // measure 16
0100
0010
0001
0100
,  // measure 17
0001
1000
0010
0100
,  // measure 18
0010
1000
0100
0010
,  // measure 19
0001
0100
0010
1000
,  // measure 20
0002
0000
0000
0000
,  // measure 21
0023
0000
0000
0000
,  // measure 22
0230
0000
0000
0000
,  // measure 23
0300
0000
0000
0000
,  // measure 24
2000
0000
0000
0000
,  // measure 25
3020
0000
0000
0000
,  // measure 26
0230
0000
0000
0000
,  // measure 27
0300
0000
0000
0000
,  // measure 28
0001
0000
0001
0000
,  // measure 29
1000
0000
1000
0000
,  // measure 30
0100
0000
0100
0000
,  // measure 31
0010
0000
0010
0000
,  // measure 32
0001
0000
1000
0000
,  // measure 33
0001
0000
0100
0000
,  // measure 34
0010
0000
1000
0000
,  // measure 35
0002
0000
0003
0000
,  // measure 36
1000
0100
1000
1000
,  // measure 37
0001
0100
0001
0001
,  // measure 38
0100
0010
1000
0100
,  // measure 39
0010
0001
1000
0000
,  // measure 40
0001
0100
0001
0001
,  // measure 41
0010
0100
1000
1000
,  // measure 42
0010
0000
1000
0000
0100
0010
0000
0001
,  // measure 43
0000
1000
0000
0001
0000
2000
0000
3000
,  // measure 44
0001
0100
0010
1000
,  // measure 45
0100
1000
0001
1000
,  // measure 46
0100
0100
0010
0010
,  // measure 47
0100
0010
0110
0000
,  // measure 48
1000
1000
0001
1000
,  // measure 49
0001
0001
0100
0001
,  // measure 50
0020
0230
2300
3020
,  // measure 51
0230
0302
2003
3002
,  // measure 52
1003
0000
0000
0000
,  // measure 53
0001
0010
0001
1000
,  // measure 54
0001
0001
0100
0100
,  // measure 55
0010
1000
0001
1000
,  // measure 56
0100
0100
0010
0010
,  // measure 57
0100
1000
0001
1000
,  // measure 58
0010
1000
0001
1000
,  // measure 59
0100
0100
0010
0010
,  // measure 60
0100
0010
1001
0000
,  // measure 61
1000
0010
1000
0001
,  // measure 62
1000
1000
0001
0001
,  // measure 63
0100
0001
0010
0001
,  // measure 64
1000
1000
0100
0100
,  // measure 65
0010
0100
1000
0010
,  // measure 66
1000
0001
0100
0010
,  // measure 67
0100
0001
0010
0100
,  // measure 68
1000
0010
0100
0001
,  // measure 69
0020
0100
0100
0130
,  // measure 70
2000
0100
0001
3100
,  // measure 71
0002
0010
0010
0013
,  // measure 72
0200
0010
1000
0310
,  // measure 73
0020
0100
0100
0130
,  // measure 74
2000
0100
0001
3100
,  // measure 75
0020
0100
0001
0130
,  // measure 76
0200
0010
1000
0310
,  // measure 77
1001
0001
0100
0001
,  // measure 78
0010
0100
1000
0010
,  // measure 79
0100
0100
0010
0010
,  // measure 80
1000
0000
0100
0000
0010
0100
0010
0000
,  // measure 81
0001
0100
0001
1000
,  // measure 82
0010
0001
0010
1000
,  // measure 83
0002
0023
0230
2300
,  // measure 84
3002
0000
0203
0000
,  // measure 85
0320
0000
0000
0000
,  // measure 86
0030
0000
0000
0000
;
