#VERSION:0.83;
#TITLE:deskwork;
#SUBTITLE:;
#ARTIST:ルゼ;
#TITLETRANSLIT:;
#SUBTITLETRANSLIT:;
#ARTISTTRANSLIT:LUZE;
#GENRE:;
#ORIGIN:;
#CREDIT:;
#BANNER:;
#BACKGROUND:;
#PREVIEWVID:;
#JACKET:;
#CDIMAGE:;
#DISCIMAGE:;
#LYRICSPATH:;
#CDTITLE:;
#MUSIC:[Round L] - Deskwork.mp3;
#OFFSET:-0.020000;
#SAMPLESTART:42.676048;
#SAMPLELENGTH:15.000000;
#SELECTABLE:YES;
#DISPLAYBPM:180.000000;
#BPMS:0.000=180.000,
332.000=240.000,
332.500=300.000,
333.000=360.000,
333.500=420.000,
334.000=480.000,
334.500=540.000,
335.000=600.000,
335.500=660.000,
336.000=720.000,
336.500=90.000;
#STOPS:;
#DELAYS:;
#WARPS:;
#TIMESIGNATURES:0.000=4=4;
#TICKCOUNTS:0.000=4;
#COMBOS:0.000=1;
#SPEEDS:0.000=1.000=0.000=0;
#SCROLLS:0.000=1.000;
#FAKES:;
#LABELS:0.000=Song Start;
#BGCHANGES:0.000=[Round L] - Deskwork.mp4=1.000=1=0=1===CrossFade==,
99999=-nosongbg-=1.000=0=0=0 // don't automatically add -songbackground-
;
#KEYSOUNDS:;
#ATTACKS:
;

//---------------dance-single - ----------------
#NOTEDATA:;
#CHARTNAME:;
#STEPSTYPE:dance-single;
#DESCRIPTION:;
#CHARTSTYLE:;
#DIFFICULTY:Easy;
#METER:5;
#RADARVALUES:0.266242,0.337571,0.000000,0.517197,0.000000,209.000000,209.000000,0.000000,58.000000,0.000000,0.000000,0.000000,0.000000,0.000000,0.266242,0.337571,0.000000,0.517197,0.000000,209.000000,209.000000,0.000000,58.000000,0.000000,0.000000,0.000000,0.000000,0.000000;
#CREDIT:chillax;
#NOTES:
0000
0000
0000
0000
,
0000
0000
0000
0000
,
0000
0000
0000
0000
,
0000
0000
0000
0000
,
0001
1000
0000
1000
,
0000
0010
0010
0000
,
0100
0100
0001
0000
,
1000
1000
0100
0000
,
0010
0001
0000
0010
,
0000
0100
0100
0000
,
1000
0001
0100
0000
,
0001
1000
0100
0000
,
0010
0100
0000
0100
,
0000
1000
1000
0000
,
0010
1000
0001
0000
,
0010
0001
1000
0000
,
0010
0010
0000
0100
,
0000
0100
0100
0000
,
0001
1000
0100
0000
,
1000
0001
0100
0000
,
0010
1000
0000
1000
,
0000
0001
0001
0000
,
0010
0001
0100
0000
,
0010
1000
0100
0000
,
1000
0001
0000
0001
,
0000
0010
0010
0000
,
0001
1000
0100
0000
,
1000
0001
0100
0000
,
0010
0100
0000
0100
,
0000
0001
0001
0000
,
0010
0100
1000
0000
,
0001
0100
0010
0000
,
1000
0000
0002
0000
,
0013
0000
0200
0000
,
1300
0000
0020
0000
,
0230
0000
0302
0000
,
1003
0000
0200
0000
,
1300
0000
0020
0000
,
0130
0000
0002
0000
,
0023
0000
0230
0000
,
1300
0000
0020
0000
,
0130
0000
0002
0003
,
1000
0000
0200
0000
,
2300
0000
3020
0000
,
0130
0000
0002
0000
,
0103
0000
0020
0000
,
1030
0000
0002
0000
,
0023
0000
0230
0000
,
1300
0000
0010
0000
,
0100
0000
0002
0000
,
0103
0000
0010
0000
,
2000
0000
3002
0000
,
0013
0000
0001
0000
,
0100
0000
0020
0000
,
0130
0000
0001
0000
,
0020
0000
0230
0000
,
1300
0000
0010
0000
,
0100
0000
0002
0000
,
1003
0000
0100
0000
,
0020
0000
0032
0000
,
0013
0000
0100
0000
,
1000
0000
0020
0000
,
0130
0000
0001
0000
,
2000
0000
0001
3001
,
1000
0200
1300
0002
,
0103
0002
0013
0002
,
1003
0020
1030
0200
,
0310
0200
0301
0200
,
1300
0002
1003
0020
,
1030
0200
0310
0200
,
1300
0002
0103
0020
,
0130
0002
0013
0002
,
2003
0100
0001
0100
,
3002
0010
1000
0023
,
1000
0001
1000
0230
,
0001
0010
1000
0320
,
0001
1000
0100
0032
,
1000
0100
0010
2003
,
0010
0001
0100
3010
,
0010
0000
0000
0100
0000
0000
0001
0000
,
2000
0000
0000
0000
,
3002
0000
0000
0000
,
0203
0000
0000
0000
,
0320
0000
0000
0000
,
0000
0030
0000
0000
0000
0000
0000
0000
;

//---------------dance-single - ----------------
#NOTEDATA:;
#CHARTNAME:;
#STEPSTYPE:dance-single;
#DESCRIPTION:;
#CHARTSTYLE:;
#DIFFICULTY:Medium;
#METER:7;
#RADARVALUES:0.551592,0.675142,0.285350,0.107006,0.000000,433.000000,401.000000,32.000000,12.000000,0.000000,0.000000,0.000000,0.000000,0.000000,0.551592,0.675142,0.285350,0.107006,0.000000,433.000000,401.000000,32.000000,12.000000,0.000000,0.000000,0.000000,0.000000,0.000000;
#CREDIT:pressure;
#NOTES:
0000
0000
0000
0000
,
0000
0000
0000
0000
,
0000
0000
0000
0000
,
0000
0000
0000
0000
,
0001
0000
0010
0200
0000
0000
0310
0002
,
0000
0000
1003
0000
0200
0000
0000
0310
,
0000
0100
1000
0000
0010
0100
0000
0001
,
0100
0000
0010
0000
1000
0001
1000
0000
,
0100
0000
0010
0002
0000
0000
0013
0200
,
0000
0000
1300
0000
0002
0000
0000
0103
,
0000
0010
0100
0000
0001
1000
0000
0100
,
0010
0000
0100
1000
0100
1000
0001
0000
,
0100
0000
0010
0200
0000
0000
0301
2000
,
0000
0000
3100
0000
0020
0000
0000
0031
,
0000
1000
0100
0000
0010
0100
0000
1000
,
0001
0000
0100
0010
0100
0001
1000
0000
,
1100
0000
1000
0001
0000
0000
0101
0000
,
0000
0001
0000
0000
1000
0000
0000
0100
,
0000
0010
0100
0000
1000
0010
0000
0100
,
0001
0000
0100
0001
0000
0001
1000
0000
,
0100
0000
0010
0001
0000
0000
1000
0000
,
0000
1100
0000
0000
0011
0000
0000
0001
,
0000
1000
0100
0000
1000
0001
0000
0100
,
0010
0000
0100
0001
0000
0000
0010
0000
,
0100
0000
1000
0001
0000
0000
0100
0000
,
0000
0010
0000
0000
1010
0000
0000
0100
,
0000
0001
1000
0000
0100
0010
0000
0100
,
1000
0000
0001
0100
0000
0000
0010
0000
,
0100
0000
0001
0010
0000
0000
0000
0100
,
0000
1000
0000
0000
1001
0000
0000
0001
,
0000
0100
0010
0000
0100
0001
0000
1000
,
0100
0000
0010
0001
0010
0100
1000
0100
,
1000
0000
0010
0000
0100
0001
0100
0001
,
0000
0000
1000
0000
0100
0010
0100
0010
,
0000
0000
0001
0000
0010
0001
0010
0001
,
0010
0100
1000
0001
,
0100
0000
0000
0000
0010
1000
0010
1000
,
0000
0000
0000
0000
0001
0010
0001
0010
,
0000
0000
0000
0000
0100
1000
0100
0000
,
1000
0001
1000
0000
0001
0100
0001
0000
,
0100
0000
0000
0000
0010
1000
0010
1000
,
0000
0000
0000
0000
0001
0010
0001
0010
,
0000
0000
0000
0000
0100
1000
0100
1000
,
0001
0010
0100
1000
,
0010
0000
0000
0000
1000
0010
1000
0010
,
0000
0000
0000
0000
0100
0001
0100
0001
,
0000
0000
0000
0000
1000
0100
1000
0000
,
0001
0010
0001
0000
1000
0010
1000
0000
,
0010
0000
0100
0000
0001
1000
0100
1000
,
0001
0000
0010
0000
0100
1000
0010
1000
,
0100
0000
0010
0000
0001
0100
0010
0100
,
0001
0010
0100
1000
,
0010
0000
0100
0000
0001
0100
0010
0100
,
0001
0000
1000
0000
0100
0010
0100
1000
,
0010
0000
0100
0000
0001
0010
0001
0000
,
1000
0010
1000
0000
0100
1000
0100
0000
,
0010
0000
0001
0000
0100
0010
0100
0010
,
1000
0000
0010
0000
0100
0001
0100
0001
,
0010
0000
0001
0000
1000
0100
1000
0100
,
0010
0001
0100
0010
,
1000
0000
0010
0000
0100
0001
0100
0001
,
1000
0000
0100
0000
0010
0001
0010
0001
,
1000
0000
0010
0000
0100
0001
0100
0000
,
0001
1000
0001
0000
1000
0100
1000
0100
,
1000
0100
1100
0000
1000
0001
0100
0000
,
0001
0010
0011
0000
0001
0100
0010
0000
,
1000
0010
1010
0000
0100
0010
0100
0000
,
0001
0100
0101
0000
0001
1000
0100
0000
,
0010
0100
1100
0000
1000
0001
0010
0000
,
0001
0100
0110
0000
0010
1000
0001
0000
,
1000
0100
0011
0000
0001
1000
0010
0000
,
0100
0001
1001
0000
0001
0010
0100
0000
,
1000
0010
1010
0000
0100
0001
0101
0000
,
0001
0010
0011
0000
0001
1000
1100
0000
,
1000
0010
1010
0000
0010
0100
0110
0000
,
0100
0001
0101
0000
0001
1000
0110
0000
,
0001
0010
1100
0000
0010
0100
1001
0000
,
0001
0100
1010
0000
0010
1000
1001
0000
,
0001
0010
0011
0000
0100
1000
1100
0000
,
0011
0000
0100
1100
0000
0010
0110
0000
,
0002
0000
0000
0000
,
1003
0100
1000
0100
0001
0100
0001
0100
,
1000
1000
0010
0010
0100
0100
0001
0001
,
2002
0000
0000
0000
,
0000
3003
0000
0000
0000
0000
0000
0000
;

//---------------dance-single - ----------------
#NOTEDATA:;
#CHARTNAME:;
#STEPSTYPE:dance-single;
#DESCRIPTION:;
#CHARTSTYLE:;
#DIFFICULTY:Hard;
#METER:10;
#RADARVALUES:0.779617,1.012714,0.392356,0.017834,0.102548,612.000000,568.000000,44.000000,2.000000,0.000000,0.000000,0.000000,0.000000,0.000000,0.779617,1.012714,0.392356,0.017834,0.102548,612.000000,568.000000,44.000000,2.000000,0.000000,0.000000,0.000000,0.000000,0.000000;
#CREDIT:overwhelming;
#NOTES:
// measure 0
0000
0000
0000
0000
,  // measure 1
0000
0000
0000
0000
,  // measure 2
0000
0000
0000
0000
,  // measure 3
0000
0000
0000
0000
,  // measure 4
0010
0000
0011
1000
0000
0000
1100
0001
,  // measure 5
0000
0000
0110
0000
1001
0000
0000
0001
,  // measure 6
0000
1000
0100
0000
0010
0001
0000
0010
,  // measure 7
0100
0000
1000
0010
0001
0010
1000
0100
,  // measure 8
0010
0000
0011
0100
0000
0000
1100
0010
,  // measure 9
0000
0000
0101
0000
1010
0000
0000
0010
,  // measure 10
0000
0100
0001
0000
1000
0100
0000
0010
,  // measure 11
0100
0000
1000
0010
0001
0010
1000
0100
,  // measure 12
0010
0000
0011
0100
0000
0000
1100
0001
,  // measure 13
0000
0000
0101
0000
1010
0000
0010
0100
,  // measure 14
0000
0001
1000
0000
0100
0010
0000
0100
,  // measure 15
1000
0000
0001
0100
0010
0100
0001
0010
,  // measure 16
0100
0000
1100
0001
0000
0100
0010
0000
,  // measure 17
0100
0001
0000
1000
0100
0000
0010
0001
,  // measure 18
0000
1000
0010
0000
1000
0001
0000
0010
,  // measure 19
0100
0000
1000
0100
0010
0001
1000
0010
,  // measure 20
0100
0000
0001
0100
0000
0010
0100
0000
,  // measure 21
0001
1000
0000
0100
0010
0000
0100
1000
,  // measure 22
0000
0010
0100
0000
0001
1000
0000
0100
,  // measure 23
0010
0000
0001
0010
1000
0010
0001
0100
,  // measure 24
0010
0000
0100
0001
0000
1000
0100
0000
,  // measure 25
0010
0001
0000
0010
1000
0000
0010
0100
,  // measure 26
0000
1000
0010
0000
0100
0001
0000
0100
,  // measure 27
0010
0000
1000
0001
0010
0001
1000
0010
,  // measure 28
0100
0000
1000
0100
0000
0001
0100
0000
,  // measure 29
0010
1000
0000
0010
0001
0000
0010
0100
,  // measure 30
0000
0001
1000
0000
0100
0010
0000
0001
,  // measure 31
0010
0000
0100
1000
0010
0001
0010
1000
,  // measure 32
0001
0010
0001
0010
0100
1000
0100
1000
,  // measure 33
0010
0100
0010
0100
0001
1000
0001
1000
,  // measure 34
0100
0010
0100
0010
0001
0010
0001
0010
,  // measure 35
0100
1000
0010
0100
0001
0010
0100
1000
,  // measure 36
0001
0100
0001
0100
0010
1000
0010
1000
,  // measure 37
0100
0010
0100
0010
0001
1000
0001
1000
,  // measure 38
0100
0010
0100
0010
0001
0010
0100
0000
,  // measure 39
1000
0010
0100
0000
0001
1000
0100
0000
,  // measure 40
0010
0001
0010
0001
1000
0010
0100
0001
,  // measure 41
1000
0100
1000
0100
0010
0001
1000
0010
,  // measure 42
0100
0010
0100
0010
1000
0010
0100
0001
,  // measure 43
1000
0100
0001
0100
1000
0010
0001
0010
,  // measure 44
1000
0010
0100
0001
1000
0100
0010
0001
,  // measure 45
1000
0010
0100
0010
1000
0001
0010
0100
,  // measure 46
1000
0001
0100
0010
0100
0001
0010
0000
,  // measure 47
0100
1000
0010
0000
0100
0001
0010
0000
,  // measure 48
0100
1000
0100
1000
0001
0100
0010
1000
,  // measure 49
0001
0010
0001
0010
0100
1000
0010
0100
,  // measure 50
0001
0100
0001
0100
0010
1000
0001
0010
,  // measure 51
1000
0010
0001
0100
1000
0100
0001
0010
,  // measure 52
0100
1000
0100
1000
0010
0100
0001
1000
,  // measure 53
0100
1000
0100
1000
0010
1000
0001
0010
,  // measure 54
0001
0100
0001
0100
0001
0100
0010
0000
,  // measure 55
1000
0100
0010
0000
0100
1000
0010
0000
,  // measure 56
0100
0001
0100
0001
1000
0100
0010
0001
,  // measure 57
1000
0010
1000
0010
0100
0001
0010
0100
,  // measure 58
1000
0100
1000
0100
0010
0001
0100
0010
,  // measure 59
1000
0010
0001
0010
1000
0100
0001
0100
,  // measure 60
0010
0001
0010
0001
1000
0010
0100
0001
,  // measure 61
1000
0100
1000
0100
0010
0001
0100
0010
,  // measure 62
1000
0001
1000
0001
0010
0100
1000
0000
,  // measure 63
0001
0100
0001
0100
0001
0100
0001
0100
0001
1000
0001
1000
0001
1000
0001
1000
,  // measure 64
0010
1000
1100
0010
0001
0100
0110
0010
,  // measure 65
1000
0001
0011
0001
1000
0100
0011
0100
,  // measure 66
1000
0010
0101
0010
1000
0001
1100
0010
,  // measure 67
0001
0000
1000
0000
1010
0000
0001
0010
0001
0000
0100
0000
0110
0000
0001
0000
,  // measure 68
1000
0100
0011
0100
1000
0010
0101
0010
,  // measure 69
1000
0001
0110
0001
1000
0100
0011
0100
,  // measure 70
1000
0010
0101
0010
0100
0001
1100
0100
,  // measure 71
0010
0000
0001
0000
1100
0000
0001
0010
0100
1000
0010
0000
0010
0100
0001
1000
,  // measure 72
0010
1000
0101
0010
1000
0001
0110
0001
,  // measure 73
1000
0100
0011
0001
1000
0010
0101
0010
,  // measure 74
0100
0001
1010
0001
1000
0100
0011
0100
,  // measure 75
1000
0010
0101
0010
0100
0001
1001
0100
,  // measure 76
0010
0001
1100
0001
0010
0100
1001
0010
,  // measure 77
0100
0001
1010
0010
0100
0001
1100
0001
,  // measure 78
0010
0001
1001
0010
0100
0001
1001
0100
,  // measure 79
0011
0000
0100
0000
1000
0000
1010
0000
0100
0000
0001
0000
1000
0001
1000
0001
,  // measure 80
0020
0000
0000
0000
,  // measure 81
0130
1000
0100
1000
0001
1000
0001
1000
0010
1000
0010
1000
0001
1000
0001
0000
,  // measure 82
0010
0000
1000
0000
0010
0000
0001
0000
0100
0000
0010
0000
1000
0000
0001
1000
,  // measure 83
0002
0000
0000
0000
,  // measure 84
0000
0003
0000
0000
0000
0000
0000
0000
;

//---------------dance-single - ----------------
#NOTEDATA:;
#CHARTNAME:;
#STEPSTYPE:dance-single;
#DESCRIPTION:;
#CHARTSTYLE:;
#DIFFICULTY:Challenge;
#METER:11;
#RADARVALUES:0.830572,1.050222,0.276433,0.017834,0.289809,652.000000,621.000000,31.000000,2.000000,0.000000,0.000000,0.000000,0.000000,0.000000,0.830572,1.050222,0.276433,0.017834,0.289809,652.000000,621.000000,31.000000,2.000000,0.000000,0.000000,0.000000,0.000000,0.000000;
#CREDIT:;
#DISPLAYBPM:180.000000;
#NOTES:
// measure 0
0000
0000
0000
0000
,  // measure 1
0000
0000
0000
0000
,  // measure 2
0000
0000
0000
0000
,  // measure 3
0000
0000
0000
0000
,  // measure 4
0100
0000
1100
0001
0000
0000
0011
1000
,  // measure 5
0000
0000
0110
0000
1001
0000
0000
1000
,  // measure 6
0000
0001
0010
0000
0100
1000
0000
0100
,  // measure 7
0010
0000
0001
0100
1000
0100
0001
0010
,  // measure 8
0100
0000
1100
0010
0000
0000
0011
0100
,  // measure 9
0000
0000
1010
0000
0101
0000
0000
0100
,  // measure 10
0000
0010
1000
0000
0001
0010
0000
0100
,  // measure 11
0010
0000
0001
0100
1000
0100
0001
0010
,  // measure 12
0100
0000
1100
0010
0000
0000
0011
1000
,  // measure 13
0000
0000
1010
0000
0101
0000
0100
0010
,  // measure 14
0000
1000
0001
0000
0010
0100
0000
0010
,  // measure 15
0001
0000
1000
0010
0100
0010
1000
0100
,  // measure 16
0010
0000
0011
1000
0000
0010
0100
0000
,  // measure 17
0010
1000
0000
0001
0010
0000
0100
1000
,  // measure 18
0000
0001
0100
0000
0001
1000
0000
0100
,  // measure 19
0010
0000
0001
0010
0100
1000
0001
0100
,  // measure 20
0010
0000
1000
0010
0000
0100
0010
0000
,  // measure 21
1000
0001
0000
0010
0100
0000
0010
0001
,  // measure 22
0000
0100
0010
0000
1000
0001
0000
0010
,  // measure 23
0100
0000
1000
0100
0001
0100
1000
0010
,  // measure 24
0100
0000
0010
1000
0000
0001
0010
0000
,  // measure 25
0100
1000
0000
0100
0001
0000
0100
0010
,  // measure 26
0000
0001
0100
0000
0010
1000
0000
0010
,  // measure 27
0100
0000
0001
1000
0100
1000
0001
0100
,  // measure 28
0010
0000
0001
0010
0000
1000
0010
0000
,  // measure 29
0100
0001
0000
0100
1000
0000
0100
0010
,  // measure 30
0000
1000
0001
0000
0010
0100
0000
1000
,  // measure 31
0100
0000
0010
0001
0100
1000
0100
0001
,  // measure 32
0010
0100
1000
0010
0100
0001
0100
1000
,  // measure 33
0100
0001
1000
0100
0010
0001
0010
1000
,  // measure 34
0010
0100
1000
0001
0100
1000
0100
0010
,  // measure 35
1000
0001
0010
1000
0001
0100
0010
0001
,  // measure 36
1000
0010
0100
0001
0010
1000
0010
0100
,  // measure 37
1000
0010
0100
0001
0100
1000
0100
0010
,  // measure 38
0100
0001
1000
0100
0010
0001
0010
0000
,  // measure 39
1000
0001
0100
0000
1000
0001
0100
0000
,  // measure 40
0010
0100
0001
1000
0001
0010
1000
0010
,  // measure 41
0001
1000
0010
0100
0001
0100
1000
0100
,  // measure 42
0001
1000
0100
0010
0001
0010
1000
0010
,  // measure 43
0001
0100
1000
0001
0010
0100
0001
1000
,  // measure 44
0100
0010
0001
1000
0010
0100
0010
1000
,  // measure 45
0001
0010
0100
0010
0001
0010
1000
0010
,  // measure 46
0100
0010
0001
1000
0010
0001
1000
0000
,  // measure 47
0001
0010
1000
0000
0100
0001
1000
0000
,  // measure 48
0001
0100
0001
0010
0001
1000
0100
1000
,  // measure 49
0010
1000
0001
1000
0010
0100
0001
0100
,  // measure 50
0010
0100
1000
0100
0010
1000
0001
0010
,  // measure 51
1000
0010
0001
0100
1000
0100
0001
0010
,  // measure 52
0100
0010
0001
0010
1000
0010
0001
0100
,  // measure 53
0010
0100
0001
0100
0010
0100
1000
0100
,  // measure 54
0010
1000
0100
1000
0001
1000
0100
1000
,  // measure 55
0010
0001
0010
1000
0100
0001
0100
0010
,  // measure 56
0001
1000
0001
0010
0001
0100
1000
0100
,  // measure 57
0010
0100
0001
0100
0010
1000
0010
0001
,  // measure 58
0010
1000
0010
1000
0001
1000
0100
0010
,  // measure 59
0001
0010
1000
0010
0001
0100
1000
0100
,  // measure 60
0001
0010
0100
0010
0001
1000
0010
1000
,  // measure 61
0001
0010
0100
0010
0001
1000
0010
0100
,  // measure 62
0001
0010
0100
1000
0010
0100
0001
1000
,  // measure 63
0001
0010
0100
1000
0001
0100
0010
1000
0010
0100
0010
1000
0001
1000
0001
0100
,  // measure 64
0010
0000
1000
0000
0100
0000
0010
0100
1000
0010
0100
0000
0001
0000
0100
0010
,  // measure 65
1000
0000
0001
0000
0010
0000
0100
0010
0001
0010
0100
0000
1000
0000
0001
0100
,  // measure 66
0010
0000
0100
0000
0001
0000
1000
0100
0010
0001
1000
0000
0010
0000
0100
0010
,  // measure 67
1000
0000
0001
0000
0010
0000
0100
1000
0001
0100
0010
0000
0100
0000
0001
1000
,  // measure 68
0100
0000
0010
0000
0001
0000
1000
0100
1000
0010
0100
0000
0001
0000
0010
0001
,  // measure 69
1000
0000
0010
0000
0100
0000
0001
1000
0100
0010
0001
0000
1000
0000
0010
0100
,  // measure 70
0001
0000
0100
0000
0010
0000
1000
0001
0010
0001
1000
0000
0100
0000
0010
0001
,  // measure 71
1000
0000
0010
0000
0100
0000
0001
1000
0100
1000
0001
0000
0100
0010
0100
0010
,  // measure 72
1000
0000
0001
0000
0101
0000
0001
1000
0100
0010
0001
0000
1100
0000
1000
0001
,  // measure 73
0100
0000
0010
0000
1010
0000
0010
0100
0001
1000
0100
0000
0011
0000
0100
1000
,  // measure 74
0010
0000
0100
0000
0101
0000
0010
1000
0001
1000
0100
0000
0110
0000
0010
0001
,  // measure 75
1000
0000
0010
0000
0101
0000
0010
1000
0001
0010
0100
0000
1001
0000
0001
0100
,  // measure 76
0010
0000
0100
0000
1100
0000
0010
0100
0001
0010
0100
0000
1001
0000
0100
0010
,  // measure 77
0001
0000
0010
0000
1100
0000
0001
0100
0010
0100
0001
0000
1010
0000
0001
0100
,  // measure 78
0010
0000
1000
0000
0011
0000
0001
1000
0010
0100
0001
0000
0110
0000
0010
0000
,  // measure 79
1010
0000
0100
0001
1000
0000
0110
0000
0001
0010
0100
0000
1100
0001
1000
0001
,  // measure 80
0010
0010
0100
1000
0100
0100
0001
0100
,  // measure 81
0010
0001
0010
0100
0010
0001
0010
0100
1000
0001
1000
0100
1000
0001
0100
0000
,  // measure 82
0010
0000
0001
0000
0010
0000
1000
0000
0100
0000
0001
0000
0100
0000
1000
0001
,  // measure 83
2002
0000
0000
0000
,  // measure 84
0000
3003
0000
0000
0000
0000
0000
0000
;
