#TITLE:Good Intentions;
#SUBTITLE:;
#ARTIST:FWLR;
#TITLETRANSLIT:;
#SUBTITLETRANSLIT:;
#ARTISTTRANSLIT:;
#GENRE:;
#CREDIT:;
#BANNER:[Round L] - Good Intentions.png;
#BACKGROUND:[Round L] - Good Intentions-bg.png;
#LYRICSPATH:;
#CDTITLE:;
#MUSIC:[Round L] - Good Intentions.ogg;
#OFFSET:0.000000;
#SAMPLESTART:29.529999;
#SAMPLELENGTH:14.800000;
#LASTBEATHINT:219.458496;
#SELECTABLE:YES;
#BPMS:0.000000=130.000000
,28.000000=65.000000
,30.000000=130.000000
,124.000000=65.000000
,138.000000=130.000000
,172.000000=65.000000
,188.000000=130.000000
,216.000000=65.000000
;
#STOPS:123.750000=0.923000,
137.875000=0.923000
;
#BGCHANGES:;
#KEYSOUNDS:;
#ATTACKS:;

//---------------dance-single - ----------------
#NOTES:
     dance-single:
     :
     Beginner:
     1:
     0.145115,0.180863,0.132137,0.049552,0.008259,123.000000,107.000000,16.000000,6.000000,9.000000,0.000000,0.145115,0.180863,0.132137,0.049552,0.008259,123.000000,107.000000,16.000000,6.000000,9.000000,0.000000:
// measure 0
0000
0000
0000
0000
,  // measure 1
0000
0000
0000
0000
,  // measure 2
0000
0000
0000
0000
,  // measure 3
0000
0000
0000
0000
,  // measure 4
1000
0000
1000
0000
,  // measure 5
0100
0000
0010
0000
,  // measure 6
0001
0000
0001
0000
,  // measure 7
M010
0000
10M1
0000
,  // measure 8
1000
0000
1000
0000
,  // measure 9
0000
0000
1001
0000
,  // measure 10
0001
0000
0001
0000
,  // measure 11
0000
0000
0110
0000
,  // measure 12
0010
0000
0010
0000
,  // measure 13
0000
0000
0110
0000
,  // measure 14
0100
0000
2002
0000
,  // measure 15
3003
0000
1000
1000
,  // measure 16
1000
1000
1000
0000
,  // measure 17
0010
0000
0100
0100
,  // measure 18
0100
0100
0100
0000
,  // measure 19
0001
0000
0010
0010
,  // measure 20
0010
0010
0010
0000
,  // measure 21
1001
0000
0001
0001
,  // measure 22
0001
0001
0001
0000
,  // measure 23
01M0
0000
1001
0000
,  // measure 24
0001
0000
0100
0000
,  // measure 25
0010
0000
1000
0000
,  // measure 26
1000
0000
0010
0000
,  // measure 27
0100
0000
0010
0000
,  // measure 28
0010
0000
1000
0000
,  // measure 29
0001
0000
0100
0000
,  // measure 30
0100
0000
0000
0000
0000
0000
0000
0000
0001
0000
0000
0000
0000
0000
0000
0M00
,  // measure 31
0000
1000
1000
0000
,  // measure 32
0001
0001
0001
0000
,  // measure 33
0100
0100
0100
0000
,  // measure 34
0010
0000
0000
0000
0000
0000
0000
0000
0010
0000
0000
0000
0000
0000
0000
000M
0000
0000
0000
0000
0000
0000
0000
0000
0000
0000
0000
0000
0000
0000
0000
0000
,  // measure 35
1001
0000
0001
0000
,  // measure 36
0100
0000
0001
0000
,  // measure 37
1001
0000
1000
0000
,  // measure 38
0100
0000
1000
0000
,  // measure 39
0110
0000
0010
0000
,  // measure 40
0001
0000
0010
0000
,  // measure 41
0110
0000
0100
0000
,  // measure 42
1000
0000
0100
0000
,  // measure 43
20M1
0000
3000
0001
,  // measure 44
0200
0000
0300
0001
,  // measure 45
0020
0000
0030
0100
,  // measure 46
1002
0000
0103
0000
,  // measure 47
011M
0000
0010
0000
,  // measure 48
1000
0000
0100
0000
,  // measure 49
0110
0000
0100
0000
,  // measure 50
0010
0000
0001
0000
,  // measure 51
1001
0000
1000
0000
,  // measure 52
0010
0000
0100
0000
,  // measure 53
0001
0000
0010
0000
,  // measure 54
M100
0000
0000
0M00
;

//---------------dance-single - ----------------
#NOTES:
     dance-single:
     :
     Hard:
     8:
     0.509673,0.723453,0.338602,0.206465,0.297309,432.000000,391.000000,41.000000,25.000000,9.000000,0.000000,0.509673,0.723453,0.338602,0.206465,0.297309,432.000000,391.000000,41.000000,25.000000,9.000000,0.000000:
0000
0000
0000
0000
,
0000
0000
0000
0000
,
0000
0000
0000
0000
,
0000
0000
0000
0000
,
1002
0000
0100
0000
1003
0010
0100
0001
,
0200
0000
0310
2000
0000
3001
0010
0100
,
2001
0000
0100
0000
3001
0100
1000
0100
,
M001
0000
0000
0000
0000
0000
0000
0000
0010
0000
0000
0000
0001
0000
0000
0000
0100
0000
0000
0000
1000
0000
0000
0000
0010
0000
0000
0000
0000
0000
0000
0000
010M
0000
0000
0000
0000
0000
0000
0000
0000
0000
0000
0000
0000
0100
0000
0000
1000
0000
0000
0000
0000
0000
0000
0000
0000
0000
0000
0000
0000
1000
0000
0000
,
0100
0010
0001
1000
0001
0000
1010
0010
,
0110
0000
0000
0000
0000
0000
0000
0000
0100
0000
0000
0000
0000
0000
0000
0000
0101
0000
0000
0000
0000
0000
0000
0000
0001
0000
0000
0000
0000
0000
0000
0000
1000
0000
0000
0000
0000
0000
0000
0000
0000
0000
0000
0000
0000
1000
0000
0000
0010
0000
0000
0000
0000
0000
0000
0000
0000
0000
0000
0000
0000
0010
0000
0000
,
1000
0100
0010
0001
1000
0000
1100
1000
,
1001
0000
0000
0000
0000
0000
0000
0000
0001
0000
0000
0000
0000
0000
0000
0000
0011
0000
0000
0000
0000
0000
0000
0000
0010
0000
0000
0000
0000
0000
0000
0000
0001
0000
0000
0000
0000
0000
0000
0000
0000
0000
0000
0000
0000
0001
0000
0000
0100
0000
0000
0000
0000
0000
0000
0000
0000
0000
0000
0000
0000
0100
0000
0000
,
0001
0010
0100
1000
0100
0000
0011
0001
,
1001
0000
0000
0000
0000
0000
0000
0000
1000
0000
0000
0000
0000
0000
0000
0000
1100
0000
0000
0000
0000
0000
0000
0000
0100
0000
0000
0000
0000
0000
0000
0000
0010
0000
0000
0000
0000
0000
0000
0000
0000
0000
0000
0000
0000
0010
0000
0000
0001
0000
0000
0000
0000
0000
0000
0000
0000
0000
0000
0000
0000
0001
0000
0000
,
0100
0000
0000
0000
0000
0000
0000
0000
0100
0000
0000
0000
0000
0000
0000
0000
0010
0000
0000
0000
0000
0000
0000
0000
0010
0000
0000
0000
0000
0000
0000
0000
1000
0000
0000
0000
0000
0000
0000
0000
1000
0000
0000
0000
0000
0000
0000
0000
0010
0000
0000
0000
0000
1000
0000
0000
0001
0000
0000
0000
0000
0010
0000
0000
,
0100
0000
0000
0000
0000
1000
0000
0000
0001
0000
0000
0000
0000
0000
0000
0000
1000
0000
0000
0000
0000
0010
0000
0000
0000
0000
0000
0000
0000
0000
0000
0000
2001
0000
0000
0000
0000
0000
0000
0000
0000
0000
0000
0000
0000
0000
0000
0000
0010
0000
0000
0000
0000
0000
0000
0000
0000
0000
0000
0000
0000
0000
0000
0000
,
3001
0001
0100
0100
1000
0100
0020
0000
,
0130
0000
0000
0000
0000
0000
0000
0000
0001
0000
0000
0000
0000
0000
0000
0000
1000
0000
0000
0000
0000
0001
0000
0000
0010
0000
0000
0000
0000
0000
0000
0000
1002
0000
0000
0000
0000
0000
0000
0000
0000
0000
0000
0000
0000
0000
0000
0000
0010
0000
0000
0000
0000
0000
0000
0000
0000
0000
0000
0000
0000
0000
0000
0000
,
1003
1000
0100
0100
0002
0000
0103
1000
,
0010
0000
0000
0000
0000
0000
0000
0000
0000
0000
0000
0000
0000
0000
0000
0000
1000
0000
0000
0000
0000
0001
0000
0000
0010
0000
0000
0000
0000
0000
0000
0000
0120
0000
0000
0000
0000
0000
0000
0000
0000
0000
0000
0000
0000
0000
0000
0000
0001
0000
0000
0000
0000
0000
0000
0000
0000
0000
0000
0000
0000
0000
0000
0000
,
0130
0010
0001
0100
0001
0010
1000
0000
,
0010
0000
0000
0000
0000
0000
0000
0000
0100
0000
0000
0000
0000
0000
0000
0000
1000
0000
0000
0000
0000
0010
0000
0000
0100
0000
0000
0000
0000
0000
0000
0000
0210
0000
0000
0000
0000
0000
0000
0000
0000
0000
0000
0000
0000
0000
0000
0000
1000
0000
0000
0000
0000
0000
0000
0000
0000
0000
0000
0000
0000
0000
0000
0000
,
0010
0000
0301
1000
0100
0010
0001
1000
,
0M10
0000
0110
0100
0001
0000
1001
1000
,
0100
0000
0010
0001
1000
0010
1000
0001
,
0100
0001
1000
0010
0200
0000
0310
0100
,
0001
0000
0000
0000
0000
0000
0000
0000
0010
0000
0000
0000
0000
0000
0000
0000
0100
0000
0000
0000
0000
0000
0000
0000
1000
0000
0000
0000
0000
0000
0000
0000
0100
0000
0000
0000
0000
0000
0000
0000
0100
0000
0000
0000
0000
0000
0000
0000
1000
0000
0000
0000
0000
0000
0000
0000
0100
0000
0000
0000
0000
1000
0000
0000
,
0001
0000
0000
0000
0000
0010
0000
0000
0001
0000
0000
0000
0000
0000
0000
0000
0100
0000
0000
0000
0000
0010
0000
0000
0100
0000
0000
0000
0000
0000
0000
0000
0120
0000
0000
0000
0000
0000
0000
0000
0000
0000
0000
0000
0000
0000
0000
0000
1030
0000
0000
0000
0000
0000
0000
0000
0100
0000
0000
0000
0000
0000
0000
0000
,
0001
0000
0001
0100
1000
0001
0010
0001
,
1000
0010
1000
0001
0100
0001
1000
0010
,
0200
0000
0000
0000
0310
0000
0100
0000
0001
0000
0001
0000
1000
0000
1000
00M0
,
1001
0000
0000
0000
0000
0000
0000
0000
0000
0000
0000
0000
0000
0000
0000
0000
0000
0000
0000
0000
0000
0000
0000
0000
0001
0000
0000
0000
0000
0000
0000
0000
0000
0000
0000
0000
0000
0000
0000
0000
0000
0000
0000
0000
0000
0000
0000
0000
0001
0000
0000
0000
0000
0000
0000
0000
0000
0000
0000
0000
0100
0000
0000
0000
0000
0000
0000
0000
0000
0000
0000
0000
0001
0000
0000
0000
0000
0000
0000
0000
0000
0000
0000
0000
0100
0000
0000
0000
0000
0000
0000
0000
0000
0000
0000
0000
0010
0000
0000
0000
0000
0000
0000
0000
0000
0000
0000
0000
0000
0000
0000
0000
0000
0000
1000
0000
0000
0000
0000
0000
0000
0000
0000
0000
0000
0000
0000
0000
0000
0000
0000
0000
1000
0000
0000
0000
0000
0000
0000
0000
0000
0000
0000
0000
0010
0000
0000
0000
0000
0000
0000
0000
1000
0000
0000
0000
0000
0000
0000
0000
0001
0000
0000
0000
0000
0000
0000
0000
0010
0000
0000
0000
0000
0000
0000
0000
0000
0000
0000
0000
0100
0000
0000
0000
0000
0000
0000
0000
0000
0000
0000
0000
,
1000
0000
0000
0000
1000
0000
0000
0000
1000
0000
0100
0000
1000
0000
0100
0000
0010
0000
0000
0001
0000
0000
0001
0000
0010
0000
0100
1000
0000
1000
0001
0000
,
0100
0000
0100
0000
0100
0001
0100
0001
1000
0000
1100
0010
0001
1000
0010
0100
,
0101
0000
0000
0000
0000
0000
0000
0000
0000
0000
0000
0000
0000
0000
0000
0000
0000
0000
0000
0000
0000
0000
0000
0000
1010
0000
0000
0000
0000
0000
0000
0000
0000
0000
0000
0000
0000
0000
0000
0000
0000
0000
0000
0000
0000
0000
0000
0000
1100
0000
0000
0000
0000
0000
0000
0000
0000
0000
0000
0000
0000
0000
0000
0000
0000
0000
0000
0000
0000
0000
0000
0000
0011
0000
0000
0000
0000
0000
0000
0000
0000
0000
0000
0000
0000
0000
0000
0000
0000
0000
M000
0000
0000
0000
0000
0000
0001
0000
0000
0000
0000
0000
0000
0000
0000
0000
0000
0000
0000
0000
0000
0000
0010
0000
0000
0000
0000
0000
0000
0000
0000
0000
0000
0000
0000
0000
0000
0000
0100
0000
0000
0000
0000
0000
0000
0000
0000
0000
0000
0000
0000
0000
0000
0000
1000
0000
0000
0000
0000
0000
0000
0000
0000
0000
0000
0000
0000
0000
0000
0000
0010
0000
0000
0000
0000
0000
0000
0000
0000
0000
0000
0000
0000
0000
0000
0000
0100
0000
0000
0000
0000
0000
0000
0000
0000
0000
0000
0000
0000
0000
0000
0000
,
0002
0000
0100
0000
1003
1000
0010
0010
,
0002
0000
0000
0000
0000
0000
0000
0000
0000
0000
0000
0000
0000
0000
0000
0000
0013
0000
0000
0000
0000
0000
0000
0000
0100
0000
0000
0000
0000
0000
0000
0000
0001
0000
0000
0000
0000
0000
0000
0000
1000
0000
0000
0000
0000
0000
0000
0000
0001
0000
0000
0000
0000
1000
0000
0000
0100
0000
0000
0000
0000
0000
0000
0000
,
2001
0000
0100
0000
3001
0001
0010
0010
,
1000
0010
0001
0010
0001
0100
1000
0100
,
0000
0101
0000
0011
0000
1010
0000
1100
,
0000
0011
0000
1010
0000
1100
0000
0001
,
0100
0110
0000
1001
0000
0011
0000
1100
,
1000
0100
0001
0100
0010
0001
0200
0310
,
10M1
0000
0001
0000
0011
0000
0010
0100
1000
0000
0020
1000
0000
0100
0000
1030
,
0001
0000
1000
0000
1010
0000
0010
0100
0001
0000
0200
0010
0000
0001
0000
0310
,
0100
0000
0010
0000
1001
0000
1000
0001
0010
0000
0200
1000
0000
0001
0000
1300
,
0002
0000
0100
0000
0023
0000
0130
1000
0010
0100
0001
0000
0000
0000
0001
1000
,
010M
1000
0000
0000
0010
0000
0100
0000
0001
0100
0000
0000
0010
0000
1000
0000
,
0001
0010
0000
0000
0020
0000
0001
0000
0000
0000
0100
0000
0000
0000
1000
0000
,
0130
1000
0000
0000
0010
0000
0100
0000
0001
0100
0000
0000
0010
0000
1000
0000
,
0100
0010
0002
1000
0000
0100
0000
0013
,
0100
0010
0000
0000
0001
0000
0100
0000
0001
1000
0000
0000
0100
0000
0010
0000
,
0100
0000
2000
0010
0000
0001
0000
3100
,
1000
1000
0100
0010
0001
0001
0100
0010
,
1M01
0000
0000
1000
0000
0010
0000
0100
0000
0000
0000
0000
000M
0000
0000
0000
;

//---------------dance-single - ----------------
#NOTES:
     dance-single:
     :
     Medium:
     5:
     0.381075,0.384334,0.305568,0.115620,0.016517,323.000000,286.000000,37.000000,14.000000,9.000000,0.000000,0.381075,0.384334,0.305568,0.115620,0.016517,323.000000,286.000000,37.000000,14.000000,9.000000,0.000000:
0000
0000
0000
0000
,
0000
0000
0000
0000
,
0000
0000
0000
0000
,
0000
0000
0000
0000
,
2000
0000
3200
0000
1300
0010
0100
0001
,
0100
0000
0010
1000
0000
0001
0000
0010
,
0002
0000
0203
0000
0301
0010
0100
1000
,
00M1
1001
0000
0000
210M
0000
0100
0000
,
3100
0010
0001
0100
0001
0000
1000
0010
,
0001
0010
1000
0010
0102
0000
0100
0000
,
0103
0010
1000
0100
1000
0000
0001
0010
,
1000
0010
0001
0100
0120
0000
1000
0000
,
0130
0001
0010
0001
1000
0000
1000
0010
,
0001
0010
0100
0001
0101
0000
1010
0000
,
1100
0000
0011
0000
0001
0001
1000
1000
,
0010
0010
0100
0000
1001
0000
0101
0000
,
1001
1000
0010
1000
0100
0000
0010
0010
,
0100
0100
0000
0100
0110
0000
0011
0000
,
0110
0100
1000
0100
0002
0000
0103
1000
,
0010
0100
0001
0000
1001
0000
1100
0000
,
1001
0001
0010
0001
0100
0000
0010
0010
,
0100
0100
0000
0100
0110
0000
1010
0000
,
1001
0000
0001
0010
0100
1000
0010
0100
,
M000
0000
1001
0000
0002
0000
0103
0010
,
0100
0000
0001
0010
0000
0100
0000
1000
,
0020
0000
1030
0010
0100
0000
0001
1000
,
0100
0010
0001
1000
0010
1000
0000
1000
,
0000
0001
0000
0001
0200
0000
0310
0000
,
1000
0100
0010
0010
0000
0100
0000
0100
,
2000
0000
3010
0100
0002
0000
1003
0100
,
2000
0000
0000
0000
3010
0000
0100
0000
0001
0000
0000
0000
1000
0000
0001
00M0
,
1000
1000
1000
1000
0000
0010
0100
0100
,
0001
0001
0001
0001
0000
0100
0010
0010
,
0100
0100
0100
0100
0000
0001
1000
1000
,
0010
0000
0000
0000
0000
0000
0010
0000
0000
0000
0000
0000
0010
0000
0000
0000
0000
0000
0010
0000
0000
0M00
0000
0000
0000
0000
0000
0000
0000
0000
0000
0000
0000
0000
0000
0000
1000
0000
0000
0000
0001
0000
0000
0000
1000
0000
0000
0000
,
0001
0000
1010
0000
1001
0001
0100
0001
,
0010
0000
0100
0100
0010
0010
0000
0010
,
0110
0000
1100
0000
0110
0010
0001
0010
,
1000
0010
0001
0100
0010
1000
0001
0000
,
0000
0001
0000
0100
0000
0001
0000
1001
,
0000
1000
0000
0100
0000
1000
0000
1001
,
0000
0001
0000
0010
0000
0001
0000
1001
,
1000
0100
0010
0000
0001
0010
0100
0010
,
M001
0000
0101
0000
0001
0010
0100
1000
,
1000
0000
1100
0000
1000
0010
0100
0001
,
1000
0000
1010
0000
1000
0100
0010
0001
,
0001
0000
0011
0010
0100
0000
0000
0100
,
1M01
0000
0001
0000
0100
0001
0010
0000
,
0100
0010
0001
1000
,
1001
0000
1000
0000
0010
1000
0100
0000
,
0010
0001
0010
0110
,
0100
0000
1000
0000
0001
0010
0001
0000
,
0100
0000
0010
1000
0000
0001
0000
0010
,
0100
0100
0010
0010
,
011M
0000
0000
M000
;

//---------------dance-single - ----------------
#NOTES:
     dance-single:
     :
     Easy:
     3:
     0.226521,0.271295,0.082586,0.066069,0.004129,192.000000,182.000000,10.000000,8.000000,9.000000,0.000000,0.226521,0.271295,0.082586,0.066069,0.004129,192.000000,182.000000,10.000000,8.000000,9.000000,0.000000:
0000
0000
0000
0000
,
0000
0000
0000
0000
,
0000
0000
0000
0000
,
0000
0000
0000
0000
,
0001
0001
0001
0100
,
0000
0010
1000
0001
,
1000
1000
1000
0100
,
011M
0000
M100
0100
,
0100
0100
0000
1000
,
0001
0010
0001
0001
,
0001
0001
0000
0100
,
0010
0001
1000
1000
,
1000
1000
0000
0100
,
0001
1000
0010
0010
,
0010
0010
0220
0000
,
0330
1001
0001
0010
,
0100
1000
0001
0001
,
1000
1000
0010
1000
,
0001
0100
0010
0010
,
0100
0100
0001
0100
,
0010
1000
0001
0001
,
1000
1000
0100
0010
,
0001
1000
1001
0110
,
10M1
0000
0002
0103
,
0010
0100
0001
0001
,
1000
1000
0100
0000
,
1000
1000
0001
0001
,
0010
0100
2000
3010
,
0100
0010
1000
1000
,
0001
0010
0100
0000
,
0010
0000
0000
0000
0001
0000
0000
0000
1000
0000
0000
0000
0010
0000
0000
000M
,
0100
0100
0001
0010
,
0100
0100
1000
0001
,
0010
0010
0001
1000
,
0010
0010
0M00
0000
,
1000
0100
0010
0001
,
1000
1000
0001
0001
,
0100
0001
1000
0010
,
0100
0100
0010
0010
,
1000
0010
0100
0001
,
1000
1000
0001
0001
,
0010
0100
1000
0001
,
0100
0100
0010
0010
,
200M
0100
0100
3100
,
0200
0010
0010
0310
,
0020
0001
0001
0031
,
0002
1000
1003
0000
,
10M1
0000
0001
0000
,
0100
0010
0010
0010
,
1000
0000
1001
0000
,
1000
0100
0100
0100
,
0010
0000
0110
0000
,
0010
0001
0001
0001
,
1000
1000
1000
0010
,
1M01
0000
0000
M000
;
