#TITLE:DOMINO DANCING;
#SUBTITLE:;
#ARTIST:Pet Shop Boys;
#TITLETRANSLIT:;
#SUBTITLETRANSLIT:;
#ARTISTTRANSLIT:;
#CREDIT:;
#BANNER:DOMINO DANCING.png;
#BACKGROUND:DOMINO DANCING-bg.png;
#LYRICSPATH:;
#CDTITLE:;
#MUSIC:DOMINO DANCING.mp3;
#OFFSET:-0.044;
#SAMPLESTART:54.589;
#SAMPLELENGTH:12.000;
#SELECTABLE:YES;
#BPMS:0.000=110.020;
#STOPS:;
#BGCHANGES:;

//---------------dance-single - ----------------
#NOTES:
     dance-single:
     :
     Hard:
     7:
     0.318,0.313,0.125,0.063,0.042:
0000
0000
0000
0000
,
0000
0000
0000
0000
,
0000
0000
0000
0000
,
0000
0000
0000
0000
,
1000
0000
0100
0000
0010
0001
0010
0000
,
0100
0000
1000
0000
0010
0100
0001
0000
,
1000
0000
0001
0000
0100
0010
1000
0000
,
0100
0000
0010
0000
0001
0100
0010
0100
,
0001
0000
1000
0000
0010
0100
0001
0100
,
0010
0000
0000
0000
1000
0000
0000
0000
0010
0000
0000
0000
0100
0001
0000
0100
,
0000
0000
0001
0000
1000
0100
0010
0001
,
0100
0000
0010
0000
1000
0100
0010
0001
,
0100
0010
1000
0001
,
0100
0010
0100
0000
0001
0010
0100
1000
,
0010
0000
0100
0000
0001
1000
0010
0100
,
0010
0000
1000
0000
0001
0100
0001
1000
,
0010
0000
1010
0000
0100
0001
0100
0000
,
0010
0000
1000
0000
0100
0010
0001
0100
,
0010
0000
1000
0000
0001
0010
0100
0000
,
1000
0000
0001
0000
0100
0010
0100
0001
,
1000
0101
1010
1001
,
0100
0000
0010
0000
0100
0001
0100
0010
,
1000
0100
0010
0001
,
0010
1100
1001
0100
,
0010
0000
0001
0100
0001
1000
0010
0000
,
0100
0000
0001
0000
1000
0100
1000
0100
,
0010
0001
0010
0100
,
1000
0010
0100
0001
1000
0000
0010
0000
,
0100
0000
0001
1000
0001
0010
0100
1000
,
0000
1100
1001
0101
,
0010
0000
1000
0001
0100
0001
1000
0000
,
0010
0000
0000
0000
0101
0000
0000
0000
1000
0001
0000
0000
1000
0010
0000
0000
,
0100
0000
0000
0000
0001
0000
0000
0001
0000
0000
0000
0000
1000
0000
0000
0000
,
0010
0000
1000
0200
0000
0320
0000
0031
,
0000
0000
0001
0000
0100
0000
0000
0101
0000
0000
1000
0000
0010
0000
0000
0000
,
0100
0010
1000
0002
0000
0103
0001
0100
,
0010
0000
0000
0000
1000
0000
0000
1000
0000
0000
0001
0000
0010
0000
0000
0000
,
0100
0000
1000
2000
0000
3002
0000
0103
,
0000
0000
0100
0000
0010
0000
0000
1010
0000
0000
0001
0000
0001
0000
0000
0000
,
1000
0100
0010
0002
0000
0103
0001
1000
,
0010
0000
0000
0000
;

//---------------dance-single - ----------------
#NOTES:
     dance-single:
     :
     Medium:
     5:
     0.252,0.272,0.042,0.000,0.042:
0000
0000
0000
0000
,
0000
0000
0000
0000
,
0000
0000
0000
0000
,
0000
0000
0000
0000
,
0100
0010
1000
0001
,
0100
0000
0010
0000
1000
0100
1000
0000
,
0001
0100
0001
1000
,
0010
0000
0100
0000
0001
0000
1000
1000
,
0010
0100
0010
1000
,
0001
0000
0000
0000
0100
0000
0000
0000
0010
0000
0000
0000
1000
0000
0000
1000
,
0000
0000
0001
0000
0100
0000
0010
1000
,
0010
0000
0100
0000
0001
0010
0001
1000
,
1000
0010
0100
0001
,
1000
1000
0001
0100
,
0001
0000
1000
0000
0010
1000
0010
0100
,
0000
0100
0001
0001
,
0010
0010
0100
0100
,
1000
1000
0010
0100
,
0001
0000
1000
0000
0010
0100
0010
0000
,
1000
0000
0000
0000
0001
0000
0000
0000
0100
0000
0000
0000
0010
0000
0000
0010
,
0000
1000
1001
0010
,
0100
0001
1000
0010
,
0100
0001
0010
0100
,
1000
0010
0110
0100
,
0001
0000
1000
0000
0001
0100
0001
0000
,
1000
0000
0010
0000
0100
0001
0100
0000
,
0010
1000
0010
0100
,
0001
0000
1000
0010
1000
0000
0100
0000
,
0010
0000
0001
0000
0001
0000
0100
0100
,
0000
0010
1010
0101
,
0010
1000
0001
1000
,
0100
0000
0000
0000
0010
0000
0000
0000
0001
0100
0000
0000
0001
0100
0000
0000
,
0010
0000
0000
0000
1000
0000
0000
1000
0000
0000
0000
0000
0100
0000
0000
0000
,
0010
0000
0001
0100
0000
0100
0000
0010
,
0000
0000
0010
0000
1000
0000
0000
1000
0000
0000
0000
0000
0100
0000
0000
0000
,
0010
0001
0100
0001
0000
0001
0000
0000
,
1000
0000
0000
0000
0010
0000
0000
0010
0000
0000
0100
0000
0001
0000
0000
0000
,
0001
0000
1000
1000
0000
0010
0000
0100
,
0000
0000
0100
0000
0001
0000
0000
0001
0000
0000
1000
0000
0100
0000
0000
0000
,
0010
0001
0100
0010
0000
1000
0001
1000
,
1000
0000
0000
0000
;

//---------------dance-single - ----------------
#NOTES:
     dance-single:
     :
     Easy:
     3:
     0.154,0.186,0.000,0.021,0.000:
0000
0000
0000
0000
,
0000
0000
0000
0000
,
0000
0000
0000
0000
,
0000
0000
0000
0000
,
0010
0100
0010
1000
,
0001
0100
0001
1000
,
0010
0100
0010
1000
,
0001
0100
0001
1000
,
0010
0000
0000
0100
,
0010
0100
0000
0001
,
0001
1000
0010
1000
,
1000
0010
0100
0001
,
2000
0000
0000
0000
,
0000
0000
0000
0000
0000
3000
0000
0000
,
0020
0000
0000
0000
,
0000
0000
0000
0030
,
0100
0001
0100
0010
,
1000
0010
0100
0001
,
0000
1000
0010
1000
,
0000
0001
0001
0000
,
0000
0100
0001
0100
,
0000
0010
0010
0000
,
0000
1000
0001
1000
,
0000
0010
0010
0100
,
0000
0001
0010
0100
,
0000
1000
1000
0000
,
0000
0100
0010
0001
,
0000
0100
0100
0000
,
0000
0001
0010
0001
,
0000
0100
0010
0000
,
0000
1000
0100
1000
,
0000
0010
0100
0000
,
0001
1000
0010
0100
,
0001
0000
0000
1000
0000
0000
0000
0001
,
0000
1000
0010
0100
,
0001
0000
0000
1000
0000
0000
0000
0000
,
0010
0100
0001
1000
,
0010
0000
0000
0100
0000
0010
0000
0100
,
0000
0001
1000
0001
,
1000
0000
0000
0010
0000
0100
0000
0000
;

//---------------dance-single - Copied from ----------------
#NOTES:
     dance-single:
     Copied from:
     Beginner:
     1:
     0.048,0.061,0.000,0.000,0.000: // measure 1
0000
0000
0000
0000
,  // measure 2
0000
0000
0000
0000
,  // measure 3
0000
0000
0000
0000
,  // measure 4
0000
0000
0000
0000
,  // measure 5
0001
0000
0000
0000
,  // measure 6
1000
0000
0000
0000
,  // measure 7
0001
0000
0000
0000
,  // measure 8
1000
0000
0000
0000
,  // measure 9
0010
0000
0000
0000
,  // measure 10
0000
0000
0000
0000
,  // measure 11
0100
0000
0000
0000
,  // measure 12
0000
0000
0000
0000
,  // measure 13
0001
0000
0000
0000
,  // measure 14
0000
0000
0000
0000
,  // measure 15
1000
0000
0000
0000
,  // measure 16
0000
0000
0000
0000
,  // measure 17
0010
0000
0000
0000
,  // measure 18
0010
0000
0000
0000
,  // measure 19
0100
0000
0000
0000
,  // measure 20
0100
0000
0000
0000
,  // measure 21
0001
0000
0000
0000
,  // measure 22
0001
0000
0000
0000
,  // measure 23
1000
0000
0000
0000
,  // measure 24
1000
0000
0000
0000
,  // measure 25
0010
0000
0000
0000
,  // measure 26
0010
0000
0000
0000
,  // measure 27
0100
0000
0000
0000
,  // measure 28
0100
0000
0000
0000
,  // measure 29
0001
0000
0000
0000
,  // measure 30
0001
0000
0000
0000
,  // measure 31
1000
0000
0000
0000
,  // measure 32
1000
0000
0000
0000
,  // measure 33
0100
0000
0000
0000
,  // measure 34
0010
0000
0000
0000
,  // measure 35
0000
0001
0000
0000
,  // measure 36
0010
0000
0000
0000
,  // measure 37
0100
0000
0000
0000
,  // measure 38
1000
0000
0000
0000
,  // measure 39
0000
0010
0000
0000
,  // measure 40
0100
0000
0000
0000
;
