#TITLE:tundramania;
#SUBTITLE:;
#ARTIST:fractilx;
#TITLETRANSLIT:;
#SUBTITLETRANSLIT:;
#ARTISTTRANSLIT:;
#GENRE:Trance;
#CREDIT:;
#BANNER:[Round K] - tundramania.png;
#BACKGROUND:[Round K] - tundramania-bg.png;
#LYRICSPATH:;
#CDTITLE:cdtitle.png;
#MUSIC:[Round K] - tundramania.ogg;
#OFFSET:-0.000000;
#SAMPLESTART:67.609001;
#SAMPLELENGTH:13.521126;
#SELECTABLE:YES;
#BPMS:0.000000=142.000000
;
#STOPS:
;
#BGCHANGES:;
#KEYSOUNDS:;
#ATTACKS:;

//---------------dance-single - ----------------
#NOTES:
     dance-single:
     :
     Challenge:
     9:
     0.478094,0.539818,0.059158,0.895823,0.270437,396.000000,389.000000,7.000000,106.000000,0.000000,0.000000,0.478094,0.539818,0.059158,0.895823,0.270437,396.000000,389.000000,7.000000,106.000000,0.000000,0.000000:
0000
0000
0000
0000
,
0000
0000
0000
0000
,
0000
0000
0000
0000
,
0000
0000
0000
0000
,
0001
0000
0000
0100
0000
0000
0010
0000
0000
0100
0000
0000
1000
0000
0100
0000
,
0001
0000
0000
0100
0000
0000
0010
0000
0000
0100
0000
0000
1000
0000
0100
0000
,
0002
0000
0023
0000
2030
0000
3020
0000
0030
0100
0000
0000
0010
0000
0001
0000
,
2002
3003
0000
1001
,
2000
0000
3020
0000
0032
0000
0023
0000
0030
1000
0000
1000
0100
0000
0010
0000
,
0001
0000
0000
0000
0000
0000
0100
0000
0000
0000
0000
0000
1000
0000
0000
0000
0000
0000
0100
0000
0000
0000
0100
0000
0020
0030
2000
3000
0000
0000
2000
3000
,
0002
0000
0023
0000
2030
0000
3020
0000
0030
0001
0000
0001
0100
0000
0010
0000
,
1000
0000
0000
0100
0000
0000
0001
0000
0000
0100
0000
0100
1000
0001
1000
0000
,
0002
0000
0203
0000
2300
0000
3200
0000
0300
0001
0000
0001
0010
0000
0100
0000
,
1000
0000
0000
0000
0000
0000
0010
0000
0000
0000
0000
0000
0001
0000
0000
0000
0000
0000
0010
0000
0000
0000
0010
0000
0200
0300
0002
0003
0000
0000
0002
0003
,
2000
3200
0302
0203
1300
0010
0100
0001
,
0040
0400
0000
0000
0000
0000
0000
0000
0000
0000
0000
0000
0330
0000
0001
0000
,
0200
2300
3200
0302
0003
0002
0003
0020
,
0030
0020
0030
2000
3000
2000
3000
0200
,
0302
0023
0032
0203
0300
0200
0300
2000
,
3000
2000
3000
0020
0030
0020
0030
0002
,
0203
0320
2030
3200
0300
0200
0300
0002
,
0003
0002
0003
0020
0030
0020
0030
2000
,
3000
0000
0000
0000
0000
0000
0000
0000
0200
0000
0000
0000
0000
0000
0000
0300
0000
0000
0000
0000
0000
0000
0000
0000
0020
0000
0000
0000
0000
0000
0030
0000
0000
0000
0000
0000
0000
0000
0000
0000
0002
0000
0000
0000
0000
0003
0000
0000
0000
0000
0000
0000
0000
0000
0000
0000
0200
0000
0000
0000
0300
0000
0000
0000
,
0000
0000
0000
0000
0000
0000
0000
0000
0020
0000
0000
0030
0000
0000
0000
0000
0000
0000
0000
0000
0000
0000
0000
0000
2000
0000
3000
0000
0000
0000
0000
0000
0000
0000
0000
0000
0000
0000
0000
0000
0002
0003
0000
0000
0000
0000
0000
0000
0000
0000
0000
0000
0000
0000
0000
0000
0000
0000
0000
0000
0000
0000
0000
0000
,
0110
2001
0000
0100
,
3002
0010
2003
0010
,
3002
0000
0100
1000
2003
0000
3020
0000
,
0000
1000
0230
1000
,
0302
0010
2003
0010
,
3002
0203
0320
2030
,
3200
0302
0023
2030
,
0000
0000
0010
0000
0000
3010
0100
0001
,
1000
0000
1000
0100
0001
0000
0001
0010
,
1000
0000
0000
0000
0100
0000
0000
0000
0010
0000
0001
0100
0000
0010
1000
0000
,
0001
0100
1000
0010
,
0001
0000
0000
0000
0001
0000
0000
0000
0100
0000
0000
0010
0000
0010
1000
0000
,
0001
0010
0001
0010
1000
0010
1000
0010
,
1000
0100
1000
0100
0001
0100
0001
0010
,
0004
4000
0000
0000
0000
0000
0000
0000
0000
0000
0000
0000
0000
0000
3003
0000
,
2002
0000
0000
0000
3003
0000
0000
0001
0000
0001
0100
0000
0010
0000
1000
0000
,
0001
0100
0010
0100
0001
0010
0100
0010
,
0001
0000
0100
0000
1000
0000
0100
0000
0001
0000
0010
0000
0100
0000
1000
0001
,
1000
0100
0010
0001
0100
0001
0010
1000
,
0010
0000
0001
0000
0100
0000
0010
0000
1000
0000
0001
0100
0000
0100
0010
0000
,
1000
0100
0010
0100
1000
0010
0100
0010
,
1000
0000
0100
0010
0100
0000
0001
0000
0100
0000
1000
0000
0010
0000
0100
0001
,
0100
0010
1000
0100
0001
0100
1000
0010
,
0100
0000
0001
0010
0000
0000
0010
0100
0000
0000
0100
1000
0000
0001
0100
0010
,
1000
0100
0001
0100
1000
0010
0001
0010
,
1000
0000
0100
0000
1000
0000
0010
0000
0001
0000
0010
0000
1000
0000
0100
0010
,
0100
1000
0001
0100
1000
0100
0001
0010
,
0001
0000
0100
0000
1000
0000
0100
0000
0001
0000
0010
0100
0000
0100
1000
0000
,
0001
0000
0100
0000
1000
0000
0100
0001
0100
0000
0010
0000
1000
0000
0100
0000
,
0010
0000
0001
0100
0000
0000
0100
0010
0000
0000
0010
1000
0000
1000
0001
0000
,
1000
0100
0001
0100
1000
0010
0001
0010
,
1000
0000
0100
0010
0000
0010
0001
1000
0000
0000
0001
0100
0000
0100
0010
1000
,
0002
0203
2300
3200
0300
0002
0013
0002
,
0003
0000
2000
0000
3010
0000
2000
0000
3000
0000
0002
0100
0003
0100
0020
0000
,
2030
3200
0302
0203
0300
2000
3010
2000
,
3000
0000
0002
0000
0013
0000
0002
0000
0003
0000
2000
0010
3000
0010
0200
0000
,
0301
1000
0100
1000
0001
1000
0010
1000
,
0100
0001
0100
1000
0010
0001
0010
1000
,
0400
0040
0000
0000
0000
0000
0000
0000
0000
0000
0000
0000
0000
0000
0330
0000
,
2002
0000
0000
0000
3003
0000
0000
1000
0100
0010
0001
0000
0100
0000
0110
0000
;

//---------------dance-single - ----------------
#NOTES:
     dance-single:
     :
     Hard:
     7:
     0.393582,0.431854,0.050707,0.752153,0.050707,326.000000,320.000000,6.000000,89.000000,0.000000,0.000000,0.393582,0.431854,0.050707,0.752153,0.050707,326.000000,320.000000,6.000000,89.000000,0.000000,0.000000:
0000
0000
0000
0000
,
0000
0000
0000
0000
,
0000
0000
0000
0000
,
0000
0000
0000
0000
,
1000
0100
1000
0100
,
0001
0100
0001
0100
,
1000
0010
1000
0010
,
2002
3003
0000
1001
,
2000
0000
3020
0000
0230
0000
0302
0000
0003
1000
0000
0000
0010
0000
1000
0000
,
0001
0000
0000
0010
0000
0000
0001
0000
0000
1000
0000
0000
0010
0000
0100
0000
,
0002
0000
0023
0000
0230
0000
2300
0000
3000
0001
0000
0000
0010
0000
0001
0000
,
1000
0000
0000
0010
0000
0000
1000
0000
0000
0001
0000
0000
0010
0000
0100
0000
,
0020
0000
0032
0000
2003
0000
3020
0000
0030
0100
0000
0000
0001
0000
1000
0000
,
0100
0000
0000
0010
0000
0000
0100
0000
0000
1000
0000
0000
0001
0000
0100
0000
,
0020
0000
2030
0000
3002
0000
0023
0000
0030
0100
0000
0000
0010
0000
0001
0000
,
1000
0010
1000
0010
1000
0010
0100
0001
,
2000
3200
0320
0032
0003
0002
0003
0200
,
0300
0200
0300
0020
0030
0020
0030
2000
,
3002
0203
0320
2030
3000
2000
3000
0200
,
0300
0200
0300
0020
0030
0020
0030
0002
,
0203
0320
2030
3200
0300
0200
0300
0020
,
0030
0020
0030
0002
0003
0002
0003
2000
,
3000
0000
0000
0000
0000
0000
0000
0000
0020
0000
0000
0000
0000
0000
0000
0030
0000
0000
0000
0000
0000
0000
0000
0000
0200
0000
0000
0000
0000
0000
0300
0000
0000
0000
0000
0000
0000
0000
0000
0000
0002
0000
0000
0000
0000
0003
0000
0000
0000
0000
0000
0000
0000
0000
0000
0000
2000
0000
0000
0000
3000
0000
0000
0000
,
0000
0000
0000
0000
0000
0000
0000
0000
0002
0000
0000
0003
0000
0000
0000
0000
0000
0000
0000
0000
0000
0000
0000
0000
2000
0000
3000
0000
0000
0000
0000
0000
0000
0000
0000
0000
0000
0000
0000
0000
0002
0003
0000
0000
0000
0000
0000
0000
0000
0000
0000
0000
0000
0000
0000
0000
0000
0000
0000
0000
0000
0000
0000
0000
,
0110
2000
0000
3000
,
0020
0030
0200
0300
,
0002
0000
0003
2000
3200
0000
0320
0000
,
0000
0030
0002
0003
,
2000
3000
0002
0003
,
2000
3200
0302
0023
,
2030
3200
0320
0032
,
0000
0000
0003
0000
0000
0001
0100
0010
,
1000
0000
0001
0100
0001
0000
1000
0100
,
1000
0000
0010
0000
0100
0001
0010
0001
,
0100
0010
1000
0001
,
0010
0000
0010
0000
0100
0000
0010
0001
,
1000
0010
0000
1000
0100
0000
0010
0000
,
0001
0000
0100
0010
0000
1000
0001
1000
,
0100
0010
0100
0010
0100
0010
0100
0000
,
2002
0000
0000
0000
3003
0000
0000
0001
0000
0000
0100
0000
0010
0000
1000
0000
,
0001
1000
0100
1000
0000
0100
0001
0100
,
0000
0001
0010
0001
0000
0010
1000
0010
,
0000
1000
0100
1000
0000
0100
0001
0100
,
0000
0001
0010
0001
0000
0010
1000
0010
,
0000
0001
0100
0001
0000
0100
1000
0100
,
0000
1000
0010
1000
0000
0010
0001
0010
,
0000
0001
0100
0001
0000
0100
1000
0100
,
0000
1000
0010
1000
0000
0010
0001
0010
,
0000
0001
0010
1000
0000
0010
1000
0100
,
0000
1000
0100
0001
0000
0100
0001
0010
,
0000
0001
0010
1000
0000
0010
1000
0100
,
0000
1000
0100
0001
0000
0100
0001
0010
,
0000
1000
0010
0001
0000
0010
0001
0100
,
0000
0001
0100
1000
0000
0100
1000
0010
,
0000
1000
0010
0001
0000
0010
0001
0100
,
0000
0001
0100
1000
0000
0100
1000
0010
,
2000
3200
0320
0032
0003
0010
0001
0100
,
0000
0010
1000
0100
0000
0010
0001
1000
,
0002
0203
0320
2030
3000
0010
1000
0100
,
0000
0010
0001
0100
0000
0010
1000
0100
,
0020
0032
2003
3020
0030
1000
0010
0100
,
0000
0001
0010
0100
0000
1000
0010
1000
,
0100
0010
0100
0010
0100
0010
0100
0000
,
2002
0000
0000
0000
3003
0000
0000
0001
0100
0000
0010
0000
1000
0000
1001
0000
;

//---------------dance-single - ----------------
#NOTES:
     dance-single:
     :
     Medium:
     5:
     0.299412,0.377872,0.050707,0.228181,0.000000,248.000000,242.000000,6.000000,27.000000,0.000000,0.000000,0.299412,0.377872,0.050707,0.228181,0.000000,248.000000,242.000000,6.000000,27.000000,0.000000,0.000000:
0000
0000
0000
0000
,
0000
0000
0000
0000
,
0000
0000
0000
0000
,
0000
0000
0000
0000
,
1000
1000
0100
0100
,
0001
0001
0010
0010
,
1000
1000
0100
0100
,
2002
3003
0000
1001
,
0001
0000
0100
0000
0001
0000
0100
0001
,
0010
0000
0001
0000
0010
0000
0001
0010
,
1000
0000
0010
0000
1000
0000
0010
1000
,
0100
0000
1000
0000
0100
0000
1000
0100
,
0001
0000
0100
0000
0001
0000
0010
0001
,
1000
0000
0100
0000
1000
0000
0010
1000
,
0100
1000
0010
0100
,
0001
1000
0001
1000
0001
1000
0001
0000
,
2002
0000
0000
3003
0000
0001
0000
1000
,
0000
0001
0000
0100
0000
0001
0000
0100
,
0000
1000
0000
0100
0000
1000
0000
0100
,
0000
1000
0000
0010
0000
1000
0000
0010
,
0000
0001
0000
0010
0000
0001
0000
0010
,
0000
0001
0000
0100
0000
0001
0000
0100
,
0000
0010
0000
1000
0000
0010
0000
1000
,
0000
0001
0000
1000
0000
0001
0000
0000
,
1001
2000
0000
3000
,
0020
0030
0200
0300
,
0002
0000
0003
0020
0230
0000
2300
0000
,
0000
3000
0002
0003
,
2000
3000
0002
0003
,
2000
3020
0230
0302
,
0023
0230
2300
3002
,
0000
0000
0003
0000
0000
0001
0100
0010
,
1000
1000
0010
0010
,
0100
0100
0001
0001
,
0010
0010
0100
0100
,
1000
1000
0001
0001
,
1000
0010
0001
0010
,
1000
0100
0001
0100
,
1000
0001
1000
0001
1000
0001
1000
0000
,
2002
0000
0000
3003
,
0000
0001
0000
0001
0000
0100
0000
0100
,
0000
1000
0000
1000
0000
0010
0000
0010
,
0000
0001
0000
0001
0000
0100
0000
0100
,
0000
1000
0000
1000
0000
0010
0000
0010
,
0000
1000
0000
1000
0000
0100
0000
0100
,
0000
0001
0000
0001
0000
0010
0000
0010
,
0000
1000
0000
1000
0000
0100
0000
0100
,
0000
0001
0000
0001
0000
0010
0000
0010
,
0000
0001
0000
0100
0000
0001
0000
0100
,
0000
1000
0000
0100
0000
1000
0000
0100
,
0000
1000
0000
0010
0000
1000
0000
0010
,
0000
0001
0000
0010
0000
0001
0000
0010
,
0000
0001
0000
0100
0000
1000
0000
0010
,
0000
0001
0000
0100
0000
1000
0000
0010
,
0000
1000
0000
0100
0000
0001
0000
0010
,
0200
0000
0000
0300
,
1000
0100
0010
0001
0000
1000
0000
1000
,
0000
0001
0000
0001
0000
1000
0000
1000
,
0001
0100
0010
1000
0000
0001
0000
0001
,
0000
1000
0000
1000
0000
0001
0000
0001
,
0010
0100
1000
0001
0000
0100
0000
0100
,
0000
0010
0000
0010
0000
0100
0000
0001
,
1000
0001
1000
0001
1000
0001
1000
0000
,
2002
0000
3003
0000
0010
1000
0100
0001
;

//---------------dance-single - ----------------
#NOTES:
     dance-single:
     :
     Easy:
     3:
     0.185925,0.242918,0.042256,0.185925,0.000000,154.000000,149.000000,5.000000,22.000000,0.000000,0.000000,0.185925,0.242918,0.042256,0.185925,0.000000,154.000000,149.000000,5.000000,22.000000,0.000000,0.000000:
0000
0000
0000
0000
,
0000
0000
0000
0000
,
0000
0000
0000
0000
,
0000
0000
0000
0000
,
1000
0000
1000
0000
,
0001
0000
0001
0000
,
0100
0000
0010
0000
,
2002
0000
0000
3003
,
0001
0001
0001
0000
,
0010
0010
0010
0000
,
1000
1000
1000
0000
,
0100
0100
0100
0000
,
0001
0010
1000
0000
,
1000
0100
0001
0000
,
0001
1000
0001
0000
,
1000
0001
1000
0001
,
2002
0000
0000
3003
0000
0000
0000
0000
,
1000
0000
0000
0000
,
0200
0000
0000
0300
0000
0000
0000
0000
,
0001
0000
0000
0000
,
0020
0000
0000
0030
0000
0000
0000
0000
,
1000
0000
0000
0000
,
0200
0000
0000
0300
0000
0000
0000
0000
,
0200
0000
0000
0300
,
1000
0002
0000
0003
,
0200
0300
0020
0030
,
2000
3000
0001
0020
,
0000
0030
0002
0003
,
2000
3000
0002
0003
,
1000
0010
1000
0001
,
1000
0100
0010
0002
,
0000
0003
0000
1000
,
0001
0000
0100
0000
,
0010
0010
1000
1000
,
0001
0001
0010
0100
,
0010
0000
0010
0001
,
1000
0000
0001
0100
,
0010
0000
1000
0000
,
0001
1000
0001
1000
,
2002
0000
0000
3003
,
1000
0100
1000
0000
,
0100
0001
0100
0000
,
0001
0010
0001
0000
,
0010
1000
0010
0000
,
1000
0100
1000
0000
,
0100
0001
0100
0000
,
0001
0010
0001
0000
,
0010
1000
0010
0000
,
1000
0100
0001
0000
,
0001
0010
1000
0000
,
0001
0100
1000
0000
,
1000
0010
0001
0000
,
0100
0010
1000
0000
,
0100
0010
0001
0000
,
1000
0010
0001
0100
,
2000
0000
0000
3000
,
0001
0100
0001
0000
,
0100
0000
0100
0000
,
1000
0100
1000
0000
,
0100
0000
0100
0000
,
0001
0010
0001
0000
,
0010
0000
0100
0000
,
1000
0010
1000
0000
,
2002
0000
0000
0000
3003
0000
0000
0110
;

//---------------dance-single - ----------------
#NOTES:
     dance-single:
     :
     Beginner:
     1:
     0.072438,0.107964,0.033805,0.092963,0.000000,60.000000,56.000000,4.000000,11.000000,0.000000,0.000000,0.072438,0.107964,0.033805,0.092963,0.000000,60.000000,56.000000,4.000000,11.000000,0.000000,0.000000:
0000
0000
0000
0000
,
0000
0000
0000
0000
,
0000
0000
0000
0000
,
0000
0000
0000
0000
,
1000
0000
0000
0000
,
0001
0000
0000
0000
,
0100
0000
0000
0000
,
2002
0000
3003
0000
,
0001
0000
0000
0000
,
0010
0000
0000
0000
,
1000
0000
0000
0000
,
0100
0000
0000
0000
,
0001
0000
0000
0000
,
0010
0000
0000
0000
,
1000
0000
0000
0000
,
0100
0000
0000
0000
,
2002
0000
0000
3003
0000
0000
0000
0000
,
0000
0000
0000
0000
,
2000
0000
0000
3000
0000
0000
0000
0000
,
0000
0000
0000
0000
,
0002
0000
0000
0003
0000
0000
0000
0000
,
0000
0000
0000
0000
,
2000
0000
0000
3000
0000
0000
0000
0000
,
0000
0000
0000
0000
,
0001
0000
0000
0000
,
0100
0000
0000
0000
,
0010
0000
0000
0000
,
1000
0000
0000
0000
,
0001
0000
0000
0000
,
0010
0000
0000
0000
,
0100
0000
0000
0000
,
1000
0000
0000
0000
,
0001
0000
0000
0000
,
0100
0000
0000
0000
,
1000
0000
0000
0000
,
0010
0000
0000
0000
,
0001
0000
0000
0000
,
0100
0000
0000
0000
,
0010
0000
0000
0000
,
2002
0000
3003
0000
,
1000
0000
0000
0000
,
0100
0000
0000
0000
,
0001
0000
0000
0000
,
0010
0000
0000
0000
,
1000
0000
0000
0000
,
0100
0000
0000
0000
,
0001
0000
0000
0000
,
0010
0000
0000
0000
,
1000
0000
0000
0000
,
0010
0000
0000
0000
,
0001
0000
0000
0000
,
0100
0000
0000
0000
,
1000
0000
0000
0000
,
0010
0000
0000
0000
,
0001
0000
0000
0000
,
0100
0000
0000
0000
,
1000
0000
0000
0000
,
1000
0000
0000
0000
,
0001
0000
0000
0000
,
0001
0000
0000
0000
,
0100
0000
0000
0000
,
0010
0000
0000
0000
,
0100
0000
0000
0000
,
2002
0000
0000
0000
0000
0000
0000
3003
;
