#TITLE:Ecstasy of Asia;
#SUBTITLE:;
#ARTIST:StripE;
#TITLETRANSLIT:;
#SUBTITLETRANSLIT:;
#ARTISTTRANSLIT:;
#GENRE:;
#CREDIT:;
#BANNER:;
#BACKGROUND:;
#LYRICSPATH:;
#CDTITLE:;
#MUSIC:[Round K] - Ecstasy of Asia.ogg;
#OFFSET:-0.008000;
#SAMPLESTART:79.436279;
#SAMPLELENGTH:13.241379;
#SELECTABLE:YES;
#BPMS:0.000000=145.000000
;
#STOPS:
;
#BGCHANGES:;
#KEYSOUNDS:;
#ATTACKS:;

//---------------dance-single - ----------------
#NOTES:
     dance-single:
     :
     Hard:
     9:
     0.537062,0.658368,0.561109,0.439536,0.317962,402.000000,342.000000,60.000000,47.000000,0.000000,0.000000,0.537062,0.658368,0.561109,0.439536,0.317962,402.000000,342.000000,60.000000,47.000000,0.000000,0.000000:
0000
0000
0000
0000
,
0000
0000
0000
0000
,
0000
0000
0000
0000
,
0000
0000
0000
0000
,
0100
0000
1001
0000
0010
0000
1001
0100
,
0010
0011
0100
1100
,
0010
0000
0101
0000
0010
0000
1100
0001
,
0200
0000
0000
0300
,
1001
0000
0010
0100
0000
0201
0000
0310
,
1000
0100
1100
0000
0010
0001
0011
0000
,
0110
0000
0001
1000
0000
2100
0000
3001
,
0100
0010
0101
0000
0010
1000
1100
0000
,
0110
0000
0001
1000
0000
0120
0000
0031
,
0100
0010
1001
0000
0001
0010
1100
0000
,
1001
0000
0100
0010
0000
0012
0000
1003
,
0010
1000
0101
0000
0010
0001
1100
0000
,
1001
0000
1000
0010
0000
0021
0000
1030
,
0100
1000
1010
0000
0100
0001
0011
0000
,
1001
0000
0100
0001
0000
0201
0000
1300
,
0010
0100
0101
0000
0001
1000
1001
0000
,
1100
0000
0010
0001
0000
0021
0000
1030
,
0010
0001
1001
0000
0010
0100
0110
0000
,
1010
0000
0000
0000
0100
0000
0000
0101
0000
0000
1001
0000
0000
0100
1000
0000
,
0002
0000
0000
0003
,
1002
0000
0000
0100
0000
0000
1000
0000
0100
0000
0000
0100
0000
0000
2003
0000
,
0010
0000
0000
0100
0000
0000
0100
0000
0010
0000
0000
0100
0000
0000
3200
0000
,
0001
0000
0000
0010
0000
0000
0010
0000
0001
0000
0000
0010
0000
0000
2300
0000
,
0010
0000
0000
0001
0000
0000
0010
0000
0001
0000
0000
0001
0000
0000
3020
0000
,
0100
0000
0000
0001
0000
0000
0100
0000
1000
0000
0000
1000
0000
0000
0230
0000
,
0001
0000
0000
0010
0000
0000
1000
0000
0010
0000
0000
0010
0000
0000
0302
0000
,
0010
0000
0000
1000
0000
0000
1000
0000
0010
0000
0000
0100
0000
0000
0203
0000
,
1000
0000
0000
0010
0000
0000
0002
0000
0000
0000
0000
0000
0303
0000
0000
0000
,
2002
0000
3003
0010
0002
0000
0103
0000
,
0220
0000
0330
0010
2000
0000
3100
0000
,
0220
0000
0330
0100
2000
0000
3002
0000
,
0203
0000
0310
0100
,
0202
0000
0303
0010
2000
0000
3001
0000
,
0022
0000
0033
0100
2000
0000
3001
0000
,
2002
0000
3003
0010
0200
0000
0301
0000
,
2000
0000
0000
3001
2000
0000
3001
0000
,
0100
0000
1001
0001
0100
0000
0110
0000
,
0010
0000
1010
0100
0001
0000
1001
0000
,
0001
0000
0011
0001
1000
0000
1100
0000
,
0010
0000
1001
0010
0100
0000
0101
0000
,
0010
0000
1010
0100
0001
0000
1001
0000
,
0100
0000
0011
0100
1000
0000
1001
0000
,
0010
0100
0010
1000
0001
1000
0100
0010
,
0220
0000
0000
0330
,
0110
0000
0000
0010
0000
0001
0000
0010
0000
0100
0000
0000
1000
0000
0001
0000
,
0100
0000
0000
0001
0000
1000
0000
0100
0000
1000
0000
0000
0010
0000
1000
0000
,
0001
0000
0000
0010
0000
0001
0000
0100
0000
0010
0000
0000
1000
0000
0100
0000
,
0010
0000
0000
0100
0000
1000
0000
0001
0000
0100
0000
0000
0010
0000
0100
0000
,
1001
0000
0000
0100
0000
0010
0000
0001
0000
0010
0000
0000
0100
0000
1000
0000
,
0001
0000
1000
0001
0000
1000
0010
0000
0100
0001
0100
0001
0010
0000
0100
0000
,
1000
0000
0100
1000
0000
0001
0100
0001
0000
0100
0001
0000
1000
0000
0100
0000
,
0010
0000
0000
0001
0000
1000
0000
0010
0000
0100
0010
0100
0010
0000
0100
0000
,
1001
0000
0000
0100
0000
1000
0000
0001
0000
0100
0000
0000
0010
0000
0100
0000
,
0001
0000
0000
1000
0000
0100
0000
0010
0000
0001
0000
0000
0100
0000
0010
0000
,
1000
0000
0010
1000
0000
0010
0000
0100
0000
0001
0000
0010
0001
0000
1000
0000
,
0100
0000
1000
0100
0000
1000
0000
0010
0000
0100
0000
0001
1000
0000
0001
0000
,
1000
0001
1000
0001
0010
0100
0010
0100
,
1000
0010
1000
0010
0100
0001
0100
0001
,
0010
0100
1000
0001
0100
0010
1000
0001
,
0020
0031
2000
3010
0200
0302
2000
0000
,
3003
0000
0000
0000
;

//---------------dance-single - ----------------
#NOTES:
     dance-single:
     :
     Easy:
     4:
     0.235132,0.299258,0.084166,0.215092,0.000000,176.000000,167.000000,9.000000,23.000000,0.000000,0.000000,0.235132,0.299258,0.084166,0.215092,0.000000,176.000000,167.000000,9.000000,23.000000,0.000000,0.000000:
0000
0000
0000
0000
,
0000
0000
0000
0000
,
0000
0000
0000
0000
,
0000
0000
0000
0000
,
1000
1000
0001
0001
,
0100
0100
0010
0010
,
1000
0010
0100
2002
,
0000
0000
0000
3003
,
0001
0100
0010
0010
,
0100
0001
1000
0000
,
0100
0010
0100
0100
,
1000
0001
0100
0000
,
0010
1000
0001
0001
,
1000
0010
0100
0000
,
0001
1000
0010
0010
,
0100
0001
1000
0000
,
1001
0001
0010
0100
,
1000
1000
0010
0000
,
0100
0001
0010
0100
,
0010
0010
0001
0000
,
1000
0010
0100
0001
,
0010
0010
0001
0000
,
0100
0010
1000
0001
,
2002
0000
0000
3003
,
0120
0000
0100
0000
,
1000
0000
0100
0000
,
0032
0000
0100
0000
,
1000
0000
0010
0000
,
2003
0000
0010
0000
,
0001
0000
0010
0000
,
3200
0000
0010
0000
,
0001
0000
1000
0300
,
2200
0000
0000
0300
,
0002
0000
0000
3000
,
0200
0000
0000
0003
,
0020
0000
0000
0300
,
2000
0000
0000
0030
,
0020
0000
0000
3000
,
0200
0000
0000
0030
,
0002
0000
0000
0303
,
1001
0100
0000
0100
,
0000
0010
0000
0010
,
0000
0001
0000
0001
,
0000
1000
0000
1000
,
0000
0010
0000
0010
,
0000
0100
0000
0100
,
0000
0001
0000
0001
,
2002
0000
0000
3003
,
0001
0100
0010
0100
,
0001
1000
0100
0100
,
0010
0001
1000
0010
,
0100
0100
0010
0000
,
1000
0010
1000
1000
,
0100
0010
0100
0100
,
0010
0001
0010
0010
,
0001
1000
0010
0000
,
0110
1000
0100
0001
,
0100
1000
0010
0100
,
0001
0010
1000
0010
,
0001
0100
0010
0000
,
0100
1000
0100
0001
,
0010
1000
0010
0001
,
1000
0010
0100
0001
,
2001
3020
0230
0302
,
0003
0000
0000
0000
;

//---------------dance-single - ----------------
#NOTES:
     dance-single:
     :
     Medium:
     6:
     0.347353,0.478813,0.308610,0.243147,0.000000,260.000000,227.000000,33.000000,26.000000,0.000000,0.000000,0.347353,0.478813,0.308610,0.243147,0.000000,260.000000,227.000000,33.000000,26.000000,0.000000,0.000000:
0000
0000
0000
0000
,
0000
0000
0000
0000
,
0000
0000
0000
0000
,
0000
0000
0000
0000
,
0001
0100
0001
0101
,
0010
1000
0010
1010
,
1000
0001
1000
1001
,
0220
0000
0000
0330
,
0010
0001
0100
0010
,
0100
0000
0001
0000
1000
0000
0100
1000
,
0001
0100
0010
0100
,
0001
0000
0010
0000
0100
0000
0010
0001
,
1000
0010
0100
0001
,
0100
0000
0010
0000
1000
0000
0100
0010
,
0001
1000
0010
0100
,
0001
0000
0010
0000
0001
0000
1000
0010
,
0100
0001
1000
0100
,
0010
0000
0110
0000
0001
0000
1001
0001
,
0100
0010
0100
0001
,
1000
0000
1100
0000
0010
0000
0011
0100
,
1000
0010
0100
0001
,
0100
0000
0110
0000
1000
0000
1001
0100
,
0010
0011
0100
1100
,
2002
0000
0000
3003
,
2001
0000
0100
0000
,
3002
0000
0100
0000
,
0023
0000
1000
0000
,
0100
0000
0001
0000
,
0230
0000
0001
0000
,
2300
0000
0010
0000
,
3002
0000
0100
0000
,
0010
0000
1003
0000
,
0102
0000
0000
0010
0000
0000
1000
0000
,
2003
0000
0000
0010
0000
0000
0100
0000
,
3002
0000
0000
0100
0000
0000
2000
0000
,
0000
0000
3003
0010
,
0200
0000
0000
1000
0000
0000
0010
0000
,
0302
0000
0000
0010
0000
0000
1000
0000
,
2003
0000
0000
0200
0000
0000
0300
0000
,
0001
0000
0000
0001
0000
0000
3001
0000
,
1001
0100
0000
0100
,
0000
0010
0000
0010
,
0001
1000
0000
1000
,
0000
0010
0000
0010
,
0100
0001
0100
0001
,
1000
0100
1000
0100
,
0010
0001
1000
0010
,
0220
0000
0000
0330
,
0010
0000
0110
0000
0100
0001
1000
0000
,
0100
0000
0011
0000
0100
1000
0010
1000
,
0001
0000
0101
0000
0010
1000
0100
0000
,
0010
0000
1001
0000
0001
1000
0010
0100
,
0001
0000
0011
0000
0001
1000
0100
0000
,
0010
0000
1001
0000
0010
1000
0100
1000
,
0001
0000
0101
0000
0010
1000
0100
0000
,
0010
1001
0100
0011
,
0100
0000
1100
0000
1000
0001
0100
0000
,
0110
0000
1001
0000
0100
1000
0001
0000
,
0011
0000
1100
0000
1000
0001
0100
0000
,
1020
0130
0102
1003
,
0100
1000
0100
1000
0001
0100
0001
0000
,
0010
0001
0010
0001
1000
0010
1000
0000
,
0010
0100
0010
0100
0001
1000
0001
0000
,
0020
0230
2300
3002
,
0003
0000
0000
0000
;

//---------------dance-single - ----------------
#NOTES:
     dance-single:
     :
     Challenge:
     10:
     0.716083,0.987553,0.523702,0.112222,0.626572,536.000000,480.000000,56.000000,12.000000,0.000000,0.000000,0.716083,0.987553,0.523702,0.112222,0.626572,536.000000,480.000000,56.000000,12.000000,0.000000,0.000000:
0000
0000
0000
0000
,
0000
0000
0000
0000
,
0000
0000
0000
0000
,
0000
0000
0000
0000
,
0100
0000
0011
0000
0100
1000
1001
0001
,
0100
0000
0110
0000
1000
0001
0011
0000
,
0100
0000
1100
0000
0010
0001
1001
0010
,
0200
0000
0000
0300
,
0110
1000
0001
0011
0000
1100
0000
1001
,
0010
1000
1100
1000
0001
0100
0110
0100
,
0001
1000
0100
0110
0000
0011
0000
1100
,
1000
0010
0110
0100
0001
1000
1100
0000
,
0110
0001
1000
1100
0000
1010
0000
1001
,
0100
0010
1010
0100
0001
1000
1001
0100
,
0010
0001
0100
0110
0000
1010
0000
1100
,
1000
0010
0001
0010
0100
0001
0010
0100
,
1100
0010
0001
0011
0000
0101
0000
1001
,
1000
0010
1010
1000
0001
0010
0011
0001
,
0100
0010
0100
1001
0000
0011
0000
0101
,
0010
1000
1100
1000
0010
0100
0101
0000
,
1010
1000
0100
1100
0000
0101
0000
1001
,
0010
0001
0011
0001
1000
0010
1010
0010
,
0100
0000
0000
0000
0101
0000
0000
1001
0000
0000
1100
0000
0000
1000
0001
1000
,
0002
0000
0000
0003
,
1001
0000
0001
0100
0000
0000
0001
0000
0100
0000
0001
0100
0000
0000
0001
0000
,
1000
0000
0100
1000
0000
0000
0100
0000
1000
0000
0100
1000
0000
0000
0100
0000
,
1000
0000
0010
1000
0000
0000
0010
0000
1000
0000
0010
1000
0000
0000
0010
0000
,
0100
0000
0010
0100
0000
0000
0010
0000
0100
0000
0010
0100
0000
0000
0010
0000
,
0100
0000
0001
0100
0000
0001
0100
0000
0001
0000
0100
0001
0000
0100
0001
0000
,
0010
0000
0001
0010
0000
0001
0010
0000
0001
0000
0010
0001
0000
0010
0001
0000
,
1000
0000
0100
1000
0000
0100
1000
0000
0001
0000
1000
0001
0000
1000
0001
0000
,
0010
0000
0100
0010
0000
0100
0010
0000
0002
0000
0000
0000
0003
0000
0000
0000
,
1100
0000
1000
0100
0001
0000
0100
0000
,
1100
0000
1000
0010
0001
0000
0010
0000
,
0110
0000
0100
0001
1000
0000
0100
0000
,
0022
0030
1003
0010
,
0110
0000
0100
1000
0001
0000
0010
0000
,
1010
0000
1000
0100
0001
0000
1000
0000
,
0110
0000
0001
0100
1000
0000
0100
0000
,
0101
0000
0001
1000
0100
0000
0010
0000
,
0110
0001
0100
0001
0010
0100
1000
0100
,
0010
0001
1000
0001
0100
1000
0100
0001
,
1000
0100
0010
0100
1000
0010
0100
0010
,
1000
0001
0010
0001
1000
0010
0001
0010
,
0100
0001
0010
0001
0100
0001
1000
0001
,
0100
1000
0100
0001
1000
0010
0001
0010
,
1000
0010
1000
0010
1000
0010
1000
0010
0100
0001
0100
0001
0100
0001
0100
0002
,
2000
0000
0000
3003
,
1000
0100
1000
0001
0000
0100
0000
0010
0000
0100
0000
0001
1000
0000
0100
0000
,
0010
0001
0010
0001
0000
1000
0000
0010
0000
0100
0000
0001
1000
0000
0100
0000
,
0010
0100
0010
0001
0000
1000
0000
0010
0000
0100
0000
0001
1000
0000
0100
0000
,
1000
0010
0100
0001
0000
0010
0000
0100
0000
1000
0100
1000
0001
0100
0001
1000
,
0010
0100
0010
0100
0000
0001
0000
1000
0000
0100
0000
1000
0001
0000
0100
0000
,
0010
1000
0010
1000
0000
0100
0010
0100
0010
0001
0100
0010
1000
0100
0010
0001
,
1000
0000
0010
1000
0000
0100
1000
0001
0000
0010
0100
0000
1000
0000
0001
0010
,
0100
0000
0000
1000
0000
0010
0000
0100
0000
0001
0010
0001
0010
0000
0100
1000
,
0100
1000
0100
1000
0000
0100
0000
0100
0000
0001
0000
0010
0001
0000
1000
0000
,
0010
0100
0010
0100
0000
0001
0000
0010
0000
0010
0000
1000
0100
0000
1000
0000
,
0010
1000
0010
1000
0000
0001
0000
0100
0000
0100
0000
1000
0001
0000
0100
0000
,
0001
0010
0001
0010
0000
0010
0000
1000
0000
0100
1000
0100
1000
0010
0100
0001
,
1000
0100
1000
0100
1000
0001
1000
0001
0010
0001
0010
0001
0100
0010
0100
0010
,
1000
0010
1000
0010
0100
0001
0100
0001
0010
0100
0010
0100
1000
0001
1000
0001
,
1000
0010
0100
0010
1000
0100
0010
0100
1000
0001
0010
0001
0100
0010
0100
0001
,
2000
3100
0002
1003
0020
0032
0200
0000
,
0303
0000
0000
0000
;

//---------------dance-single - ----------------
#NOTES:
     dance-single:
     :
     Beginner:
     1:
     0.078823,0.149045,0.084166,0.065463,0.000000,59.000000,50.000000,9.000000,7.000000,0.000000,0.000000,0.078823,0.149045,0.084166,0.065463,0.000000,59.000000,50.000000,9.000000,7.000000,0.000000,0.000000:
// measure 0
0000
0000
0000
0000
,  // measure 1
0000
0000
0000
0000
,  // measure 2
0000
0000
0000
0000
,  // measure 3
0000
0000
0000
0000
,  // measure 4
1000
0000
0000
0000
,  // measure 5
1000
0000
0000
0000
,  // measure 6
0001
0000
0000
0000
,  // measure 7
0001
0000
0000
0000
,  // measure 8
1001
0000
0000
0000
,  // measure 9
0100
0000
0000
0000
,  // measure 10
0010
0000
0000
0000
,  // measure 11
1000
0000
0000
0000
,  // measure 12
0100
0000
0000
0000
,  // measure 13
0010
0000
0000
0000
,  // measure 14
0001
0000
0000
0000
,  // measure 15
0100
0000
0000
0000
,  // measure 16
0110
0000
0000
0000
,  // measure 17
0010
0000
0000
0000
,  // measure 18
1000
0000
0000
0000
,  // measure 19
0001
0000
0000
0000
,  // measure 20
0010
0000
0000
0000
,  // measure 21
0100
0000
0000
0000
,  // measure 22
1000
0000
0000
0000
,  // measure 23
0001
0000
0000
0000
,  // measure 24
2002
0000
0000
0000
,  // measure 25
0000
0000
0000
0000
,  // measure 26
0000
0000
0000
0000
,  // measure 27
0000
0000
0000
0000
,  // measure 28
0000
0000
0000
0000
,  // measure 29
0000
0000
0000
0000
,  // measure 30
0000
0000
0000
0000
,  // measure 31
3003
0000
0000
0000
,  // measure 32
0110
0000
0000
0000
,  // measure 33
0010
0000
0000
0000
,  // measure 34
0200
0000
0000
0000
,  // measure 35
0300
0000
0000
0000
,  // measure 36
0001
0000
0000
0000
,  // measure 37
1000
0000
0000
0000
,  // measure 38
0002
0000
0000
0000
,  // measure 39
0003
0000
0000
0000
,  // measure 40
1001
0000
0000
0000
,  // measure 41
0010
0000
0000
0000
,  // measure 42
0200
0000
0000
0000
,  // measure 43
0300
0000
0000
0000
,  // measure 44
1000
0000
0000
0000
,  // measure 45
0001
0000
0000
0000
,  // measure 46
0100
0000
0000
0000
,  // measure 47
0110
0000
0000
0000
,  // measure 48
1001
0000
0000
0000
,  // measure 49
0100
0000
0000
0000
,  // measure 50
0010
0000
0000
0000
,  // measure 51
0001
0000
0000
0000
,  // measure 52
1000
0000
0000
0000
,  // measure 53
0010
0000
0000
0000
,  // measure 54
0100
0000
0000
0000
,  // measure 55
0001
0000
0000
0000
,  // measure 56
1001
0000
0000
0000
,  // measure 57
0010
0000
0000
0000
,  // measure 58
0001
0000
0000
0000
,  // measure 59
1000
0000
0000
0000
,  // measure 60
0010
0000
0000
0000
,  // measure 61
0100
0000
0000
0000
,  // measure 62
0001
0000
0000
0000
,  // measure 63
2002
0000
0000
3003
;
