#TITLE:Can't Stop the Feeling!;
#SUBTITLE:;
#ARTIST:Justin Timberlake;
#TITLETRANSLIT:;
#SUBTITLETRANSLIT:;
#ARTISTTRANSLIT:;
#CREDIT:;
#BANNER:Can't Stop the Feeling!.png;
#BACKGROUND:Can't Stop the Feeling!-bg.png;
#LYRICSPATH:;
#CDTITLE:;
#MUSIC:[Round K] - Can't Stop the Feeling!.ogg;
#OFFSET:-2.149;
#SAMPLESTART:59.630;
#SAMPLELENGTH:12.000;
#SELECTABLE:YES;
#BPMS:0.000=113.000;
#STOPS:;
#BGCHANGES:;

//---------------dance-single - ----------------
#NOTES:
     dance-single:
     :
     Hard:
     8:
     0.340,0.358,0.110,0.059,0.092:
0000
0000
0000
0000
,
0000
0000
0000
0000
,
0000
0000
0000
0000
,
0000
0000
0000
0000
,
0100
0000
0001
0000
0000
1000
0100
0010
,
0001
0000
0100
0000
0000
0010
1000
0010
,
0100
0000
0001
0000
1000
0000
0001
0100
,
0001
0000
1000
0000
0000
0010
0100
0001
,
0100
0000
0010
0000
0000
0000
1000
0100
,
1000
0000
0010
0000
0000
0100
0001
0100
,
0010
1000
0100
0010
0001
0100
0010
1000
,
0001
1000
0010
0100
,
0010
0000
0000
0000
1000
0100
0000
1000
0000
0100
0000
0000
0010
0000
0001
0000
,
0010
0100
1100
0001
,
0100
0000
0000
0000
0001
0010
0000
0001
0000
0010
0000
0000
0100
0000
0000
0000
,
1000
0000
0000
0020
0000
0030
0100
0001
,
1000
0000
0000
0000
0001
0010
0000
0001
0000
0010
0000
0000
0100
0000
1000
0000
,
0100
0000
0000
0010
0000
0000
0001
0000
0100
0000
0000
0000
0010
0000
1000
0000
,
0010
0000
0000
0000
0100
0000
0000
0001
0000
0000
0000
0000
0000
1000
0010
0000
,
1000
0000
0001
0000
0100
0010
0100
0002
,
0000
0000
0003
0100
0010
1000
0010
0100
,
0000
0000
0001
0000
0000
1000
0100
1000
,
0010
0000
0100
0001
0100
0010
1000
0010
,
0000
0000
0100
0000
0000
0001
0010
0002
,
0000
0000
0103
0001
0100
0010
1000
0010
,
0000
0000
0100
0000
0100
0000
0000
0000
0000
0000
0000
0000
0001
0000
0000
0001
,
0000
0000
0000
0000
1000
0000
0000
1000
0000
0000
0000
0000
0010
0000
0000
0020
,
0000
0000
0000
0000
0000
0000
0000
0000
0000
0000
0000
0000
0130
0000
0000
0010
,
0100
0001
1000
0010
0100
0010
1000
0001
,
1000
0000
0010
0000
0100
0000
0010
1000
,
1000
0001
0010
0100
1000
0010
0100
0001
,
0100
0010
1000
0010
,
1000
0100
1000
0010
0100
0010
1000
0000
,
0001
0010
0100
1000
,
0001
0010
0001
0100
0010
0100
0001
0000
,
1000
0000
0000
0000
0010
0000
0000
0000
0000
0000
0000
0000
0100
0000
0000
0001
,
0000
0000
0101
0000
0000
0000
0000
0000
0000
0000
0000
0010
1000
0000
0010
0000
,
1000
0000
0000
0000
0100
0000
0000
0000
0010
0000
0000
0000
0001
0000
0000
0001
,
0000
0100
0001
0000
0000
0000
0010
1000
,
0010
0101
1000
0100
,
0010
0000
0001
0000
0100
0010
0100
0000
,
0001
1000
0001
0100
0010
0100
0001
0000
,
1000
1010
0100
0101
,
0001
0100
0010
1000
0001
0100
0001
0000
,
1000
0000
0000
0000
0010
0000
0000
0000
1000
0000
0000
0000
0001
0000
0000
0100
,
0000
0001
0010
0100
1000
0010
0100
0000
,
0101
0000
0000
0000
1010
0000
0000
0000
1001
0000
0000
0000
1000
0000
0000
0010
,
0000
0100
0001
0010
0100
1000
0010
0000
,
0101
0000
0000
0000
1010
0000
0000
0000
1001
0000
0000
0000
0010
0000
0000
0100
,
0000
0010
1000
0100
0010
0001
0100
0000
,
1010
0000
0000
0000
0101
0000
0000
0000
1001
0000
0000
0000
1000
0000
0000
0100
,
0000
0010
0001
0010
0100
1000
0010
0000
,
0100
0000
0000
0000
0001
0000
0000
0000
0000
0000
0000
0000
1000
0000
0000
0100
,
0000
1000
0010
0100
0010
1000
0001
1000
,
0020
0000
0000
0000
0000
0000
0130
0000
0000
0000
0000
0000
0001
0000
0000
0100
,
0000
0001
0010
0100
1000
0010
0100
0001
,
0200
0000
0000
0301
0000
0000
0001
0000
,
1000
0000
0001
0100
0010
1000
0010
0100
,
0002
0000
0000
1003
0000
1000
0010
0100
,
0001
0000
1000
0100
0010
0001
0100
0010
,
2000
0000
0000
3010
0000
0000
0101
0000
;

//---------------dance-single - ----------------
#NOTES:
     dance-single:
     :
     Medium:
     6:
     0.259,0.246,0.015,0.059,0.063:
0000
0000
0000
0000
,
0000
0000
0000
0000
,
0000
0000
0000
0000
,
0000
0000
0000
0000
,
0100
0000
0010
0000
0000
1000
0100
0010
,
0001
0100
0000
0010
,
1000
0000
0010
0000
0100
0000
0001
0010
,
0001
0000
0100
0000
0000
0010
1000
0100
,
1000
0000
0001
0000
0000
0000
0100
0010
,
0100
0001
0000
1000
,
0100
1000
0001
0100
,
0001
0010
0100
1000
,
0010
0000
0000
0000
0100
0000
0000
0100
0000
0000
0000
0000
0001
0000
1000
0000
,
0001
0100
0010
1000
,
0001
0000
0000
0000
0100
0000
0000
0100
0000
0000
0000
0000
0010
0000
0000
0000
,
1000
0000
0000
0200
0000
0300
0010
0000
,
0001
0000
0000
0000
1000
0000
0000
1000
0000
0000
0000
0000
0010
0000
0100
0000
,
0010
0000
0000
0100
0000
0000
0001
0000
0100
0000
0000
0000
0010
0000
0000
0000
,
1000
0000
0000
0000
0010
0000
0000
0100
0000
0000
0000
0000
0000
0001
0010
0000
,
0001
0000
0100
0000
0010
0000
1000
0200
,
0000
0000
0300
0010
0001
0000
0100
0010
,
0000
1000
0000
0001
,
0100
0000
0010
0000
0100
0001
1000
0001
,
0000
0000
0100
0000
0000
0010
1000
0002
,
0000
0000
0103
0000
0100
0000
0001
1000
,
0000
0000
0010
0000
0010
0000
0000
0000
0000
0000
0000
0000
0100
0000
0000
0100
,
0000
0000
0000
0000
0001
0000
0000
0001
0000
0000
0000
0000
1000
0000
0000
2000
,
0000
0000
0000
3010
,
0100
0000
0001
0000
0100
0000
0010
1000
,
0010
0100
0001
0010
,
0100
0000
1000
0000
0010
0100
0010
0000
,
1000
0100
0010
0001
,
0100
0000
0010
1000
0100
1000
0001
0000
,
0100
0001
0010
0100
,
1000
0000
0010
0100
0010
1000
0001
0000
,
0100
0000
0000
0000
0010
0000
0000
0000
0000
0000
0000
0000
0100
0000
0000
0001
,
0000
0001
0000
0000
0000
0000
0000
0000
,
1000
0000
0000
0000
0100
0000
0000
0000
0010
0000
0000
0000
0001
0000
0000
0100
,
0000
0001
0001
0000
0000
0000
1000
0000
,
0010
0100
0010
1000
,
0001
1000
0010
0100
,
0010
1000
0001
0010
,
0100
1000
0010
0100
,
0001
0000
0010
0000
0100
1000
0100
0000
,
0010
0000
0000
0000
0001
0000
0000
0000
0100
0000
0000
0000
0010
0000
0000
0100
,
0000
0001
1000
0010
,
0100
0000
0000
0000
0001
0000
0000
0000
1000
0000
0000
0000
0010
0000
0000
0100
,
0000
0001
0001
0000
1000
0000
0010
0000
,
1000
0000
0000
0000
0100
0000
0000
0000
0010
0000
0000
0000
0001
0000
0000
0001
,
0000
0100
0010
0000
1000
0000
0001
0000
,
0010
0000
0000
0000
0100
0000
0000
0000
1001
0000
0000
0000
0010
0000
0000
0100
,
0000
0001
1000
0010
,
0100
0000
0000
0000
0001
0000
0000
0000
0000
0000
0000
0000
1000
0000
0000
0010
,
0000
1000
0001
0000
0100
0000
0010
0000
,
2000
0000
0000
0000
0000
0000
3001
0000
0000
0000
0000
0000
0001
0000
0000
0100
,
0000
0010
1000
0000
0001
0000
0100
0010
,
0200
0000
0000
0301
0000
0000
0001
0000
,
1000
0000
0010
0000
0100
0000
0001
0100
,
0002
0000
0000
1003
0000
0000
1000
0000
,
0001
0000
0100
0000
0010
0000
0100
0001
,
2000
0000
0000
3010
0000
0000
1001
0000
;

//---------------dance-single - ----------------
#NOTES:
     dance-single:
     :
     Easy:
     3:
     0.190,0.201,0.007,0.044,0.000: // measure 1
0000
0000
0000
0000
,  // measure 2
0000
0000
0000
0000
,  // measure 3
0000
0000
0000
0000
,  // measure 4
0000
0000
0000
0000
,  // measure 5
0000
0010
0000
0000
,  // measure 6
0000
1000
0000
0000
,  // measure 7
0001
0100
0010
1000
,  // measure 8
0001
0000
0000
0000
,  // measure 9
0100
0000
0000
0000
,  // measure 10
0001
0000
0000
0000
,  // measure 11
1000
0010
0100
0001
,  // measure 12
1000
0000
0010
0100
,  // measure 13
0001
0001
0001
1000
,  // measure 14
0010
0100
0100
0001
,  // measure 15
1000
0010
0010
0100
,  // measure 16
0001
0000
0000
0000
,  // measure 17
1000
0010
0100
0001
,  // measure 18
1000
1000
1000
0010
,  // measure 19
0100
0001
1000
0010
,  // measure 20
0100
0000
0000
0000
,  // measure 21
0002
0000
0000
0000
,  // measure 22
0000
0003
0000
0000
0000
0000
0000
0000
,  // measure 23
1000
0000
0000
0000
0010
0000
0000
0200
,  // measure 24
0000
0000
0000
0300
0000
0000
0000
0000
,  // measure 25
0001
0000
0000
0000
0100
0000
0000
0020
,  // measure 26
0000
0000
0000
0030
0000
0000
0000
0000
,  // measure 27
1000
0000
0000
1000
0000
0000
0002
0000
,  // measure 28
0000
0000
0000
0003
,  // measure 29
0100
0010
1000
0001
,  // measure 30
0100
0010
0100
0010
,  // measure 31
1000
0001
0100
0010
,  // measure 32
1000
0001
1000
0001
,  // measure 33
1000
0010
0100
0010
,  // measure 34
1000
0100
1000
0100
,  // measure 35
0010
0001
0010
0100
,  // measure 36
1000
0010
0000
1000
,  // measure 37
0001
0100
0010
1000
,  // measure 38
0001
0001
0001
1000
,  // measure 39
0010
0100
0000
0010
,  // measure 40
1000
0010
0000
0100
,  // measure 41
0001
1000
0010
1000
,  // measure 42
0100
0010
0001
1000
,  // measure 43
0001
0100
0010
1000
,  // measure 44
0001
0010
0100
1000
,  // measure 45
0001
0100
0010
1000
,  // measure 46
0001
0100
0010
0100
,  // measure 47
0001
0010
0100
1000
,  // measure 48
0010
0100
0001
1000
,  // measure 49
0010
0010
0010
0100
,  // measure 50
0001
1000
0010
0100
,  // measure 51
0001
0001
0001
0001
,  // measure 52
1000
0010
0100
0001
,  // measure 53
1000
0010
0000
0100
,  // measure 54
0001
0100
0010
1000
,  // measure 55
0010
0100
0001
1000
,  // measure 56
0010
0100
0001
1000
,  // measure 57
0001
0100
0010
1000
,  // measure 58
0001
0000
1000
0000
,  // measure 59
0002
0000
0000
1003
0000
0000
0000
0000
,  // measure 60
0000
0010
0100
0010
,  // measure 61
2000
0000
0000
3001
0000
0000
1001
0000
;
