#TITLE:CO5M1C R4ILR0AD;
#SUBTITLE:;
#ARTIST:kanone;
#TITLETRANSLIT:;
#SUBTITLETRANSLIT:;
#ARTISTTRANSLIT:;
#GENRE:Hi-NRGTECH Trance;
#CREDIT:;
#BANNER:[Round K] - CO5M1C R4ILR0AD.png;
#BACKGROUND:[Round K] - CO5M1C R4ILR0AD-bg.png;
#LYRICSPATH:;
#CDTITLE:;
#MUSIC:[Round K] - CO5M1C R4ILR0AD.ogg;
#OFFSET:-0.040000;
#SAMPLESTART:77.459785;
#SAMPLELENGTH:12.527103;
#SELECTABLE:YES;
#BPMS:0.000000=155.000000
,37.000000=77.500000
,38.000000=155.000000
,69.500000=77.500000
,70.000000=155.000000
,97.000000=77.500000
,98.500000=155.000000
,113.000000=77.500000
,114.000000=155.000000
,129.000000=77.500000
,137.000000=155.000000
,149.500000=77.500000
,151.000000=155.000000
,165.000000=77.500000
,166.000000=155.000000
,180.000000=310.000000
,180.500000=155.000000
,180.750000=77.500000
,181.000000=155.000000
;
#STOPS:36.000000=0.194000,
36.500000=0.194000,
65.000000=0.194000,
98.500000=0.194000,
119.750000=0.097000,
120.000000=0.097000,
120.250000=0.097000,
120.500000=0.097000,
150.750000=0.194000,
174.250000=0.194000,
174.750000=0.194000
;
#BGCHANGES:;
#KEYSOUNDS:;
#ATTACKS:;

//---------------dance-single - ----------------
#NOTES:
     dance-single:
     :
     Challenge:
     10:
     1.065995,1.090473,0.402946,0.410408,1.581936,1000.000000,946.000000,54.000000,55.000000,0.000000,0.000000,1.065995,1.090473,0.402946,0.410408,1.581936,1000.000000,946.000000,54.000000,55.000000,0.000000,0.000000:
// measure 0
0000
0000
0000
0000
,  // measure 1
0000
0000
0000
0000
,  // measure 2
0011
0000
0000
1100
0000
0000
2000
0000
0000
3001
0000
0100
0000
0000
0000
0000
,  // measure 3
0020
0000
0000
0000
0000
0000
1030
0010
,  // measure 4
0101
0000
0000
1100
0000
0000
0002
0000
0000
0013
0100
0010
0000
0000
0000
0000
,  // measure 5
0000
0001
0000
0100
0000
0010
0000
0000
1000
0100
0000
1000
0001
0000
0100
0010
,  // measure 6
1000
0100
1000
0100
1000
0001
1000
0001
1000
0010
1000
0010
0100
0001
0100
0001
,  // measure 7
0010
0100
1000
0100
0010
0001
0010
0100
1000
0001
1000
0010
0100
0001
0100
0010
,  // measure 8
2000
0000
0000
3000
,  // measure 9
1010
0000
0000
0000
0101
0000
0000
0000
0110
0000
0000
0000
0001
1000
0001
1000
0100
0000
0000
0000
0100
0000
0000
0000
0010
0000
0000
0000
0100
0000
1000
0000
,  // measure 10
0100
0010
0001
1000
0001
0000
0001
1000
0010
0100
0020
0000
1030
0010
2000
0000
,  // measure 11
3001
0010
0100
1000
0010
0100
0010
0100
0001
0000
1000
0100
0010
0000
0100
1000
,  // measure 12
0000
0001
0100
0010
1000
0000
0001
0000
1000
0000
0100
1000
0001
0000
0001
0010
,  // measure 13
0100
1000
0100
1000
0020
0000
0130
0000
1001
0000
1000
0010
0100
0001
0100
0001
,  // measure 14
0000
0000
0000
0000
1000
0000
0010
0000
0100
0000
0001
0000
0000
0000
0000
0000
0000
0000
0001
0000
0000
0010
0000
0000
0200
0000
0000
0000
0000
0000
1300
0000
0000
0001
0000
0000
0200
0000
0000
0000
0000
0000
0310
0000
0000
1000
0000
0000
,  // measure 15
0200
0000
0000
0000
0000
0000
0310
0000
0000
0001
0000
0000
0200
0000
0000
0000
0000
0000
0310
0000
1000
0000
0010
0000
1000
0000
0000
0100
0000
0000
0010
0000
0000
0001
0000
0000
1000
0000
0000
0010
0000
0000
1000
0000
0000
0010
0000
0000
,  // measure 16
0100
0001
0100
0001
0000
0000
1010
0000
0100
0000
0001
0000
0010
0100
0001
0000
,  // measure 17
0100
0000
0000
0000
1000
0000
0000
0000
0000
0000
0000
0000
0001
0100
0001
0100
0010
0000
0000
0000
1000
0000
0001
0000
0200
0000
0000
0000
0000
0000
0000
0000
,  // measure 18
0302
0000
1003
0001
0010
0100
0020
0000
0130
1000
0200
0000
1300
0010
0100
0001
,  // measure 19
0100
0010
0100
0010
1000
0000
0001
1000
0100
0000
0010
0100
0000
1000
0100
0010
,  // measure 20
0001
0000
0000
0000
0000
0000
1000
0000
0000
0000
0000
0000
0001
0000
0000
0000
0000
0000
0001
0000
0000
0100
0000
0000
0010
0000
0000
0000
0000
0000
0010
0000
0000
1000
0000
0000
0200
0000
0000
0000
0000
0000
1300
0000
0001
0000
1000
0000
,  // measure 21
0002
0000
0203
0000
0310
0000
1000
0100
0010
0001
1000
0010
0000
0100
0001
0010
,  // measure 22
0000
0100
0010
0001
0200
0000
0310
1000
0200
0000
1300
0010
0200
0000
0301
0010
,  // measure 23
0200
0000
0000
1300
0001
1000
0001
0000
0000
0000
0000
0000
1100
0000
0000
0000
0000
0000
0101
0000
0000
0101
0000
0000
,  // measure 24
0000
0000
0000
0000
0220
0000
0000
0000
0330
0000
1001
0000
0101
0000
1000
0001
,  // measure 25
0100
0001
0100
0001
1000
0001
1000
0001
1000
0100
0010
0001
1000
0000
0010
1000
,  // measure 26
0001
1000
0001
1000
0100
0000
0100
1000
0001
0010
0100
0000
1100
0000
0000
0000
,  // measure 27
1000
0010
0100
0000
0101
0000
1000
0001
0010
0000
0100
0000
1000
0000
0010
1000
,  // measure 28
0100
0000
0010
0000
0001
0000
0100
0000
0010
0000
2000
3001
0010
0100
0010
0100
1000
0000
0000
0000
0001
0000
0100
0000
1000
0000
0100
0000
0001
0000
0100
0000
,  // measure 29
0000
0110
0010
0000
0110
0000
1000
0001
0000
0010
0110
0000
1100
0000
0001
1000
,  // measure 30
0101
0000
0000
1010
0000
0000
1100
0000
0000
0001
0000
0000
2000
0000
0000
0000
0000
0000
0000
0000
0000
0000
0000
0000
0000
0000
0000
0000
0000
0000
0000
0000
0000
0000
0000
0000
3001
0000
0000
0000
0010
0000
0000
0000
0100
0000
0000
0000
,  // measure 31
1000
0000
0000
0000
0010
0000
0000
0000
0100
0000
0000
0000
0000
0000
0000
0000
0000
0000
0001
0000
1000
0000
0001
0000
1000
0000
0000
0000
0000
0000
0000
0000
0000
1100
0000
0000
0000
0000
0000
0000
0000
0000
0202
0000
0000
0000
0000
0000
,  // measure 32
0000
0000
0303
0000
0001
0100
0010
1000
0100
0010
0100
1000
0001
0100
1000
0100
,  // measure 33
0001
0010
0100
1000
1000
0010
1000
0100
0010
0001
0100
0010
0100
1000
0100
0001
,  // measure 34
0010
0100
2000
3001
0100
0000
0010
0000
1000
0000
0001
0000
0000
0000
0010
0000
,  // measure 35
0100
1000
0000
0001
0100
1000
0000
0100
,  // measure 36
0001
1000
0100
0010
0100
1000
0000
0001
,  // measure 37
0010
0000
0000
0000
0000
0000
0000
0000
1000
0000
0000
0000
0000
0000
0000
0000
0010
0000
0000
0000
0100
0000
0000
0000
0220
0000
0000
0000
0330
0000
0000
0000
0100
0000
1000
0000
0010
0000
0000
0000
0100
0000
0000
0000
0002
0003
0000
0000
0101
0000
0000
0000
0000
0000
0000
0000
0010
0000
0000
0000
0000
0000
0000
0000
,  // measure 38
1001
0010
0011
0100
1001
0010
0101
0010
,  // measure 39
1010
0100
1001
0010
1100
0010
0011
0100
,  // measure 40
1001
0010
1010
0100
1001
0010
0011
0100
,  // measure 41
1010
0000
0000
0000
0100
0000
0000
0000
0101
0000
1000
0001
0010
0000
1001
0000
0001
0000
0010
0000
0100
0000
1000
0000
0010
0000
0100
0000
0001
0000
1000
0000
,  // measure 42
0001
0010
0100
1000
0010
0100
0001
1000
0001
0010
0100
1000
0010
0100
0001
1000
,  // measure 43
0001
0010
0100
1000
0010
0100
0001
1000
0001
0010
0100
1000
0001
0100
0010
1000
,  // measure 44
0100
0010
0001
1000
0010
0000
0000
0000
0100
0000
0000
0000
0001
0100
0010
1000
,  // measure 45
0002
0000
0000
0000
1003
0100
0010
0100
1000
0001
0010
0200
0000
0310
0001
0100
,  // measure 46
0001
1000
0010
0200
0000
0301
1000
0100
1000
0001
0010
0100
1000
0010
0100
0010
,  // measure 47
0001
0010
0100
0010
1000
0001
0010
0100
1000
0001
0100
0020
0000
0130
0001
0100
,  // measure 48
0010
1000
0001
0100
0010
1000
0100
0020
0000
0130
1000
0001
0100
0010
0100
0001
,  // measure 49
1000
0000
0001
0000
1000
0000
0001
0000
0000
0010
0000
0000
0100
0000
0000
1000
0000
0000
0010
0000
0000
1000
0000
0000
0100
0000
0000
0010
0000
0000
0001
0000
0000
2000
0000
0000
0000
0000
0000
3001
0000
0000
0100
0000
0000
0001
0000
0000
,  // measure 50
1000
0010
0100
0002
0000
0013
0100
0010
0001
1000
0001
0100
0001
0010
0100
0010
,  // measure 51
1000
0000
0000
0010
0000
0000
0100
0000
0010
0000
0100
0000
0020
0000
0000
0000
0000
0000
0000
0000
0000
0000
0000
0000
0000
0000
0000
0000
0000
0000
0031
0000
0000
0000
0000
0000
1100
0000
0000
0000
0000
0000
0000
0000
0000
0010
0000
0000
,  // measure 52
0000
0000
0000
0011
0000
0000
0110
0000
0000
0000
0000
0000
1100
0000
0000
0000
0000
0000
1000
0000
0010
0000
0100
0000
,  // measure 53
0001
0010
0100
1000
0001
0010
0100
0010
0001
1000
0100
0020
0000
0130
1000
0010
,  // measure 54
1000
0001
0100
0020
0000
1030
0001
0010
0001
1000
0100
0010
0001
0100
0010
0100
,  // measure 55
1000
0100
0010
0100
0001
1000
0100
0010
0001
1000
0010
0200
0000
0310
1000
0010
,  // measure 56
0100
0001
1000
0010
0100
0001
0010
0200
0000
0310
0001
1000
0010
0100
0010
1000
,  // measure 57
0001
0000
1000
0000
0001
0000
1000
0000
0000
0100
0000
0000
0010
0000
0000
0001
0000
0000
0100
0000
0000
0001
0000
0000
0010
0000
0000
0100
0000
0000
1000
0000
0000
0002
0000
0000
0000
0000
0000
1003
0000
0000
0010
0000
0000
1000
0000
0000
,  // measure 58
0001
0100
0010
2000
0000
3100
0010
0100
1000
0001
1000
0010
1000
0100
0010
0100
,  // measure 59
0001
0000
0000
0100
0000
0000
0010
0000
0100
0000
0010
0000
0200
0000
0000
0000
0000
0000
0000
0000
0000
0000
0000
0000
0000
0000
0000
0000
0000
0000
1300
0000
0000
0000
0000
0000
0101
0000
0000
0000
0000
0000
0000
0000
0000
0000
0000
0000
,  // measure 60
0001
0000
0000
0000
0100
0000
0000
0000
0001
0000
0000
0000
1000
0000
0000
0100
0000
0000
1000
0000
0000
0010
0000
0000
0100
0000
0000
0001
0000
0000
0010
0000
0000
0001
0000
0000
1000
0000
0000
0000
0100
0000
0000
0000
0010
0000
0000
0000
,  // measure 61
0001
0010
0001
0100
0010
1000
0100
0010
0100
1000
0010
0001
0010
0100
0001
1000
,  // measure 62
0100
0010
0100
1000
0001
0100
1000
0100
0000
0100
0001
1000
0001
1000
0001
0010
,  // measure 63
0100
0000
0010
0000
0100
0000
0010
0000
0000
0100
0000
0000
1000
0000
0000
0001
0000
0000
0100
0000
0000
1000
0000
0000
0100
0000
0000
0010
0000
0000
1000
0000
0000
0100
0000
0000
0010
0000
0000
0100
0000
0000
0001
0000
0000
0100
0000
0000
,  // measure 64
0010
0001
1000
0020
0000
0000
1030
0000
0001
0000
0100
0000
0010
1000
0100
0010
,  // measure 65
0001
0000
1100
0000
0010
0001
0100
1000
0100
0001
1000
0100
0010
0100
0001
0100
,  // measure 66
1000
0010
0100
0001
1000
0100
0001
0100
0000
0100
1000
0001
0100
0001
1000
0010
,  // measure 67
0100
0000
0010
0000
0100
0000
0010
0000
0000
0100
0000
0000
0002
0000
0000
0000
0000
0000
1003
0000
0000
0100
0000
0000
0000
0000
0000
0010
0000
0000
0100
0000
0000
0010
0000
0000
0002
0000
0000
0000
0000
0000
0103
0000
0000
0010
0000
0000
,  // measure 68
1000
0000
0000
0100
0000
0000
0001
0000
0000
0100
0000
0000
0000
0000
0000
0000
0000
0000
1100
0000
0000
0000
0000
0000
0110
0000
0000
0000
0000
0000
0011
0000
0000
0000
0000
0000
0001
0000
0000
0000
0100
0000
0000
0000
0010
0000
0000
0000
,  // measure 69
1000
0000
0000
0000
0100
0000
0000
0000
0010
0000
0000
0000
0200
0000
0000
0000
0000
0000
0000
0000
0000
0000
0000
0000
1300
0000
0000
0100
0000
0000
0010
0000
0000
0001
0000
0000
1000
0000
0000
0100
0000
0000
1000
0000
0000
0001
0000
0000
,  // measure 70
1000
0010
0100
0001
0010
0100
1000
0100
0000
0100
0001
0100
1000
0001
0100
0001
,  // measure 71
1000
0000
0001
0000
1000
0000
0001
0000
0000
0100
0000
0000
0001
0000
0000
0010
0000
0000
0100
0000
0000
1000
0000
0000
0001
0000
0000
0100
0000
0000
1000
0000
0000
0100
0000
0000
0010
0000
0000
1000
0000
0000
0001
0000
0000
1000
0000
0000
,  // measure 72
0100
0001
0100
2000
0000
0000
3001
0000
1000
0000
0100
0000
1000
0010
0001
0010
,  // measure 73
1000
0000
0000
0000
0000
0000
0001
0000
1000
0000
0001
0000
2000
0000
0000
0000
0000
0000
0000
0000
0000
0000
0000
0000
0000
0000
0000
0000
0000
0000
3100
0000
0000
0000
0000
0000
0011
0000
0000
0000
0000
0000
0000
0000
0000
1000
0000
0000
,  // measure 74
0000
0000
0001
0000
0100
0000
0000
0010
0000
0000
1000
0000
0001
0000
1000
0001
,  // measure 75
0010
0000
0000
0000
0000
0000
2200
0000
0000
0000
0000
0000
3300
0000
0000
0001
1000
0001
1000
0000
0000
0100
0000
0000
,  // measure 76
0010
0000
0000
0000
0000
0000
0001
0000
0000
1000
0000
0000
0000
0000
0000
0001
0000
0000
0100
0000
0000
0000
0000
0000
0010
0000
0000
1000
0000
0000
0100
0000
0000
0000
0000
0000
1000
0000
0100
0000
1000
0000
0001
0000
1000
0000
0100
0000
,  // measure 77
0010
0000
0000
0000
0001
0010
1000
0001
0100
1000
0010
0100
0000
0100
0001
1000
,  // measure 78
1000
0001
0010
0100
0000
0100
1000
0010
1000
0100
0100
0001
0010
0100
0010
1000
,  // measure 79
0001
1000
0010
0001
0010
0100
1000
0001
0010
1000
0010
0001
0000
0001
1000
0100
,  // measure 80
0100
0001
0010
0100
0000
0100
1000
0010
0010
0001
0010
0010
0100
0001
1000
0100
,  // measure 81
0001
0100
1000
0010
0000
0000
0000
0000
0000
0000
0000
0000
0000
0000
0000
0000
;

//---------------dance-single - ----------------
#NOTES:
     dance-single:
     :
     Hard:
     10:
     0.828278,1.090473,0.455180,0.216397,0.832009,777.000000,716.000000,61.000000,29.000000,0.000000,0.000000,0.828278,1.090473,0.455180,0.216397,0.832009,777.000000,716.000000,61.000000,29.000000,0.000000,0.000000:
// measure 0
0000
0000
0000
0000
,  // measure 1
0000
0000
0000
0000
,  // measure 2
0101
0000
0000
1100
0000
0000
0000
0000
0000
0000
0000
0000
0000
0000
0000
0000
,  // measure 3
0000
0000
0000
0000
0000
0000
0010
0100
,  // measure 4
1100
0000
0000
0101
0000
0000
0000
0000
0000
0000
0000
0000
0000
0000
0000
0000
,  // measure 5
0000
1000
0000
0001
0000
0100
0000
0000
0001
1000
0000
0001
1000
0000
0010
0000
,  // measure 6
1000
0010
0100
0001
1000
0010
0100
0001
,  // measure 7
0010
0100
1000
0001
0010
0100
1000
0001
,  // measure 8
0200
0000
0000
0000
0000
0000
0000
0300
,  // measure 9
0001
0000
0000
0000
1000
0000
0000
0000
0110
0000
0000
0000
1000
0001
1000
0001
1000
0000
0000
0000
0100
0000
0000
0000
0010
0000
0000
0000
0100
0000
0000
0000
,  // measure 10
1000
0001
1000
0001
0100
0000
0010
0000
1000
0010
1000
0000
0010
0100
0010
0000
,  // measure 11
2000
0000
3200
0000
0310
0001
0010
0001
1000
0000
0000
0000
0101
0000
0000
0110
,  // measure 12
0000
0000
1000
0001
0100
0000
0001
0000
1000
0000
1000
0000
0010
0000
0010
0000
,  // measure 13
1000
0100
0010
0001
2000
0000
3010
0000
0110
0000
0001
0000
1000
0000
0001
0000
,  // measure 14
0010
0000
0100
1000
0010
0000
1000
0000
0100
0000
1000
0001
0100
0000
0001
1000
,  // measure 15
0100
0000
1000
0001
0200
0000
0000
0000
0310
0000
1000
0000
0100
0000
1000
0000
,  // measure 16
0001
0000
0010
0100
0000
0000
1000
0000
0010
0000
0100
0000
1000
0000
0001
0000
,  // measure 17
0010
0000
1000
0000
0000
0000
0002
0000
1003
0000
0001
0010
0200
0000
0000
0000
,  // measure 18
1300
0000
1000
0000
0001
0100
0001
0000
0100
0010
0100
0000
0002
0000
0023
0000
,  // measure 19
0130
1000
0100
1000
0001
0000
0000
0000
1010
0000
0000
0110
0000
0000
0001
1000
,  // measure 20
0010
0000
1000
0000
0001
0000
0001
0010
0100
0000
0100
0000
1000
0000
0010
0000
,  // measure 21
0100
0001
1000
0000
0110
0000
1000
0000
0001
0000
1000
0000
0100
0000
0010
0001
,  // measure 22
0100
0000
0001
0000
0010
0000
0001
1000
0010
0000
1000
0001
0010
0000
0001
1000
,  // measure 23
0010
0100
0110
0000
0101
0000
1100
1100
,  // measure 24
0000
0000
0220
0000
0330
1001
2100
0000
,  // measure 25
0001
0010
3010
0100
1001
0010
0200
1000
,  // measure 26
0310
0001
0010
0100
1001
0010
0200
1000
,  // measure 27
0310
0100
0010
0100
1001
0100
0020
0000
,  // measure 28
0031
0000
0010
0000
0100
0000
1000
0000
0001
0000
0000
0110
0000
0000
0000
0000
1000
0000
0000
0000
0001
0000
0100
0000
0001
0000
0100
0000
0000
0000
0010
0000
,  // measure 29
0000
1000
0001
0000
1000
0000
0100
0010
0000
0100
1000
0000
0001
0000
0100
0010
,  // measure 30
1000
0000
0000
0001
0000
0000
0100
0000
0000
0010
0000
0000
2000
0000
0000
0000
0000
0000
0000
0000
0000
0000
0000
0000
0000
0000
0000
3000
0000
0000
0000
0000
0000
0000
0000
0000
0001
0000
0000
0000
0010
0000
0000
0000
0001
0000
0000
0000
,  // measure 31
1000
0000
0000
0000
0100
0000
0000
0000
0010
0000
0000
0000
0000
0000
0000
0000
0000
0000
0000
0000
0000
0000
0000
0000
0011
0000
0000
0000
0000
0000
0000
0000
0000
1100
0000
0000
0000
0000
0000
0000
0000
0000
0101
0000
0000
0000
0000
0000
,  // measure 32
0000
0000
0000
0000
1000
0010
1000
0100
0000
0010
0001
0100
0000
0001
0010
1000
,  // measure 33
0000
0010
0001
0100
0001
1000
0100
0001
0000
0100
1000
0010
0000
0100
0001
1000
,  // measure 34
0000
0001
0020
0000
0130
0000
1000
0000
0001
0000
0010
0000
1000
0000
0001
0000
,  // measure 35
0100
1000
0000
0010
0100
1000
0000
0001
,  // measure 36
0010
0100
0001
0010
1000
0001
0000
0100
,  // measure 37
1000
0000
0000
0000
0010
0000
0000
0000
0000
0000
0000
0000
0110
0000
0000
0000
1000
0001
1000
0000
0010
0000
0100
0000
1010
0000
0000
0000
0000
0000
0000
0000
,  // measure 38
1001
1100
1001
0011
,  // measure 39
0101
1001
0101
1010
,  // measure 40
1100
0101
0011
1100
,  // measure 41
0101
0000
0000
0000
0000
0000
0000
0000
0110
0000
0001
1000
0001
0000
1000
0000
0011
0000
0000
0000
0011
0000
0000
0000
1100
0000
0000
0000
1100
0000
0000
0000
,  // measure 42
1010
1010
0101
0101
0011
1100
0101
0110
,  // measure 43
1010
0000
1001
0000
0011
0000
1100
0000
0001
1000
0010
0100
0001
0100
0001
0100
,  // measure 44
0010
1000
0010
1000
0001
0000
0000
0000
0010
0000
0000
0000
0100
1000
0100
1000
,  // measure 45
0001
0000
0000
0000
1000
0010
0100
0000
0010
0000
1000
0100
0000
1000
0001
0000
,  // measure 46
0010
0000
0100
0010
0000
0001
0100
0000
0001
0000
1000
0000
0010
0100
0010
0100
,  // measure 47
0001
1000
0001
1000
0100
0000
0010
0000
0100
0000
1000
0010
0000
0100
0001
0000
,  // measure 48
0010
0000
0100
0010
0001
0000
1000
0001
0000
0000
0100
0000
0010
1000
0010
1000
,  // measure 49
0002
0000
2003
0000
3100
0010
0001
0000
1000
0000
0001
0020
0000
0130
1000
0000
,  // measure 50
0010
0000
1000
0020
0000
0130
0001
0000
1000
0100
1000
0000
0001
0010
0001
0010
,  // measure 51
0100
0010
0001
1000
0200
0000
0000
0000
0300
0000
1000
0000
0001
0000
0000
0100
,  // measure 52
0000
0000
0000
0001
0000
0000
0010
0000
0000
0000
0000
0000
1100
0000
0000
0000
0000
0000
0001
0000
0100
0000
0001
0000
,  // measure 53
1000
0010
1000
0010
0100
0000
0010
0000
1000
0001
1000
0001
0000
0010
0100
0000
,  // measure 54
0010
0001
1000
0001
0000
0100
0010
0000
1000
0010
1000
0000
0001
0100
0001
0100
,  // measure 55
0010
1000
0010
1000
0001
0000
0010
0000
0100
0010
0001
0010
0000
0100
1000
0000
,  // measure 56
0001
0100
0001
0000
1000
0010
1000
0002
0000
0013
0100
0000
0100
1000
0100
0000
,  // measure 57
1000
0001
1000
0001
0100
0000
0010
0000
1000
0001
1000
0001
0000
1000
0010
0000
,  // measure 58
0100
1000
0100
0010
0000
0100
0001
0000
0100
0010
1000
0000
0001
0100
0001
0100
,  // measure 59
0010
1000
0001
0100
0020
0000
0000
0000
0000
0000
1030
0000
0001
0000
0000
0000
,  // measure 60
1000
0000
0100
0000
0010
0000
0001
0000
0000
0010
0000
0000
0001
0000
0000
1000
0000
0000
0001
0000
0100
0000
0010
0000
,  // measure 61
1000
0010
1000
0010
0100
0001
1000
0001
0100
0000
0010
0000
0100
0010
1000
0100
,  // measure 62
0010
0000
0100
0000
1000
0010
0100
0010
0000
0100
0001
1000
0001
0000
0010
0000
,  // measure 63
0100
1000
0100
0000
1000
0010
0100
1000
0100
0000
1000
0000
0100
0010
1000
0100
,  // measure 64
0010
0001
1000
0020
0000
0000
0130
0000
0001
0000
1000
0000
0001
0010
0001
0010
,  // measure 65
0100
0000
1000
0000
0010
1000
0001
1000
0010
0000
0100
0000
0010
0100
0001
0010
,  // measure 66
0100
0000
0010
0000
0001
0100
0010
0100
0000
0010
1000
0001
1000
0000
0100
0000
,  // measure 67
0010
0001
0010
0000
0001
0000
1000
0010
0000
1000
0010
0100
0001
0000
0010
0000
,  // measure 68
0100
0000
0000
1000
0000
0000
0001
0000
0000
0200
0000
0000
0000
0000
0000
0000
0000
0000
0310
0000
0000
0000
0000
0000
1000
0000
0000
0000
0000
0000
0001
0000
0000
0000
0000
0000
1000
0000
0000
0000
0100
0000
0000
0000
0010
0000
0000
0000
,  // measure 69
0001
0000
0000
0000
0100
0000
0000
0000
0010
0000
0000
0000
1000
0000
0000
0000
0000
0000
0000
0000
0000
0000
0000
0000
1001
0000
0000
0000
0000
0000
0001
0000
0000
0000
0000
0000
0100
0000
0000
0001
0000
0000
0010
0000
0000
0000
0000
0000
,  // measure 70
0100
0000
1000
0000
0010
1000
0100
0010
0000
0010
0001
1000
0010
0000
0001
0000
,  // measure 71
0010
0100
0010
0000
1000
0001
0010
0100
1000
0000
0010
0000
1000
0100
0010
0001
,  // measure 72
1000
0001
0100
0020
0000
0000
0130
0000
0001
0000
1000
0000
0100
0010
0001
1000
,  // measure 73
0010
0000
0100
0000
1002
0000
0000
0000
0000
0000
0103
0000
1000
0000
0000
0100
,  // measure 74
0000
0000
0001
0000
1000
0000
0000
0100
0000
0000
0010
0000
1001
0000
0100
0001
,  // measure 75
1000
0000
0200
0000
0300
0010
0100
1000
,  // measure 76
0010
0000
0000
0000
0000
0000
1000
0000
0000
0100
0000
0000
0000
0000
0000
1000
0000
0000
0100
0000
0000
0000
0000
0000
0010
0000
0000
0001
0000
0000
1000
0000
0000
0000
0000
0000
0001
0000
0000
0000
0100
0000
0000
0000
0001
0000
0000
0000
,  // measure 77
1000
0000
0000
0000
1000
0000
0001
0000
0100
0000
0010
1000
0000
0000
1000
0000
,  // measure 78
0100
0000
0010
0001
0000
0000
0001
0000
0100
0000
0010
1000
0001
0000
0010
0000
,  // measure 79
0001
0100
0010
0000
1000
0000
0001
0000
0010
0000
0100
1000
0000
0000
1000
0000
,  // measure 80
0010
0000
0100
0001
1000
0010
1000
0010
0100
0001
1000
0001
0010
0100
1000
0010
,  // measure 81
0100
0001
1000
0100
0000
0000
0000
0000
0000
0000
0000
0000
0000
0000
0000
0000
;

//---------------dance-single - ----------------
#NOTES:
     dance-single:
     :
     Medium:
     8:
     0.580967,0.605352,0.350712,0.283555,0.167894,545.000000,498.000000,47.000000,38.000000,0.000000,0.000000,0.580967,0.605352,0.350712,0.283555,0.167894,545.000000,498.000000,47.000000,38.000000,0.000000,0.000000:
// measure 0
0000
0000
0000
0000
,  // measure 1
0000
0000
0000
0000
,  // measure 2
0000
0000
0000
0000
,  // measure 3
0000
0000
0000
0000
,  // measure 4
0000
0000
0000
0000
,  // measure 5
0000
0000
0000
0000
,  // measure 6
1000
0100
1000
0100
0010
0001
0010
0001
,  // measure 7
1000
0100
0010
0001
1000
0100
0010
0001
,  // measure 8
0200
0000
0000
0000
,  // measure 9
0310
0100
1001
0000
0001
0100
0010
1000
,  // measure 10
0100
1000
0001
0000
2000
0000
3200
0000
,  // measure 11
0310
0000
0001
0000
0100
0000
0010
0000
1010
0000
0000
0000
0110
0000
0000
0101
,  // measure 12
0000
0000
1000
0000
0001
0010
0100
1000
,  // measure 13
0010
0100
0002
0003
1001
0000
0001
0000
,  // measure 14
0100
0010
1000
0000
0100
0001
0100
1000
,  // measure 15
0100
0001
0200
0000
1300
0010
0100
0001
,  // measure 16
1000
0010
0000
0100
0001
0010
0100
1000
,  // measure 17
0001
0100
0000
0000
0001
0100
0002
0000
,  // measure 18
2003
0000
3002
0000
0023
0000
0130
1000
,  // measure 19
0010
0000
0100
0000
0101
0000
0000
0000
0110
0000
0000
1001
0000
0000
0000
0000
,  // measure 20
0001
0000
1000
0100
0010
0001
0100
0010
,  // measure 21
1000
0001
1001
0000
1000
0000
0010
0100
,  // measure 22
0001
0000
0010
1000
0010
0001
0010
1000
,  // measure 23
0020
0000
0031
0000
0101
0000
1001
1001
,  // measure 24
0000
0000
0200
0000
0000
0310
1002
0000
,  // measure 25
0010
0000
0103
0010
1001
0000
1200
1000
,  // measure 26
0310
0000
0001
0100
1001
0000
0201
0000
,  // measure 27
0310
0000
1000
0001
0110
0000
0002
0000
,  // measure 28
0103
0000
0010
0000
1000
0000
0002
0000
1003
0000
0100
0000
1000
0000
0000
0010
,  // measure 29
0000
0000
0100
0000
0001
0000
0000
1000
0000
0000
0001
0000
0100
0000
0000
0010
,  // measure 30
1000
0000
0000
0010
0000
0000
1000
0000
0000
0001
0000
0000
2000
0000
0000
0000
0000
0000
0000
0000
0000
0000
0000
0000
0000
0000
0000
0000
0000
0000
0000
0000
0000
0000
0000
0000
3001
0000
0000
0000
1000
0000
0000
0000
0001
0000
0000
0000
,  // measure 31
1000
0000
0000
0000
0001
0000
0000
0000
1000
0000
0000
0000
0000
0000
0000
0000
0000
0000
0000
0000
0000
0000
0000
0000
0001
0000
0000
0000
0000
0000
0000
0000
0000
0010
0000
0000
0000
0000
0000
0000
0000
0000
0110
0000
0000
0000
0000
0000
,  // measure 32
0000
2000
0010
0001
,  // measure 33
0100
3020
0001
0100
,  // measure 34
1030
0002
1003
0100
1000
0001
0000
0010
,  // measure 35
0100
0010
0000
0001
0100
0001
0000
1000
,  // measure 36
0010
0100
0001
0010
0100
1000
0000
0001
,  // measure 37
0100
0000
0010
0000
0000
0000
2002
3003
1000
0001
0100
0010
1010
0000
0000
0000
,  // measure 38
1010
1100
1100
0101
,  // measure 39
0101
0011
0011
1100
,  // measure 40
0101
0110
1001
0011
,  // measure 41
1100
0000
2020
3030
0001
0001
1000
1000
,  // measure 42
0010
0010
0100
0100
0001
0001
0010
0010
,  // measure 43
0100
0100
1000
1000
0001
0110
1000
0010
,  // measure 44
0100
0001
0010
0000
0100
0000
1000
0001
,  // measure 45
1001
0000
1000
0100
0010
0100
1000
0010
,  // measure 46
0100
0001
1000
0001
0010
0100
0010
0001
,  // measure 47
0100
0001
0100
0000
0010
0000
0100
0000
0001
0000
1000
0000
0001
0000
0010
0000
,  // measure 48
1000
0010
0001
0100
0001
1000
0010
0100
,  // measure 49
0001
1000
0001
0000
1000
0000
0100
0000
0001
0000
0100
0000
1000
0000
0010
0000
,  // measure 50
0100
0001
1000
0010
0001
0010
0100
0001
,  // measure 51
0010
0000
0100
0000
2200
0000
0000
0000
3300
0000
1000
0000
0001
0000
0000
0100
,  // measure 52
0000
0000
0000
0010
0000
0000
0110
0000
0000
0000
0000
0000
1001
0000
0000
0000
0000
0000
0001
0000
0010
0000
0001
0000
,  // measure 53
0200
0000
0310
1000
0100
1000
0001
0010
,  // measure 54
0100
1000
0001
0100
0010
0001
0010
0100
,  // measure 55
0001
1000
0001
0000
1000
0000
0100
0000
0001
0000
0100
0000
1000
0000
0001
0000
,  // measure 56
0010
0001
0100
0010
0001
0010
1000
0001
,  // measure 57
1000
0100
1000
0000
0010
0000
0100
0000
1000
0000
0100
0000
0010
0000
0100
0000
,  // measure 58
0010
0100
0001
1000
0100
1000
0001
0010
,  // measure 59
0100
0010
0022
0000
0033
1000
0001
0000
,  // measure 60
0100
0010
0100
0001
0000
0000
1100
0000
0000
1000
0100
0010
,  // measure 61
0001
0000
0001
0010
0001
0100
0010
0100
,  // measure 62
0001
1000
0100
0010
0000
1100
1000
0010
,  // measure 63
1000
0100
0010
0100
1000
0010
0001
0010
,  // measure 64
1000
0000
0001
2000
0000
0000
3100
0000
0010
0000
0001
0000
0100
0001
0100
0000
,  // measure 65
0010
0010
1000
0001
0100
1000
0100
0010
,  // measure 66
1000
0100
0010
0001
0000
0101
0001
1000
,  // measure 67
0001
0000
0010
0000
0200
0000
0000
1300
0000
0000
0010
0000
0100
0000
0001
0000
,  // measure 68
1000
0000
0000
0001
0000
0000
1000
0000
0000
0001
0000
0000
0000
0000
0000
0000
0000
0000
0100
0000
0000
0000
0000
0000
0100
0000
0000
0000
0000
0000
0100
0000
0000
0000
0000
0000
0010
0000
0000
0000
1000
0000
0000
0000
0010
0000
0000
0000
,  // measure 69
0100
0000
0001
0000
1000
0000
0000
0000
0000
0000
0000
0000
1001
0000
0000
0000
0000
0000
0001
0000
0000
0010
0000
0000
,  // measure 70
0100
0000
1000
0100
0001
0100
1000
0100
,  // measure 71
0010
0000
0001
0100
1000
0100
0001
0100
,  // measure 72
0010
0000
1000
0002
0000
0000
0013
0000
0100
0000
0010
0000
0001
1000
0001
1000
,  // measure 73
0001
0000
0100
0000
0220
0000
0000
0000
0330
0000
1000
0000
0001
0000
0000
1000
,  // measure 74
0000
0000
0100
0000
1000
0000
0000
0010
0000
0000
0100
0000
0001
0000
1000
0001
,  // measure 75
1000
0000
0220
0000
0330
0000
0001
0100
,  // measure 76
0001
0000
0000
0000
0000
0000
1000
0000
0000
0001
0000
0000
0000
0000
0000
0000
0000
0000
0010
0000
0000
0000
0000
0000
0100
0000
0000
0000
0000
0000
1000
0000
0000
0000
0000
0000
0010
0000
0000
0000
1000
0000
0000
0000
0100
0000
0000
0000
,  // measure 77
0010
0000
0001
0000
0100
0000
0020
0000
0000
1000
0000
0000
0000
0000
0000
1000
0000
0000
0000
0000
0000
0100
0000
0000
,  // measure 78
0000
0100
0000
0001
0000
0031
0010
1000
,  // measure 79
0001
0010
0200
0010
0000
0010
0000
0001
,  // measure 80
0000
0301
0100
1000
0010
0100
0001
1000
,  // measure 81
0100
0010
0000
0000
0000
0000
0000
0000
;

//---------------dance-single - ----------------
#NOTES:
     dance-single:
     :
     Easy:
     5:
     0.358174,0.453314,0.186549,0.276093,0.018655,336.000000,311.000000,25.000000,37.000000,0.000000,0.000000,0.358174,0.453314,0.186549,0.276093,0.018655,336.000000,311.000000,25.000000,37.000000,0.000000,0.000000:
// measure 0
0000
0000
0000
0000
,  // measure 1
0000
0000
0000
0000
,  // measure 2
0000
0000
0000
0000
,  // measure 3
0000
0000
0000
0000
,  // measure 4
0000
0000
0000
0000
,  // measure 5
0000
0000
0000
0000
,  // measure 6
1000
0100
0010
0001
,  // measure 7
1000
0010
0100
0001
,  // measure 8
2002
0000
0000
0000
0000
0000
0000
0000
0000
0000
0000
0000
0000
3003
0000
0000
,  // measure 9
0100
0010
0100
0000
0001
0000
1000
0000
,  // measure 10
0001
0010
0100
1000
,  // measure 11
0010
1000
0010
0000
0110
0000
1001
0000
,  // measure 12
0110
0000
1000
0100
,  // measure 13
0010
0002
1003
0001
,  // measure 14
0100
0001
1000
0010
,  // measure 15
0100
0100
0002
0000
1003
0000
0001
0000
,  // measure 16
0010
0000
0000
0110
0000
0000
0000
1000
,  // measure 17
0000
0001
0000
0000
1000
0000
0001
0000
,  // measure 18
0010
0000
0200
0000
2300
0000
3010
0100
,  // measure 19
0001
1001
0110
1001
,  // measure 20
0000
0000
1000
0000
0001
0000
0100
0010
,  // measure 21
1000
0001
1000
0001
,  // measure 22
0010
0000
0100
0000
0010
0000
0001
1000
,  // measure 23
0000
0000
0100
0000
0100
0000
0010
0100
,  // measure 24
0000
0000
2002
0000
3003
0110
2001
0000
,  // measure 25
3100
0000
0000
0000
1000
0000
0000
0001
0000
0000
0010
0000
0200
0000
0000
0000
,  // measure 26
0310
0000
0000
0000
0001
0000
0000
0100
0000
0000
0001
0000
2000
0000
0000
0000
,  // measure 27
3010
0000
0000
0000
1000
0000
0000
0100
0000
0000
1000
0000
0002
0000
0000
0000
,  // measure 28
0013
0100
1002
0013
,  // measure 29
2001
3010
2001
0000
,  // measure 30
0000
3002
0000
0013
,  // measure 31
0100
0000
0000
0000
1001
0000
0000
1001
,  // measure 32
0000
2000
0010
0010
,  // measure 33
0010
3002
0010
0010
,  // measure 34
0010
1003
0000
0100
,  // measure 35
0000
1000
0000
0010
,  // measure 36
0000
0100
0000
0001
,  // measure 37
0000
0000
0000
0000
1000
0000
0001
0000
0000
1000
0000
0000
0001
0000
0000
0000
,  // measure 38
0001
0001
0001
1000
,  // measure 39
1000
1000
1000
0010
,  // measure 40
0010
0010
0010
0100
,  // measure 41
0100
0000
0000
0000
0200
0000
0000
0300
0001
0000
0100
0000
0001
0000
0000
0000
,  // measure 42
1000
0010
1000
0000
0010
0100
0010
0000
,  // measure 43
0100
0001
0100
0000
0001
1000
0200
0000
,  // measure 44
0320
0030
1001
0000
0110
0000
1001
0000
,  // measure 45
0110
1000
0100
0010
,  // measure 46
0100
0000
1000
0000
0001
0000
0100
0010
,  // measure 47
1000
0010
1000
0001
,  // measure 48
0100
0001
0010
0100
,  // measure 49
1000
0010
1000
0000
0001
0000
0010
0000
,  // measure 50
0001
0000
0100
0000
0001
0000
1000
0010
,  // measure 51
0100
0000
0002
0000
0000
1000
1003
0000
,  // measure 52
0000
1000
0001
0020
,  // measure 53
0230
1300
0010
1000
,  // measure 54
0001
0000
0100
0000
0001
0000
0010
0001
,  // measure 55
1000
0001
0010
0000
0001
0000
0100
0000
,  // measure 56
0001
1000
0100
0010
,  // measure 57
0100
1000
0001
0000
0010
0000
0100
0000
,  // measure 58
0010
0000
0001
0000
1000
0000
0001
1000
,  // measure 59
0010
1000
0002
0000
0000
1000
1003
0000
,  // measure 60
0001
0101
1100
0002
,  // measure 61
2003
3010
0100
0010
,  // measure 62
1000
0000
0100
0010
0001
0010
0100
0000
,  // measure 63
1000
0001
0010
0001
,  // measure 64
0100
0000
0010
0000
1000
0000
0010
0100
,  // measure 65
0010
1000
0100
1000
,  // measure 66
0001
0000
0010
0000
0100
0000
0010
0001
,  // measure 67
1000
0010
0200
0000
0310
0000
2000
0000
,  // measure 68
3001
0000
0000
1000
0000
0000
0000
0000
0001
0000
0000
0000
2000
0000
0000
0000
,  // measure 69
3200
0000
0000
0300
0000
0000
0000
0000
0110
0000
0000
0000
1000
0000
0000
0000
,  // measure 70
0001
0000
0100
0001
1000
0001
0100
0000
,  // measure 71
0010
0000
1000
0100
1000
0000
0001
0010
,  // measure 72
0001
0000
0100
0000
0010
0000
1000
0001
,  // measure 73
0010
0000
2001
0000
0000
0100
0100
0000
,  // measure 74
3001
1000
0010
0100
,  // measure 75
0001
1001
0000
0001
,  // measure 76
1000
0100
1000
0020
,  // measure 77
0030
0200
0010
0001
,  // measure 78
0010
0302
0010
1000
,  // measure 79
0010
2003
0100
0001
,  // measure 80
0100
3020
0100
0001
,  // measure 81
0130
0000
0000
0000
;
